#VERSION:0.83;
#TITLE:Song 2;
#SUBTITLE:(The Woohoo Song);
#ARTIST:Blur;
#TITLETRANSLIT:;
#SUBTITLETRANSLIT:;
#ARTISTTRANSLIT:;
#GENRE:;
#ORIGIN:;
#CREDIT:;
#BANNER:;
#BACKGROUND:;
#PREVIEWVID:;
#JACKET:;
#CDIMAGE:;
#DISCIMAGE:;
#LYRICSPATH:;
#CDTITLE:;
#MUSIC:Song 2 (The Woohoo Song).ogg;
#OFFSET:-0.330000;
#SAMPLESTART:44.270000;
#SAMPLELENGTH:15.000000;
#SELECTABLE:YES;
#DISPLAYBPM:130.000000;
#BPMS:0.000=129.900,
64.000=129.200,
80.000=129.320,
88.000=129.440,
92.000=129.900,
148.000=129.850,
152.000=129.400,
168.000=129.530,
176.000=129.720,
180.000=129.820,
184.000=129.840,
224.000=129.700;
#STOPS:;
#DELAYS:;
#WARPS:;
#TIMESIGNATURES:0.000=4=4;
#TICKCOUNTS:0.000=4;
#COMBOS:0.000=1;
#SPEEDS:0.000=1.000=0.000=0;
#SCROLLS:0.000=1.000;
#FAKES:;
#LABELS:0.000=Song Start;
#BGCHANGES:;
#KEYSOUNDS:;
#ATTACKS:
;

//---------------dance-single - ----------------
#NOTEDATA:;
#CHARTNAME:;
#STEPSTYPE:dance-single;
#DESCRIPTION:;
#CHARTSTYLE:;
#DIFFICULTY:Hard;
#METER:6;
#RADARVALUES:0.350650,0.394262,0.171818,0.351819,0.000000,300.000000,279.000000,21.000000,43.000000,0.000000,0.000000,0.000000,0.000000,0.000000,0.350650,0.394262,0.171818,0.351819,0.000000,300.000000,279.000000,21.000000,43.000000,0.000000,0.000000,0.000000,0.000000,0.000000;
#CREDIT:;
#DISPLAYBPM:130.000000;
#NOTES:
0000
0000
0000
0000
,
0000
0000
0000
0000
,
0000
0000
0000
0000
,
0000
0000
0000
0000
,
0100
0000
0001
0000
1000
0100
0010
0000
,
0001
0000
1000
0001
0000
0001
0010
0001
,
0100
0000
0010
0000
1000
0001
0100
0000
,
0010
1000
0001
0020
0000
0000
0030
0000
,
0101
0000
0010
0000
1000
0100
0001
0000
,
0010
0001
1000
0010
0100
0000
0110
0000
,
1001
0000
1000
0000
0010
1000
0001
0000
,
1000
0010
0100
0001
0000
0001
1000
0000
,
1001
0000
0010
0000
0010
1000
0100
0000
,
0010
0001
0100
0000
0010
0000
0100
0000
,
1001
0000
1000
0000
0001
0010
1000
0000
,
0010
0001
1000
0010
,
1000
0000
0100
0000
1000
0001
0100
0000
,
0010
1000
0001
0000
0020
0000
0130
0000
,
1000
0000
0001
0000
0001
0010
0001
0000
,
1000
0010
1000
0000
0200
0000
0310
0000
,
0001
1000
0010
0000
1000
0001
0100
0000
,
0010
0100
0020
0030
,
1100
0101
0000
0001
,
1000
0000
0010
0020
0000
0000
0030
0000
,
1001
0000
1000
0000
0001
0010
0100
0000
,
1000
0001
0100
0000
0002
0000
1003
0000
,
2000
0000
3000
0000
0010
1000
0001
0000
,
0001
0100
1000
0010
,
1001
0000
0000
0000
1000
0001
1000
0000
,
0010
0000
0100
0000
0001
1000
0100
0000
,
2000
3010
0002
0013
,
0200
1300
0200
0301
,
2002
0000
3003
0000
,
0010
1000
0001
0100
0010
1000
0001
0100
,
0020
1000
0000
1030
,
0001
0100
0010
1000
,
0200
0001
0000
0301
,
0010
0001
1000
0001
1000
0000
1001
0000
,
0002
0000
0013
0000
0100
1000
0001
0000
,
1000
0010
0100
0001
,
2000
3010
0200
0301
,
1000
0001
0100
0001
0010
0000
0001
0000
,
1000
0020
0000
0130
,
1000
0001
0010
1000
0000
0010
0001
1000
,
0000
0010
0100
0000
2002
0000
3003
0000
,
0001
1000
0001
1000
0220
0000
0330
0000
,
2002
0000
3003
0000
0001
0010
0001
0000
,
0100
0010
1000
0100
0020
0000
0031
0000
,
2200
0000
3300
0000
0001
1000
0010
0000
,
0100
0001
0010
0000
0001
0000
1000
0000
,
0202
0303
0010
1000
,
0001
1000
0100
0000
0010
0000
0001
0000
,
2000
3100
0002
0103
,
0010
1000
0001
0100
,
2002
0000
3003
0000
0010
1000
0001
0000
,
0100
0001
1000
0100
0010
1000
0010
0001
,
2000
0010
0000
3010
,
0100
0000
0001
0010
0000
0001
0010
0000
,
2200
0000
3300
0000
0010
1000
0001
0000
,
0100
0001
0010
1000
0010
0001
1000
0000
,
0202
0000
0303
0000
0010
0001
0100
0000
,
0010
0000
1000
0000
0001
1000
0100
0000
,
0220
0330
0001
1000
,
0010
1000
0001
0100
0010
1000
0001
0000
,
2002
3003
0000
0000
;

//---------------dance-single - ----------------
#NOTEDATA:;
#CHARTNAME:;
#STEPSTYPE:dance-single;
#DESCRIPTION:;
#CHARTSTYLE:;
#DIFFICULTY:Medium;
#METER:4;
#RADARVALUES:0.250130,0.261819,0.139091,0.098182,0.000000,214.000000,197.000000,17.000000,12.000000,0.000000,0.000000,0.000000,0.000000,0.000000,0.250130,0.261819,0.139091,0.098182,0.000000,214.000000,197.000000,17.000000,12.000000,0.000000,0.000000,0.000000,0.000000,0.000000;
#CREDIT:;
#DISPLAYBPM:130.000000;
#NOTES:
0000
0000
0000
0000
,
0000
0000
0000
0000
,
0000
0000
0000
0000
,
0000
0000
0000
0000
,
0010
0100
0010
1000
,
0100
0010
0001
0001
,
0010
0001
1000
0010
,
0100
0001
1000
1000
,
1001
0000
0100
1000
,
0001
0100
0010
0000
,
1001
0000
1000
0010
,
1000
0100
0001
0000
,
1001
0000
0001
0010
,
0001
1000
0010
0000
,
1001
0000
1000
0010
,
0100
0001
0010
0000
,
0001
0001
1000
0010
,
1000
0100
0001
0000
,
0010
1000
0001
0100
,
0001
0100
1000
0000
,
0010
1000
0100
1000
,
0001
0100
0010
0000
,
0001
0010
1000
0010
,
0001
0100
1000
0000
,
1001
0000
0010
1000
,
0001
0010
0100
0000
,
1001
0000
1000
0001
,
0010
1000
0010
0000
,
1001
0000
0100
0010
,
1000
0100
0001
0000
,
2000
0000
3010
0100
,
0002
0000
0013
0100
,
0020
0030
0200
0300
,
1000
0001
1000
0001
,
1001
0100
0000
0001
,
1000
0010
0100
0010
,
1000
0100
0000
0001
,
0100
1000
0010
0100
,
0002
0010
0000
0013
,
0100
1000
0010
0100
,
2000
0010
0000
3010
,
0100
0001
0010
0001
,
0200
0010
0000
0310
,
1000
0001
0010
0100
,
0020
0100
0100
0030
,
1001
0000
0000
0010
,
1001
0000
0001
0010
,
0001
1000
0010
0000
,
1001
0000
1000
0010
,
0100
1000
0100
0000
,
1001
0000
0010
0001
,
1000
0100
0001
0000
,
0020
0000
0031
0100
,
0020
0000
1030
0100
,
0200
0300
0020
0030
,
0001
1000
0001
1000
,
1001
0010
0000
0010
,
0001
1000
0010
0100
,
0110
1000
0000
1000
,
0010
0100
1000
0100
,
1001
0001
0000
0010
,
0001
1000
0010
0100
,
1001
0100
0000
0100
,
0010
1000
0001
0100
,
1001
0000
0000
0000
;

//---------------dance-single - ----------------
#NOTEDATA:;
#CHARTNAME:;
#STEPSTYPE:dance-single;
#DESCRIPTION:;
#CHARTSTYLE:;
#DIFFICULTY:Easy;
#METER:2;
#RADARVALUES:0.147273,0.209455,0.163637,0.130909,0.000000,126.000000,106.000000,20.000000,16.000000,0.000000,0.000000,0.000000,0.000000,0.000000,0.147273,0.209455,0.163637,0.130909,0.000000,126.000000,106.000000,20.000000,16.000000,0.000000,0.000000,0.000000,0.000000,0.000000;
#CREDIT:;
#DISPLAYBPM:130.000000;
#NOTES:
// measure 0
0000
0000
0000
0000
,  // measure 1
0000
0000
0000
0000
,  // measure 2
0000
0000
0000
0000
,  // measure 3
0000
0000
0000
0000
,  // measure 4
0001
0000
0001
0000
,  // measure 5
1000
0001
1000
0000
,  // measure 6
1000
0000
1000
0000
,  // measure 7
0001
1000
0001
0000
,  // measure 8
1001
0000
0000
0000
,  // measure 9
0010
0000
0100
0000
,  // measure 10
1001
0000
0000
0000
,  // measure 11
0001
0000
1000
0000
,  // measure 12
1001
0000
0000
0000
,  // measure 13
0100
0000
0010
0000
,  // measure 14
1001
0000
0000
0000
,  // measure 15
1000
0000
0001
0000
,  // measure 16
2000
0000
3000
0000
,  // measure 17
0100
0000
1000
0000
,  // measure 18
0002
0000
0003
0000
,  // measure 19
0100
0000
0001
0000
,  // measure 20
0020
0000
0030
0000
,  // measure 21
0100
0000
1000
0000
,  // measure 22
0020
0000
0030
0000
,  // measure 23
0100
0000
0001
0000
,  // measure 24
1001
0000
0000
0000
,  // measure 25
0001
0001
1000
1000
,  // measure 26
1001
0000
0000
0000
,  // measure 27
1000
1000
0001
0001
,  // measure 28
1001
0000
0000
0000
,  // measure 29
0010
0010
0100
0100
,  // measure 30
0020
0000
0030
0000
,  // measure 31
0200
0000
0300
0000
,  // measure 32
0220
0000
0330
0000
,  // measure 33
0001
0000
1000
0000
,  // measure 34
1001
0000
0000
0000
,  // measure 35
1000
0000
0001
0000
,  // measure 36
1001
0000
0000
0000
,  // measure 37
0010
0000
0010
0000
,  // measure 38
0200
0000
0300
0000
,  // measure 39
0001
0000
1000
0000
,  // measure 40
0020
0000
0030
0000
,  // measure 41
1000
0000
0001
0000
,  // measure 42
2000
0000
3000
0000
,  // measure 43
0001
0000
1000
0000
,  // measure 44
0002
0000
0003
0000
,  // measure 45
1001
0000
0000
0000
,  // measure 46
1001
0000
0000
0000
,  // measure 47
0010
0010
0010
0000
,  // measure 48
1001
0000
0000
0000
,  // measure 49
0100
0100
0100
0000
,  // measure 50
1001
0000
0000
0000
,  // measure 51
0001
1000
0001
1000
,  // measure 52
0020
0000
0030
0000
,  // measure 53
0200
0000
0300
0000
,  // measure 54
0220
0000
0330
0000
,  // measure 55
1000
0000
0001
0000
,  // measure 56
1001
0000
0000
0000
,  // measure 57
0010
0100
0010
0000
,  // measure 58
0110
0000
0000
0000
,  // measure 59
0001
1000
0001
0000
,  // measure 60
1001
0000
0000
0000
,  // measure 61
0100
0010
0100
0000
,  // measure 62
0110
0000
0000
0000
,  // measure 63
1000
0001
1000
0000
,  // measure 64
1001
0000
0000
0000
;

//---------------dance-single - ----------------
#NOTEDATA:;
#CHARTNAME:;
#STEPSTYPE:dance-single;
#DESCRIPTION:;
#CHARTSTYLE:;
#DIFFICULTY:Beginner;
#METER:1;
#RADARVALUES:0.095844,0.157091,0.155455,0.000000,0.000000,82.000000,63.000000,19.000000,0.000000,0.000000,0.000000,0.000000,0.000000,0.000000,0.095844,0.157091,0.155455,0.000000,0.000000,82.000000,63.000000,19.000000,0.000000,0.000000,0.000000,0.000000,0.000000,0.000000;
#CREDIT:;
#DISPLAYBPM:130.000000;
#NOTES:
// measure 0
0000
0000
0000
0000
,  // measure 1
0000
0000
0000
0000
,  // measure 2
0000
0000
0000
0000
,  // measure 3
0000
0000
0000
0000
,  // measure 4
0001
0000
0001
0000
,  // measure 5
0001
0000
0000
0000
,  // measure 6
1000
0000
1000
0000
,  // measure 7
1000
0000
0000
0000
,  // measure 8
1001
0000
0000
0000
,  // measure 9
0010
0000
0000
0000
,  // measure 10
1001
0000
0000
0000
,  // measure 11
0100
0000
0000
0000
,  // measure 12
1001
0000
0000
0000
,  // measure 13
0010
0000
0000
0000
,  // measure 14
1001
0000
0000
0000
,  // measure 15
0100
0000
0000
0000
,  // measure 16
0001
0000
0000
0000
,  // measure 17
0000
0000
0000
0000
,  // measure 18
1000
0000
0000
0000
,  // measure 19
0000
0000
0000
0000
,  // measure 20
0001
0000
0000
0000
,  // measure 21
0000
0000
0000
0000
,  // measure 22
1000
0000
0000
0000
,  // measure 23
0000
0000
0000
0000
,  // measure 24
1001
0000
0000
0000
,  // measure 25
0010
0000
0100
0000
,  // measure 26
1001
0000
0000
0000
,  // measure 27
0010
0000
0100
0000
,  // measure 28
1001
0000
0000
0000
,  // measure 29
0010
0000
0100
0000
,  // measure 30
0010
0000
0000
0000
,  // measure 31
0100
0000
0000
0000
,  // measure 32
0110
0000
0000
0000
,  // measure 33
0001
0000
1000
0000
,  // measure 34
1001
0000
0000
0000
,  // measure 35
0001
0000
0000
0000
,  // measure 36
1001
0000
0000
0000
,  // measure 37
1000
0000
0000
0000
,  // measure 38
0010
0000
0000
0000
,  // measure 39
0000
0000
0000
0000
,  // measure 40
0100
0000
0000
0000
,  // measure 41
0000
0000
0000
0000
,  // measure 42
0010
0000
0000
0000
,  // measure 43
0000
0000
0000
0000
,  // measure 44
0100
0000
0000
0000
,  // measure 45
0000
0000
0000
0000
,  // measure 46
1001
0000
0000
0000
,  // measure 47
0010
0000
0100
0000
,  // measure 48
1001
0000
0000
0000
,  // measure 49
0010
0000
0100
0000
,  // measure 50
1001
0000
0000
0000
,  // measure 51
0010
0000
0100
0000
,  // measure 52
0010
0000
0000
0000
,  // measure 53
0100
0000
0000
0000
,  // measure 54
0110
0000
0000
0000
,  // measure 55
1000
0000
0001
0000
,  // measure 56
1001
0000
0000
0000
,  // measure 57
1000
0000
0000
0000
,  // measure 58
1001
0000
0000
0000
,  // measure 59
0001
0000
0000
0000
,  // measure 60
1001
0000
0000
0000
,  // measure 61
0010
0000
0000
0000
,  // measure 62
1001
0000
0000
0000
,  // measure 63
0100
0000
0000
0000
,  // measure 64
1001
0000
0000
0000
;
