#TITLE:SEVEN FOOT RAT;
#SUBTITLE:(WE DON'T TALK ABOUT RATS);
#ARTIST:NorthFlowo;
#TITLETRANSLIT:;
#SUBTITLETRANSLIT:;
#ARTISTTRANSLIT:;
#GENRE:;
#CREDIT:;
#MUSIC:SEVEN FOOT RAT.ogg;
#BANNER:SEVEN FOOT RAT.png;
#BACKGROUND:SEVEN FOOT RAT-bg.png;
#CDTITLE:;
#SAMPLESTART:70.92;
#SAMPLELENGTH:12;
#SELECTABLE:YES;
#OFFSET:-1.224;
#BPMS:0.000=103.000;
#STOPS:;
#BGCHANGES:-1.250=DARK.png=1.000=0=0=1===CrossFade_Fastest==,
0.000=SEVEN FOOT RAT.avi=1.000=0=0=0=StretchNoLoop====,
99999.000=-nosongbg-=1.000=0=0=0=StretchNoLoop====
;
#FGCHANGES:;

//--------------- dance-single - ----------------
#NOTES:
     dance-single:
     :
     Beginner:
     1:
     0.164741,0.271121,0.384395,0,0,141,94,47,0,0,0,0.164741,0.271121,0.384395,0,0,141,94,47,0,0,0:
0000
0000
0000
0000
,
0000
0000
0000
0000
,
0001
0000
1000
0000
,
1001
0000
0000
0000
,
0000
0010
0010
0010
,
0000
0100
0000
0100
,
0000
0110
0110
0000
,
1001
1001
0000
0000
,
1001
0000
0000
0000
,
0100
0000
0110
0000
,
0100
0000
0110
0000
,
0010
0000
0110
0000
,
1001
0000
0000
0000
,
1001
0000
0000
0000
,
1000
0000
0001
0000
,
1001
0000
0000
0000
,
0010
0000
0110
0000
,
0000
0000
1001
0000
,
0000
0010
0010
0000
,
0110
0000
0000
0000
,
0000
0100
0100
0000
,
0110
0000
0000
0000
,
0100
0000
1001
0000
,
0010
0000
0000
0000
,
0001
0000
0000
0000
,
1001
1001
1001
1001
,
0000
1001
1001
0000
,
0100
0000
0110
0000
,
0000
1001
0000
0000
,
1000
0000
0001
0000
,
1000
1000
1000
0000
,
0100
0100
0100
0000
,
0001
0001
0001
0000
,
0010
0010
0010
0000
,
1001
1001
1001
0000
,
0110
0110
0110
0000
,
0000
0100
0100
0000
,
0110
0000
0000
0000
,
0000
1001
1001
1001
,
1001
0000
0000
0000
,
0001
0000
1001
0000
,
1000
0000
1001
0000
,
1001
0000
0000
0110
,
0000
0000
0000
0100
,
0000
0110
0000
0000
,
0100
0000
1001
0000
,
1000
0000
0000
0000
,
0001
0000
1001
0000
,
0010
0000
0110
0000
,
0110
0000
0110
0000
,
0100
0100
0100
0000
,
1001
0000
0000
0000
;

//--------------- dance-single - ----------------
#NOTES:
     dance-single:
     :
     Easy:
     4:
     0.198624,0.312066,0.278073,0,0,170,136,34,0,0,0,0.198624,0.312066,0.278073,0,0,170,136,34,0,0,0:
0000
0000
0000
0000
,
0000
0000
0000
0000
,
0010
0000
1000
0000
0001
0000
0100
0100
,
0000
0000
0000
0000
0000
0000
0000
0100
,
0000
0001
1000
0001
,
1000
0000
0010
0010
,
0000
0000
0100
0100
0000
0000
0010
0000
,
0010
0010
0000
1000
0000
0001
0000
0100
,
0100
0000
0001
1000
,
1001
0000
0000
1001
0000
0000
0000
0000
,
0010
0000
0110
0000
,
0100
0000
0110
0000
,
0001
0000
0000
0000
0001
1000
0000
0000
,
1000
0000
0010
1000
,
0001
0000
0100
0000
0100
0000
0000
0110
,
0000
1000
0001
1000
,
0001
0010
0110
0000
,
0000
0001
1001
1000
,
0010
0000
1000
0000
0100
0000
0001
0010
,
0000
0000
0000
0000
,
0000
0000
1000
0000
0100
0000
0001
0010
,
0000
0000
0000
0000
,
1000
0000
0000
1001
1000
0000
0000
0000
,
0001
0000
1000
0010
,
0001
0000
0100
0000
,
0110
0110
0110
0110
,
0001
1001
1001
1000
,
0010
0000
0110
0000
,
0100
0101
0000
0001
,
1000
0000
0000
0010
,
1000
0000
0001
0000
1001
0000
0000
1010
,
0000
0001
0011
0000
,
0100
0000
0100
0000
1001
0000
0000
0010
,
0000
0100
0000
0000
1001
0000
0000
0000
,
1000
1000
1100
0000
,
0001
0001
0101
0000
,
0000
0000
1000
0000
0100
0000
0001
0010
,
0000
0000
0000
0000
,
0000
0000
1000
0000
0100
0000
0001
0110
,
0000
0000
0000
0000
,
1000
0000
1001
0000
,
0001
0000
0000
1001
0000
0010
0000
0010
,
0000
0000
1000
0000
0000
1001
0000
0000
,
0001
0000
0010
0000
,
0010
1010
1000
0000
,
0100
0000
0000
0011
0000
0000
0000
0000
,
0000
0001
0010
1000
,
0100
0100
0110
0000
,
0010
0000
0001
0000
0011
0000
0000
1010
,
0000
0000
0000
1100
0000
0000
0000
0000
,
1000
0000
0001
0000
0001
0000
0000
0101
;

//--------------- dance-single - ----------------
#NOTES:
     dance-single:
     :
     Medium:
     6:
     0.299104,0.353674,0.359859,0,0,256,212,44,0,0,0,0.299104,0.353674,0.359859,0,0,256,212,44,0,0,0:
0000
0000
0000
0000
,
0000
0000
0000
0000
,
0000
0000
1000
1000
0001
0001
0100
0100
,
0000
0000
0000
0000
0000
0000
0000
0110
,
0000
0000
1000
0000
0001
0001
1000
0000
,
0001
0010
1000
0100
,
1000
0000
0001
1001
0000
0000
1000
0000
,
0010
0000
0000
0110
0000
0100
0010
1000
,
0001
1000
0010
0100
,
0001
0000
0001
0011
0000
0000
1000
0000
,
0010
0000
1000
0000
1010
0000
1000
0001
,
0000
0100
0110
0000
,
0101
0000
0000
0000
0001
0010
0001
0000
,
1100
0000
1000
0001
,
0001
0010
0100
0000
1000
0000
0100
1100
,
0000
0000
0001
0000
0001
0010
0100
1000
,
0010
0010
1010
1000
,
0100
0001
0011
1000
,
0010
0000
1000
0010
0100
0001
0010
0110
,
0000
0000
0000
0000
,
0000
0000
0001
0100
0010
1000
0001
1001
,
0000
0000
0000
0000
,
1000
0000
0010
1010
0010
1000
0100
0000
,
0001
0001
1000
0010
0100
0000
0110
0000
,
0100
0000
0001
0000
0010
0100
1000
0000
,
1100
1010
0101
0011
,
1000
0000
1001
0001
0010
0001
1000
0100
,
0010
0000
0010
0010
0011
0001
1000
0000
,
0010
1000
0001
0010
0100
0000
0100
0000
,
0110
0000
0000
0000
0001
1000
0001
1000
,
0010
0000
1000
0000
1010
0000
0000
0100
,
0000
0001
0101
0001
,
1000
1000
1001
0001
,
0010
0100
0110
0000
,
1000
0100
1000
0000
1100
0000
0000
0000
,
0001
0100
0001
0000
0101
0000
0000
0000
,
0000
0000
0010
1000
0001
0010
0100
0110
,
0000
0000
0000
0000
,
0000
0000
0010
0001
1000
0100
0010
0011
,
1010
0000
0000
0000
,
0001
0000
1000
1000
1010
0000
0010
0000
,
1000
0001
0000
1001
0000
0001
0000
1000
,
0000
0000
0010
1000
0100
1100
0000
0010
,
0100
1000
0001
0100
,
1010
0000
0011
0000
1000
0010
0010
0000
,
0110
0001
1000
1001
0000
0000
1000
0000
,
0001
0000
0010
0001
1000
0010
0100
0100
,
0000
0001
0010
1000
0110
0000
0000
0000
,
0100
0000
1010
0000
0101
0000
1000
1100
,
0000
0010
0000
1001
0000
0001
0010
0000
,
1000
0000
0010
0100
0000
0100
0000
0110
;

//--------------- dance-single - ----------------
#NOTES:
     dance-single:
     :
     Hard:
     8:
     0.48137,0.540914,0.507075,0,0.188108,412,350,62,0,0,0,0.48137,0.540914,0.507075,0,0.188108,412,350,62,0,0,0:
0000
0000
0000
0000
,
0000
0000
0000
0000
,
1000
0000
0001
0010
1000
0010
0100
1100
,
0000
0001
0001
1000
1000
0010
0100
1001
,
0000
0000
1000
0000
0001
0010
0001
0000
1000
0000
0100
0000
0010
0000
0001
0000
,
1000
0010
0100
1000
0100
0001
0001
0010
,
0100
0000
1000
1010
0000
0100
0001
1000
,
0010
0110
0010
1000
0000
1000
0001
0010
,
0011
0000
0001
0100
0100
0010
1000
0100
,
0010
0001
0001
0101
0000
0010
1000
1000
,
1010
0000
0100
0000
1000
0010
1000
0000
0110
0000
0000
0100
0000
0000
0001
0000
,
0000
0000
1000
0000
0010
0100
0001
0000
0101
0000
0001
1000
0000
0000
0000
0000
,
0100
0010
0000
0000
0010
0000
0010
0000
0011
0000
0000
0001
0000
0000
1000
0000
,
1010
0000
0000
0000
1000
0100
1000
0000
0001
0000
0010
0000
0100
0000
0001
0000
,
0100
0000
1000
0000
0010
0000
0100
0000
0001
0000
0000
0101
0000
0000
1010
0000
,
0000
0000
1000
0100
1000
0010
0100
0000
0001
0000
0011
0000
0010
0000
0100
0000
,
1000
1000
0100
1000
0110
0000
0000
0000
,
0100
0000
0000
0001
0100
0000
0100
0000
1100
0000
1000
0000
0010
0000
0010
0000
,
0010
0000
1000
1010
0001
0100
0010
0011
,
0000
0000
0000
0000
,
0000
0000
0001
0011
0010
0100
1000
1010
,
0000
0000
0000
0000
,
1000
0001
0010
0000
0010
0000
0110
0000
0100
1000
0100
1000
0001
0000
0100
0000
,
0010
0100
0001
0000
0001
0000
1000
0000
0100
0010
0001
0000
0100
0000
0010
0000
,
1000
0010
1000
0001
0010
0000
0001
0000
0100
0000
0000
0001
0100
0000
0010
0000
,
1010
1000
1001
0001
0011
0010
0110
0100
,
1000
0010
0100
0000
0101
0000
0001
0000
0011
0000
0000
0010
0001
0000
1000
0000
,
1000
0100
0010
1000
0010
0001
0000
0100
0101
0000
0000
0000
0001
0000
1000
0000
,
0010
1000
0010
0000
0110
0000
0000
1000
0100
0000
0100
0000
0010
0000
0001
1000
,
0010
0000
0000
0000
0000
0000
1000
0100
0010
0000
0010
0000
0010
0000
0000
0000
,
0001
0000
0001
0000
0100
0000
0000
0000
1010
0000
0000
1000
0100
0000
0110
0000
,
0000
0010
0001
0100
0011
0000
0001
0001
,
0010
0000
0000
0001
1000
0000
0100
0000
1100
0000
0000
0000
1000
0000
1000
0000
,
0010
0000
0001
1000
0001
0000
0100
0000
0101
0000
0000
0000
0001
0000
0010
0000
,
1000
0000
0000
0010
0100
0000
1000
0000
1001
0000
1001
0000
1000
0000
0100
0000
,
0001
0010
0100
0010
0110
0110
0100
0000
,
1000
0000
0010
1010
0100
0001
0010
0011
,
0000
0000
0000
0000
1000
0000
0000
0000
0100
0000
1010
0000
0000
0011
0000
0000
,
1001
0000
0000
0000
0001
0000
0011
0000
1000
0000
0010
0000
1010
0000
1001
0100
,
0110
0010
0000
0000
0000
0000
0000
0000
0000
0000
0000
0000
0000
0000
0000
0000
,
0001
1000
0100
0100
0110
0100
1000
0010
,
0001
0000
0000
0001
0000
0000
0011
0000
0010
0000
0001
0000
1000
0000
1010
0000
,
0000
0000
1000
0000
0100
0000
0010
0100
0010
0000
0011
0000
0000
0000
0001
0100
,
0010
0010
0010
0010
0000
1000
1001
0001
,
0100
0000
0000
0000
0101
0000
0001
0000
1000
0000
0010
0000
0010
0000
1000
0001
,
0010
0000
0100
0000
1000
0000
1100
0000
0000
0000
0000
0000
1000
0001
0010
0000
,
0100
0000
0010
0100
1000
0000
0001
0000
0101
0000
0100
0000
0010
0000
0110
0000
,
0000
1000
0100
0010
0011
0001
0100
1000
,
0010
1000
0000
0000
0001
0100
0000
0000
0011
0000
0001
0000
1000
0000
1010
0000
,
0000
0000
1000
0100
1000
0000
1100
0000
0000
0000
0010
0000
1000
0000
0001
0000
,
0101
0100
0010
0010
0000
1000
0001
0110
;

//--------------- dance-single - ----------------
#NOTES:
     dance-single:
     :
     Challenge:
     9:
     0.674152,0.603327,0.89147,0,0.466181,577,468,109,0,0,0,0.674152,0.603327,0.89147,0,0.466181,577,468,109,0,0,0:
0000
0000
0000
0000
,
0000
0000
0000
0000
,
1000
0010
1010
1000
0001
0011
0010
0110
,
0000
1100
1010
0110
0101
0011
1001
1001
,
0000
0000
1000
0000
0010
1000
0010
0000
0100
0000
0001
1000
0001
1000
0100
0000
,
0010
0000
0001
0000
1000
0010
0100
0001
1000
0000
0001
1000
0100
0000
0010
0000
,
0110
0000
0010
0001
1000
0000
1001
0000
0000
0000
1000
0010
1000
0000
0001
0000
,
0010
0000
0101
0000
0010
0000
1100
0000
0000
0000
1000
0001
1000
0000
0001
0000
,
0011
0000
0000
0000
0100
0010
0100
0000
0010
0000
0001
1000
0010
0100
0001
0000
,
0100
0000
0001
1000
0100
0000
1100
0000
0010
0000
1010
0000
0010
0000
0101
0000
,
1001
0000
0010
0000
1000
0010
0100
0000
0101
0000
0000
0001
0010
0001
1000
0000
,
0100
0000
1000
0000
0001
1000
0001
0000
0101
0000
0010
1000
0010
0000
0000
0000
,
1010
0000
0000
0000
1000
0001
1000
0100
1000
0000
0010
0100
0000
0000
0101
0000
,
0011
0000
0000
0001
0010
0001
1000
0000
0100
0000
1000
0010
1000
0001
0100
0000
,
0010
0000
0010
1000
0001
0000
0100
0001
0010
0000
0100
0010
0000
0000
1100
0000
,
0100
0000
0100
1000
0010
1000
0001
0010
0100
0000
0110
0000
0011
0000
1010
0000
,
1001
0000
1000
0001
0010
0000
0010
0000
0110
0000
0100
1000
0001
0000
0100
0000
,
0000
0000
0001
0010
0001
0000
0011
0000
1001
0000
1100
0000
1000
0010
0100
0000
,
0101
0000
0000
0000
1000
0010
1000
0000
0100
0000
0110
0000
0011
0000
1001
0000
,
0000
0000
0100
0100
1000
0000
0001
0100
0010
0000
1010
0000
0000
0011
0000
0000
,
1100
0000
0000
0000
0001
0010
0001
0000
0100
0000
0110
0000
1010
0000
1001
0000
,
0000
0000
1000
0100
0010
0000
0100
0010
0001
0000
1000
0000
1001
0000
0000
0000
,
0001
0010
0001
0001
1000
0000
1100
0000
1000
0010
1000
0001
0010
0000
0110
0000
,
1000
0010
1000
1000
0100
1000
0001
0100
0010
0100
0001
0010
0100
0000
0100
0000
,
1000
0010
0100
0001
0000
0001
0010
0001
1000
0000
1100
0000
0010
0000
0001
0000
,
0101
0010
1001
0010
0110
0011
1010
0000
,
1000
0100
0010
0000
0110
0000
0010
0000
0011
0000
0001
0001
0010
0000
0001
0000
,
1000
0010
1000
0001
0100
0001
0010
0100
0110
0000
0100
1000
0001
0000
1000
0000
,
0010
0100
0001
0000
0101
0000
0001
1000
0100
0000
0010
0100
1000
0000
0010
0000
,
1001
0000
0000
0000
0001
1000
0001
0000
0010
0000
0011
0000
1010
0000
0000
0100
,
1000
0000
0010
1000
0001
0000
0010
0000
0101
0000
1001
0000
0001
0000
1100
0000
,
0000
1000
0100
0000
1000
0010
1000
0000
0110
0000
0010
0100
0001
0000
1000
0000
,
1001
0000
1000
0100
0010
0000
0100
0000
0110
0000
0010
0001
0010
0001
1000
0000
,
1010
0000
1000
0000
0001
0100
0001
0000
0011
0000
0000
0001
0010
0001
1000
0000
,
0010
0100
0000
0100
0001
1000
0100
0000
1100
0000
1100
0000
0010
1000
0001
0000
,
0100
0000
0001
1000
0100
0000
0010
0000
0101
0000
0101
0000
0010
0000
0000
0000
,
1100
0000
1000
0100
0001
0000
0100
0010
0001
0000
0100
0001
1000
0000
1001
0000
,
0010
0000
0010
0000
0100
0000
0001
1000
0100
0000
0110
0000
0001
1000
0000
0000
,
0101
0000
0001
0100
1000
0000
0100
0010
1000
0000
0100
1000
0001
0000
1100
1010
,
0101
0011
0000
0000
0000
0000
0000
0000
1000
0010
1000
0001
0010
0100
0010
0000
,
0011
0000
0001
0010
0001
0000
0100
0000
1001
0000
1000
0010
0010
0000
1000
0000
,
0100
0000
0001
0100
0010
0000
0110
0000
0000
0000
0011
0000
0110
0000
1100
0000
,
0100
1000
0001
0000
0001
0000
0010
0001
1000
0000
1010
0000
0100
0000
0010
1000
,
0100
0000
1000
0000
1100
0000
0110
0000
0000
0010
0001
0000
0001
1000
0001
0001
,
0100
0000
0010
0000
1010
0000
1000
0010
0100
0000
0101
0000
0001
0000
1000
0000
,
0101
0000
0110
0000
1100
0000
0011
0000
0000
0000
0010
0001
0010
0001
1000
0100
,
0010
0000
0100
1000
0010
0000
1000
0000
1010
0000
0010
0000
0100
0000
0101
0000
,
0000
1001
0011
1010
0110
1001
0110
1001
,
0001
0010
0001
0000
1000
0100
1000
0000
0110
0000
1000
0000
0010
0000
0101
0000
,
0000
0000
0001
0000
0010
0000
1100
0000
0000
0000
1000
0100
0010
0000
0100
0010
,
0001
1000
0010
0001
0000
0101
1100
1001
;

//--------------- dance-solo - ----------------
#NOTES:
     dance-solo:
     :
     Easy:
     3:
     0,0,0,0,0:
000000
000000
000000
000000
,
000000
000000
000000
000000
,
000001
000000
000000
000000
100000
000000
000000
000100
,
000000
000000
000000
000000
000000
000000
000000
000010
,
000000
010000
000100
010000
,
000010
000000
001000
001000
,
000000
000000
000000
000100
000000
000000
001000
000000
,
000000
001000
000000
000010
000000
010000
000000
000000
,
010010
000000
000001
000000
,
100000
000000
000000
000100
000000
000000
000000
000000
,
001000
000000
000000
000000
010010
000000
000000
000100
,
000000
000000
010010
000000
,
000001
000000
000100
000000
,
000010
000000
000000
000000
,
100000
000000
000000
000000
000100
000000
000000
010000
,
000000
000000
000000
000000
,
000010
000000
010010
000000
,
010000
000000
010010
000000
,
000001
000000
100000
000000
000001
000000
100000
000100
,
000000
010000
000000
000010
,
100000
000000
000001
000000
100000
000000
000001
000100
,
000000
000000
000000
001000
,
001000
000000
000000
000100
001000
000000
000000
000000
,
000100
000000
000010
010000
,
000010
000000
010000
000010
,
010000
000100
000100
000100
,
000100
001000
001000
000000
,
000100
000000
001000
000000
,
000010
010010
010000
000000
,
000001
000000
100000
000000
,
000001
000001
000100
000000
,
100000
100000
000100
000000
,
001000
001000
000010
000000
,
001000
001000
010000
000000
,
000100
100000
000010
000000
,
000100
000001
010000
000000
,
000010
000000
000000
000000
010000
000000
000000
001000
,
000000
000000
000000
000000
,
010000
000000
000000
000000
000010
000000
000000
010010
,
100001
000000
000000
000000
,
000100
000000
001100
000000
,
001000
000000
000000
000100
000000
010000
000000
000010
,
000000
000000
000000
000000
000000
001000
000000
000000
,
000001
000000
100000
000000
,
000100
001100
001000
000000
,
000000
000000
000000
010010
000000
000000
000000
000000
,
000010
100000
000001
010000
,
001000
000000
010010
000000
,
000001
000000
000000
000000
100001
000000
000000
010100
,
000000
000000
000000
000110
000000
000000
000000
000000
,
001000
000000
000000
000000
000100
000000
000000
001100
;
