#TITLE:Sayonara;
#SUBTITLE:;
#ARTIST:ANNA;
#TITLETRANSLIT:;
#SUBTITLETRANSLIT:;
#ARTISTTRANSLIT:;
#GENRE:Rhythm and Blues;
#CREDIT:8Chasey;
#MUSIC:SAYONARA.mp3;
#BANNER:Sayonara.png;
#BACKGROUND:Sayonara-bg.png;
#CDTITLE:;
#SAMPLESTART:50.745;
#SAMPLELENGTH:12.000;
#SELECTABLE:YES;
#OFFSET:-0.098;
#BPMS:0.000=94.890;
#STOPS:;
#BGCHANGES:;
#FGCHANGES:;

//--------------- dance-single - 8Chasey ----------------
#NOTES:
     dance-single:
     8Chasey:
     Beginner:
     2:
     0,0,0,0,0:
0000
0000
0000
0000
,
0000
0000
0000
0000
,
0002
0003
0001
0000
,
2000
3000
1000
0000
,
0020
0000
0030
0000
,
0010
0010
0010
0000
,
0200
0000
0300
0000
,
0100
0000
0010
0000
,
1000
0000
0001
0000
,
2000
0000
3000
0000
,
0001
0000
1000
0000
,
0002
0000
0003
0000
,
0100
0000
0002
0003
,
0002
0000
0003
0000
,
0010
0000
2000
3000
,
2000
0000
3000
0000
,
0100
0000
0100
0000
,
0200
0000
0300
0000
,
0010
0000
0100
0000
,
0010
0000
0100
0000
,
0002
0003
0002
0003
,
0001
0000
1000
0000
,
0020
0030
0020
0030
,
0010
0000
0100
0000
,
2000
3000
2000
3000
,
1000
0000
0001
0000
,
0200
0300
0200
0300
,
0100
0000
0010
0000
,
0002
0000
0003
0000
,
0020
0000
0030
0000
,
0001
0000
1000
0000
,
0001
0000
1000
0000
,
2000
0000
3000
0000
,
0020
0000
0030
0000
,
1000
0000
0001
0000
,
0010
0010
0010
0010
;

//--------------- dance-single - 8Chasey ----------------
#NOTES:
     dance-single:
     8Chasey:
     Easy:
     4:
     0,0,0,0,0:
0000
0000
0000
0000
,
0000
0000
0000
0000
,
0000
0000
0002
0000
0003
2000
0000
3000
0002
0000
0000
0000
1003
0000
0000
0000
,
0000
0000
2000
0000
3000
0002
0000
0003
2000
0000
0000
0000
3001
0000
0000
0000
,
0200
0320
0000
0130
,
0002
0000
0000
0000
0000
0000
2000
0000
0000
0003
0000
0000
3001
0000
0000
0000
,
0200
0301
1000
0001
,
2000
0000
0000
0000
0000
0000
0020
3000
0000
0000
0000
0000
0130
0000
0000
0000
,
0100
0002
2003
3002
,
2003
0000
0000
0020
0000
0000
3030
0000
,
0100
0200
0301
0002
,
2003
0000
0000
3000
,
0002
0023
0000
0130
,
0020
0000
0000
0002
0030
0000
1003
0000
,
0200
0300
0200
0000
0320
0030
0020
0000
,
0200
0030
0000
0320
0000
0000
0031
0000
,
2000
3000
0020
0000
0230
0300
0002
0000
,
2003
0000
0000
0000
0000
0000
0002
0000
0000
3000
0000
0000
0103
0000
0000
0000
,
0001
0002
0103
0200
,
0320
0000
0000
0030
,
2000
0000
3200
0000
2300
3000
2000
3000
,
0002
0000
0203
0000
0302
0003
0002
0003
,
2000
0000
3020
0000
,
2030
0001
0002
3003
,
0200
0000
0302
0000
0203
0300
0100
0000
,
0020
0000
2030
0000
3020
0030
0010
0000
,
0200
0300
0020
0030
,
1000
0001
0200
0300
,
0002
0000
0023
0000
0032
0003
0002
0003
,
2000
0000
3020
0000
2030
3000
2000
3000
,
0200
1300
0200
0301
,
0100
0020
0130
2000
,
3001
0000
0020
0030
0001
0000
0020
0030
,
0200
0300
1000
0000
0200
0300
1000
0000
,
0002
1003
2000
3001
,
0020
0000
0230
0000
0020
0000
0330
0001
;

//--------------- dance-single - 8Chasey ----------------
#NOTES:
     dance-single:
     8Chasey:
     Medium:
     6:
     0,0,0,0,0:
0000
0000
0000
0000
,
0000
0000
0000
0000
,
0000
0000
0002
0000
0000
2003
0000
0000
3002
0000
0000
1000
0000
0000
1003
0000
,
0010
0000
2000
0000
0000
3002
0000
0000
2003
0000
0000
0001
0000
0000
3001
0000
,
0200
0000
0301
0000
1000
0001
1000
0000
,
0010
0000
0100
0020
0000
0030
0200
0000
,
0301
0000
1000
0000
0001
1000
0200
0000
,
0320
0030
0100
1000
0000
0100
0001
0000
,
0200
0310
0002
1003
,
2000
0000
3010
0100
0000
0020
0100
0030
,
0100
0000
0001
0000
0000
0002
0000
0000
1000
0000
1000
0000
2000
0000
3003
0000
,
0010
0000
1000
0000
0000
2000
0000
0000
0001
0000
0001
0000
0002
0000
3003
0000
,
2000
0000
3010
0000
1000
0001
0010
0001
,
0020
0000
0031
0200
0000
0301
1000
0000
,
0002
0103
0020
1030
,
2002
0000
3000
0003
1000
0000
0002
0000
0000
0000
0013
0000
0001
0000
1000
0000
,
0100
0020
0031
0200
,
1300
0000
0100
0020
0000
1030
0001
0000
,
1000
0000
0200
0000
0000
2300
0000
0000
3002
0000
1000
0000
2000
0000
3003
0000
,
0001
0000
0200
0000
0000
0302
0000
0000
2003
0000
0001
0000
3001
0000
0000
0000
,
0200
0000
2300
0000
3001
1000
0001
0001
,
0200
0000
0302
0000
1003
0001
1000
0000
,
0010
1000
0020
0000
0130
0001
0200
0000
,
0302
2003
3100
0120
,
0230
0000
2300
0000
3010
1000
0002
0000
,
0203
0000
0302
0000
0013
0001
2000
0000
,
3010
0200
0301
0000
0010
0200
1300
0010
,
0100
0100
0002
0003
2100
0000
0020
3030
,
0200
0301
0200
0302
0020
0030
0013
0010
,
0200
1300
0200
2300
0020
0030
3010
0000
,
0200
0300
2002
3003
0001
2000
3002
1003
,
0020
2030
3002
0203
,
0310
1000
0020
0000
0100
0000
1030
0001
,
0010
0001
0020
0000
0100
0000
0032
0000
,
1003
1000
0200
0000
1300
0002
0013
0002
,
2003
0000
0010
0000
3020
0000
0000
0000
0230
0000
0000
0020
0030
0000
0310
0000
;

//--------------- dance-single - 8Chasey ----------------
#NOTES:
     dance-single:
     8Chasey:
     Hard:
     9:
     0,0,0,0,0:
0000
0000
0000
0000
,
0000
0000
0000
0000
,
0000
0000
0001
0000
0000
0002
0000
0000
1000
0000
0000
0100
0000
0000
1003
0000
,
0010
0000
1000
0000
0000
2000
0000
0000
0001
0000
0000
0100
0000
0000
3001
0000
,
0100
0000
0010
1000
0100
0100
1000
0001
,
0200
0000
0000
0000
0301
0000
1000
0000
0000
0000
0001
1000
0001
1000
0001
0000
,
0020
0000
0000
0000
0031
0000
1000
0000
0100
0000
1000
0001
1000
0000
0010
0000
,
2000
0000
3010
1000
0002
0100
0103
0010
,
0101
0000
1000
0100
1000
0000
1100
0000
,
0010
0000
1000
0000
0001
0000
0100
0000
0001
0000
1000
0001
1000
0001
1000
0000
,
0200
0000
1000
0000
0000
2300
0000
0000
0010
0000
0000
0001
0000
0000
3010
0000
,
0200
0000
0001
0000
0000
0302
0000
0000
0010
0000
0000
1000
0000
0000
0013
0000
,
0200
0000
0000
0000
1300
0000
0010
0000
1000
0000
0001
0000
1000
0010
1000
0000
,
0020
0000
0000
0000
0130
0000
0001
0000
0100
0000
0010
0100
0010
1000
0010
0000
,
1000
0000
0100
0000
1000
0000
0001
0000
0100
0000
0001
0000
0010
0100
0010
0000
,
0200
0000
0000
0000
1300
0000
1010
0000
1000
0000
0001
1000
0001
0010
0100
0000
,
0020
0000
0000
0000
0031
0000
0010
0000
0001
1000
0001
0000
1000
0000
0100
0000
,
2000
0000
0000
0000
3002
0000
1000
0000
1003
0000
0100
1000
0001
0100
0010
0000
,
0200
0000
0001
0000
0000
0320
0000
0000
1000
0000
0000
0100
0000
0000
1030
0000
,
0200
0000
1000
0000
0000
0320
0000
0000
0001
0000
0000
0100
0000
0000
0031
0000
,
2001
0000
3100
0000
1000
0010
1000
0000
0002
0000
0013
0000
0001
0100
0001
0000
,
0120
0000
2030
0000
3010
0000
1000
0100
2000
0000
3002
0000
0103
0000
0001
0000
,
0021
0000
0130
0000
0010
0100
0010
0000
0001
0000
1000
0100
0000
0100
1000
0000
,
1020
0000
1030
0000
0100
1000
0000
0001
0200
0000
0000
0010
0000
0000
0301
0000
,
2010
0000
3100
0000
1000
0010
0100
0000
0002
0000
0013
0001
0000
0010
0200
0000
,
0320
0000
0130
0000
0100
1000
0000
0001
2000
0000
3010
1000
0001
0000
0100
0000
,
0002
0000
1003
0000
0001
1000
0200
0000
1300
0010
1000
0000
0100
1000
0001
0000
,
0101
0000
1010
0000
2000
0000
0100
0000
3002
0000
0000
0100
0000
0000
0103
0000
,
0120
0000
1030
0000
0100
1000
0000
0001
1000
0000
0020
0000
0130
0000
0101
0000
,
0021
0000
0130
0000
0010
0001
0000
1000
0010
0000
1000
0100
1000
0001
0200
0000
,
0310
0000
1010
0000
2000
0100
3000
0200
1000
0300
1000
0020
0000
0000
0130
0000
,
0001
0010
0002
0000
2003
0001
3000
0200
1000
0300
0020
0100
0000
0000
0130
0000
,
0102
0000
0013
0000
0010
0001
0010
0000
0200
0000
1300
0000
1000
0010
1000
0000
,
0120
0000
0130
0000
0001
2000
0100
0000
3100
0000
0010
0000
1100
0000
1001
0000
,
0010
0001
0020
0000
0032
1000
0000
0000
1003
0000
0100
1000
0010
0000
1000
0000
,
0101
0000
1010
0000
0110
0000
0002
0000
2003
0000
0000
3100
0020
0000
0130
0000
;

//--------------- dance-single - Vivaldi ----------------
#NOTES:
     dance-single:
     Vivaldi:
     Challenge:
     9:
     0,0,0,0,0:
0000
0000
0000
0000
,
0000
0000
0000
0000
,
0001
0000
0000
1000
0001
0000
1000
0000
0000
0000
0100
0000
1100
0000
0000
0000
,
0100
0000
0000
0001
1000
0000
0100
0000
0000
0000
0100
0000
1000
0001
1000
0001
,
1000
0000
0010
0000
1000
0000
0100
0000
1000
0000
0002
0000
0100
0000
0100
0003
,
0101
0000
0001
1000
0100
0100
1000
0001
,
1000
0000
0000
0001
1000
0000
0001
0000
0000
0000
0100
0000
1100
0000
0000
0000
,
0100
0000
0000
1000
0001
0000
0100
0000
0010
0000
1000
0000
0011
0000
0100
0000
,
1001
0000
0101
0011
1100
1010
0110
1010
,
0012
0000
0010
0010
0000
0010
1003
0100
,
1000
0000
0000
1000
0100
0000
0000
1000
0001
0000
0110
0000
1001
0000
1000
0000
,
0001
0000
0000
0001
0100
0000
0000
0100
0001
0000
0001
0000
0010
0000
0100
0000
,
1000
0000
0000
0100
1000
0000
0001
0000
0000
0000
0001
0000
0101
0000
0000
0000
,
0001
0000
0000
0010
0100
0000
1000
0000
0001
0000
0100
0000
1001
0000
0000
0000
,
0001
0000
0000
0100
0010
0000
1000
0000
0001
0000
1000
0000
1001
0000
0000
0000
,
0200
0000
0000
0000
0000
0000
1000
0000
1300
0000
1000
0001
1000
0010
1000
0100
,
2000
0000
3100
1010
1001
1100
1001
1010
,
2200
0000
3300
0022
0000
0033
1100
0001
,
1000
0000
0010
0000
0000
1100
0000
0000
0100
0000
0000
0011
0000
0000
1001
0000
,
1001
0000
0100
0000
0000
0101
0000
0000
1100
0000
0000
1010
0000
0000
0100
0000
,
0002
0000
2000
0003
0100
0000
3020
0000
0001
0000
0001
0030
0002
0000
0010
0000
,
0203
0010
0302
0010
2003
0010
0010
3001
,
0210
0000
0001
0000
0301
0000
2010
0000
0001
0000
3020
0000
0100
0030
1002
0000
,
2003
0000
0010
3000
2100
0000
0001
0000
3210
0000
1000
0000
0320
0000
0100
0000
,
0032
0000
0123
0000
1230
0000
2300
0000
3002
0000
0200
0003
0010
0000
0302
0000
,
2003
0000
3100
0000
0021
0000
0032
0000
2003
0000
0010
3000
1200
0000
0302
0000
,
2003
0000
3001
0000
2001
0000
3100
0000
1001
0000
0102
0000
2003
0000
0020
3000
,
0200
0030
1300
0000
0201
0000
1000
0000
0320
0000
0100
0000
2030
0000
0100
0000
,
3002
0000
2003
0000
3200
0000
0310
0000
1001
0000
2100
0000
0010
3000
0102
0000
,
0203
0000
1000
0000
0010
0000
0001
0000
0320
0000
2030
0000
0002
3000
0020
0003
,
0200
0030
2300
0000
3002
0000
0100
0000
0203
0000
0320
0000
2000
0000
3032
0000
,
0023
0000
0200
0030
2300
0000
3020
0000
0230
0000
0010
0000
0302
0000
0000
0000
,
2003
0000
0200
3000
0020
0300
0100
0000
0032
0000
0023
0000
0200
0000
0030
0000
,
0302
0000
0100
0000
1003
0000
0020
0000
0200
0030
0000
0000
0002
0300
2003
0000
,
0200
0000
3300
0000
1002
0000
0100
0000
0020
0003
0032
0000
2003
0000
3020
0000
,
0230
0002
0303
0020
0200
0030
2302
0000
,
0003
3000
0000
0000
0000
0000
0000
0000
0000
0000
0000
0000
0000
0000
0000
0000
0000
0000
0000
0000
0000
0000
0000
0000
0000
0000
0000
0000
0000
0000
0000
0000
0000
0000
0000
0000
0000
0000
0000
0000
0000
0000
0000
0000
0000
0000
0000
0000
0000
0000
0000
0000
0000
0000
0000
0000
0000
0000
0000
0000
0000
0000
0000
0000
0000
0000
0000
0000
0000
0000
0000
0000
0000
0000
0000
0000
0000
0000
0000
0000
0000
0000
0000
0000
0000
0000
0000
0000
0000
0000
0000
0000
0000
0000
0000
0000
0000
0000
0000
0000
0000
0000
0000
0000
0000
0000
0000
0000
0000
0000
0000
0000
0000
0000
0000
0000
0000
0000
0000
0000
0000
0000
0000
0000
0000
0000
0000
0000
0000
0000
0000
0000
0000
0000
0000
0000
0000
0000
0000
0000
0000
0000
0000
0000
0000
0000
0000
0000
0000
0000
0000
0000
0000
0000
0000
0000
0000
0000
0000
0000
0000
0000
0000
0000
0000
0000
0000
0000
0000
0000
0000
0000
0000
0000
0000
0000
0000
0000
0000
0000
0000
0000
0000
0000
0000
0000
0000
0000
0000
0000
0000
0000
;

//--------------- dance-double - 8Chasey ----------------
#NOTES:
     dance-double:
     8Chasey:
     Hard:
     8:
     0,0,0,0,0:
00000000
00000000
00000000
00000000
,
00000000
00000000
00000000
00000000
,
00000002
00000000
00001000
00000000
00000000
00001000
00000000
00000000
00000203
00000000
00000000
00000010
00000000
00000000
00000310
00000000
,
00001000
00000000
00000100
00000000
00000000
00020000
00000000
00000000
00001000
00000000
00000000
00000100
00000000
00000000
00031000
00000000
,
00100000
00000000
00001000
00100000
00001000
00000000
00100000
00000000
01000000
00000000
10000000
00000000
00010000
10000000
00010000
00000000
,
10000000
00000000
00000000
00100000
10000000
00000000
00200000
00000000
00000000
00000000
01300000
00010000
01000000
00010000
01000000
00000000
,
01010000
00000000
10100000
10000000
01000000
00010000
00002000
00000000
,
00013000
00000000
00000000
00001000
00010000
00000000
00000200
00000000
00000000
00000000
00001000
00000000
00001300
00000000
00000100
00001000
,
00000001
00000010
00000002
00000100
00000103
00000020
00001000
00001030
,
00000100
00000000
00010000
00001000
00010000
00000000
00011000
00000000
00000000
00000000
00100000
00000000
01000000
00000000
10000000
00000000
,
00010000
00000000
10020000
00000000
00000000
10000000
00000000
00000000
01000000
00000000
00000000
01000000
00000000
00000000
01030000
00000000
,
00100000
00000000
20010000
00000000
00000000
00010000
00000000
00000000
00100000
00000000
00000000
01000000
00000000
00000000
31000000
00000000
,
00100000
00000000
00001000
00100000
00001000
00000000
00010000
00000000
00000200
00000000
00001000
00000000
00001300
00000000
00000100
00000000
,
00001000
00000010
00001000
00000000
00000001
00000000
00000100
00000000
00000010
00000000
00001000
00000000
00001001
00000000
00000000
00000000
,
00000110
00000000
00000100
00001000
00010000
00000000
00001000
00000000
00100000
00000000
00010000
00100000
01000000
00000000
00200000
00000000
,
02000000
00000000
00300000
00000000
03100000
00000000
01000000
00000000
10000000
00000000
01000000
00100000
00010000
00100000
00010000
00100000
,
00020000
00000000
01030000
01010000
01010000
00100000
00001000
00011000
,
00011000
00000000
00000000
00000000
00001100
00000000
00001100
00000000
00000000
00000000
00000100
00001000
00000100
00001000
00000010
00000000
,
00000200
00000000
00000001
00000000
00000000
00000010
00000000
00000000
00002300
00000000
00000000
00010000
00000000
00000000
00013000
00000000
,
02000000
00000000
10000000
00000000
00000000
00100000
00000000
00000000
03020000
00000000
00000000
00001000
00000000
00000000
00031000
00000000
,
00100000
00000000
00001000
00010000
00001000
00010000
00000100
00000000
00001000
00000010
00001000
00000000
00000001
00000000
00001001
00000000
,
00001000
00000000
00000100
00010000
00000100
00010000
00001000
00000000
00100000
00001000
00100000
00000000
00010000
00000000
10010000
00000000
,
10000000
00000000
00100000
10000000
01000000
00000000
00100000
00000000
01000000
00000000
00100000
00010000
01000000
00000000
00010000
00000000
,
00100000
00000000
00001000
00010000
00001000
00000000
00010000
00000000
00011000
00000000
00000000
00001100
00000000
00000000
00000101
00000000
,
00000100
00000000
00000010
00001000
00000010
00001000
00000100
00000000
00010000
00001000
00010000
00000000
00001000
00000000
00100000
00000000
,
00010000
00000000
10000000
00100000
10000000
00100000
10000000
00000000
01000000
00100000
01000000
00000000
00100000
00000000
00001000
00000000
,
00011000
00000000
00010000
00000000
00001000
00000000
00000100
00000000
00000001
00000100
00000001
00000000
00000010
00000000
00000100
00000000
,
00001000
00000100
00001000
00000000
00000010
00000000
00000100
00000000
00001001
00000000
00000000
00000110
00000000
00000000
00001001
00000000
,
00000200
00000001
00000301
00001000
00000020
00000000
00002030
00000000
,
00003200
00000000
00010000
00000000
00000000
00010000
00000000
00000000
00010000
00000000
00000000
00010000
00000000
00000000
00010300
00000000
,
00001000
00010000
00001000
00000000
00200000
00000000
00000000
00000000
00310000
00000000
10000000
00000000
00100000
00000000
10000000
00000000
,
01000000
10000000
01000000
00000000
00100000
00000000
00010000
00000000
00100000
00001000
00010000
00000000
00011000
00000000
00000000
00000000
,
00000200
00000000
00000010
00000000
00000000
00000010
00000000
00000000
00000310
00000000
00001000
00000000
00000100
00000000
00010000
00000000
,
00002000
00000000
00100000
00000000
00000000
00100000
00000000
00000000
00100000
00000000
00000000
00100000
00000000
00000000
00103000
00000000
,
01000000
00000000
10000000
00000000
00010000
10000000
00010000
00000000
10000000
00000000
00100000
00000000
00100000
00000000
10000000
00000000
,
01000000
00100000
00001000
00010000
00022000
00000000
00000000
00033000
;

//--------------- dance-double - 8Chasey (based on Single CHALLENGE) ----------------
#NOTES:
     dance-double:
     8Chasey (based on Single CHALLENGE):
     Challenge:
     9:
     0,0,0,0,0:
00000000
00000000
00000000
00000000
,
00000000
00000000
00000000
00000000
,
00001000
00000000
01000000
00010000
01000000
00000000
00100000
00000000
10000000
00000000
00100000
00000000
10100000
00000000
10010000
00000000
,
00100000
00000000
00001000
00010000
00000100
00000000
00001000
00000000
00000010
00000000
00000100
00000000
00000101
00000000
00001001
00000000
,
00000100
00000000
00000001
00000000
00000010
00000000
00000100
00000000
00000010
00000100
00002000
00000000
00000010
00000000
00003010
00000000
,
00010010
00000000
00000000
00000000
00010000
00000000
00001000
00000000
00100000
00000000
00010000
00100000
00010000
00100000
00010000
00000000
,
10000000
00000000
00100000
10000000
01000000
00000000
00100000
00000000
01000000
00000000
00100000
00000000
00101000
00000000
00010000
00000000
,
00010100
00000000
00001000
00000010
00001000
00000000
00000001
00000000
00000010
00000100
00000010
00000000
00001100
00000000
00000010
00000000
,
00000101
00000000
00001100
00010100
00011000
01001000
01010000
10010000
,
21000000
00000000
00100000
00010000
00000000
00010000
30100000
01000000
,
00110000
00000000
00100000
00001000
00000000
00100000
00001000
00000000
00010000
00001000
00010000
00000000
00000100
00000000
00000010
00000000
,
00000011
00000000
00000010
00000001
00000000
00000100
00000001
00000000
00001000
00000010
00000100
00000000
00001000
00000000
00010000
00000000
,
00021000
00000000
00000000
00000000
01030000
00000000
10000000
00000000
00100000
10000000
00010000
00000000
00100000
00000000
01000000
00000000
,
10000000
00000000
00100000
10000000
00010000
00000000
00110000
00000000
00100000
00001000
00010000
00000000
00000100
00010000
00000100
00000000
,
00001000
00000000
00000010
00001000
00000010
00000000
00000100
00000000
00000001
00000000
00000010
00000000
00000100
00000000
00020000
00000000
,
00002000
00030000
00203000
00010000
00010000
01000000
01000000
00320000
,
20030000
30000000
10100000
10010000
00110000
00011000
00001010
00001001
,
00000012
00000000
00000013
00002100
00000000
00003100
00010000
00001000
,
00100000
00000000
00110000
00000000
00000000
10010000
00000000
00000000
10100000
00000000
00000000
01000000
00100000
00000000
01000000
00000000
,
00100000
00000000
10100000
00000000
00000000
10010000
00000000
00000000
00110000
00000000
00000000
00100000
00001000
00000000
00010000
00000000
,
00002000
00023000
00000100
00030020
00001000
00000100
00002030
00000001
,
00003020
00000100
00000230
00000001
00000320
00002030
00000100
00003100
,
00021000
02030000
03200000
00010000
01000000
00320000
10030000
01020000
,
20030000
00100000
00100000
32000000
03200000
00010000
02300000
03010000
,
00012000
00023000
00000100
00001000
00030200
00001000
00001000
00000310
,
00000002
00000100
00002003
00003010
00000200
00000010
00002300
00013000
,
00001000
00020000
02030000
00100000
00100000
23000000
00100000
00010000
,
30200000
01000000
02300000
03001000
00010100
00001000
01001000
00100000
,
00020000
20030000
00100000
30010000
02010000
00100000
03002000
00013000
,
00010200
00000000
00000010
00000000
00002300
00000000
00003001
00000000
00000102
00000003
00002010
00000000
00000100
00000000
00003001
00000000
,
00000210
00002300
00003020
00000230
00002300
00023000
00001000
00030100
,
00201000
01000000
01000000
00320000
10000000
01000000
20030000
30100000
,
02100000
00010000
03200000
10000000
20300000
01000000
30020000
00130000
,
00102000
00010000
02003000
03010000
00201000
00301000
00010200
00010000
,
00002300
00000000
00000010
00000000
00003001
00000000
00000012
00000000
00000103
00000000
00002010
00003000
00000102
00000003
00002002
00003003
,
00000120
00000000
00010000
00000000
00002030
00000000
00003200
00000000
00020300
00000000
00032000
00003000
00022000
00000000
00000000
00000000
,
00033000
00000000
00000000
00000000
;
