#TITLE:Rise Above;
#SUBTITLE:;
#ARTIST:Rainych;
#TITLETRANSLIT:;
#SUBTITLETRANSLIT:;
#ARTISTTRANSLIT:;
#GENRE:;
#CREDIT:8Chasey 2023;
#MUSIC:Rise Above.ogg;
#BANNER:Rise Above-bn.png;
#BACKGROUND:Rise Above-bg.jpg;
#CDTITLE:;
#SAMPLESTART:66.900;
#SAMPLELENGTH:15.000;
#SELECTABLE:YES;
#OFFSET:-0.075;
#BPMS:0.000=136.000;
#STOPS:;
#BGCHANGES:0.000=Rise Above.avi=1.000=1=0=0=StretchNoLoop==CrossFade==,
214.250=Rise Above-bg.jpg=1.000=0=0=1,
99999.000=-nosongbg-=1.000=0=0=0=StretchNoLoop====
;
#FGCHANGES:;

//--------------- dance-single - ----------------
#NOTES:
     dance-single:
     :
     Beginner:
     2:
     0.152619,0.33621,0.157108,0,0,102,87,15,0,0,0,0.152619,0.33621,0.157108,0,0,102,87,15,0,0,0:
0000
0000
0000
0000
,
0000
0000
0000
0000
,
0000
0000
0000
0000
,
0000
0000
0000
0000
,
0001
0000
0000
0000
,
1000
0000
0000
0000
,
0010
0000
0100
0000
,
0001
0000
0000
0000
,
0100
0000
0010
0000
,
1000
0000
0000
0000
,
0010
0000
0100
0000
,
0110
0000
0000
0000
,
0001
0001
0001
0000
,
1000
1000
1000
0000
,
0000
0000
0000
0000
,
0000
0000
0000
0000
,
0010
0000
0000
0000
,
0000
0100
0000
0100
,
0000
0001
0001
0000
,
1000
0000
0000
0100
,
0100
0000
0000
0000
,
0000
0000
0010
0000
,
0010
0000
0000
0000
,
0001
0000
0000
0001
,
0000
0000
0010
0000
,
1000
0000
0000
1000
,
0000
0000
0010
0000
,
0100
0000
0100
0000
,
0010
0000
0010
0000
,
0110
0000
0000
1001
,
0000
0000
0000
0000
,
0001
0001
0001
0000
,
0100
0000
0000
0000
,
0010
0000
1000
0000
,
1000
0000
0000
0000
,
1000
1000
1000
0000
,
0010
0000
0000
0000
,
0100
0100
0100
0000
,
0001
0000
1001
0000
,
1000
0000
1001
0000
,
0010
0000
1001
0000
,
0100
0100
0100
0000
,
0010
0000
0000
0000
,
0010
0000
0000
0000
,
1000
1000
1000
0000
,
0001
0001
0001
0000
,
0010
0000
0110
0000
,
0100
0000
0110
0000
,
0001
0000
1000
0000
,
0010
0010
0010
0000
,
0100
0000
0000
0000
,
0110
0000
0000
0000
,
0110
0110
0110
0000
,
1001
1001
1001
0000
;

//--------------- dance-single - ----------------
#NOTES:
     dance-single:
     :
     Easy:
     3:
     0.188529,0.252158,0.125686,0.188529,0,126,114,12,18,0,0,0.188529,0.252158,0.125686,0.188529,0,126,114,12,18,0,0:
0000
0000
0000
0000
,
0000
0000
0000
0000
,
0000
0000
0000
0000
,
0000
0000
0000
0000
,
0020
0000
0030
0000
,
0010
0010
0010
0000
,
0100
0001
0001
0000
,
0100
0000
1001
0000
,
0010
1000
0001
0000
,
0200
0000
0300
0000
,
0001
0010
0001
0100
,
0002
0000
1003
0000
,
0010
0100
0010
0000
,
0100
0010
0200
0000
,
0000
0000
0000
0000
,
0300
0000
0000
0001
,
1000
0010
0000
0010
,
0000
1000
0001
0000
,
0200
0300
0010
0010
,
0000
1000
0000
0001
,
0000
1001
0000
0000
,
0100
0100
0001
1000
,
0001
0010
0110
0000
,
0002
0000
0003
0000
0000
2000
0000
3000
,
0000
0000
0010
0000
,
2000
0000
3000
0000
0000
0002
0000
0003
,
0000
0000
1001
0000
,
0020
0000
0130
0000
,
0200
0000
0310
0000
,
0200
0000
0300
0000
0000
0020
0000
0030
,
0000
0000
0110
0000
,
0001
0010
0100
0000
,
2000
0000
3000
0000
,
0001
0000
0100
0000
,
2000
0000
3000
0000
,
1001
0000
0110
0000
,
1001
0000
0110
0000
,
0001
1000
0002
0003
,
0100
0100
0001
0000
,
0010
0010
1000
0000
,
0001
1000
0001
0000
,
0010
0100
0001
0100
,
0002
0000
0003
0000
,
1000
0000
1001
0000
,
1000
0001
1000
0000
,
0001
1000
0001
0000
,
0010
0010
0001
0000
,
0100
0100
1000
0000
,
0001
1000
0010
0000
,
0100
0001
0100
0010
,
2000
0000
3000
0000
,
1001
0000
0000
0000
,
0010
0100
0001
0000
,
1000
0010
1001
0000
;

//--------------- dance-single - ----------------
#NOTES:
     dance-single:
     :
     Medium:
     6:
     0.285786,0.336603,0.073317,0.199003,0.083791,191,184,7,19,0,0,0.285786,0.336603,0.073317,0.199003,0.083791,191,184,7,19,0,0:
0000
0000
0000
0000
,
0000
0000
0000
0000
,
0000
0000
0000
0000
,
0000
0000
0000
0000
,
0200
0000
0310
0000
,
1000
0000
0001
0000
1000
0001
1000
0000
,
0010
0100
0001
1001
,
0100
0010
0100
0000
0001
0000
1000
0000
,
0010
0100
1000
0000
0001
0000
0100
0000
,
0001
0000
0001
2000
0000
0000
0000
3002
,
0000
0000
0000
0003
0100
0000
0010
1000
,
0000
0010
0100
0000
0001
0000
1000
0000
,
0100
0000
0000
0100
0000
0000
0100
0000
0000
0100
0000
0000
0000
0000
0000
0000
,
0010
0000
0000
0010
0000
0000
0010
0000
0000
0020
0000
0000
0000
0000
0000
0000
,
0000
0000
0000
0000
,
0030
0000
0000
0010
,
2000
0001
0000
3000
,
0010
0000
1000
0000
0001
0100
0001
0000
,
0200
0000
0300
0000
0010
0000
0000
0010
,
0000
0010
1000
0001
,
0100
1001
0000
0010
,
0100
1000
0001
1000
,
0010
0100
0001
1001
,
0100
0000
0002
0000
0000
1003
0000
2000
,
0000
0000
3000
0000
0010
0010
0000
0000
,
0100
0000
0002
0000
0000
1003
0000
0002
,
0000
0000
0003
0000
0100
0010
0100
0000
,
0001
0000
0010
0011
,
1000
0100
1000
0000
0020
0000
1030
0000
,
0100
0100
0001
0000
0000
0100
0100
0001
,
0000
0000
1000
0000
0010
0010
0000
0000
,
0100
0001
1000
0100
,
1000
0010
0020
0030
,
0010
0000
0101
0001
,
1000
0000
0100
0000
2000
0000
0000
3002
,
0000
0000
0003
0000
0010
0100
0000
0010
,
0100
0001
1000
0001
,
1000
1000
0010
0000
0200
0000
0300
0000
,
0001
0000
0000
1000
0000
0000
0001
0000
0010
0000
0000
0000
0000
0000
0000
0000
,
0100
1000
0100
1000
0001
0000
0000
0000
,
0100
0000
0000
0010
0000
0000
1000
0000
1000
0000
0000
0000
0000
0000
0000
0000
,
0001
1000
0001
2000
0000
0000
3002
0000
,
0000
0000
0003
0000
0010
0100
0010
0100
,
0000
0010
0000
1000
0002
0000
0003
0000
,
0100
0000
0000
0001
0000
0000
1000
0000
0100
0000
0000
0000
0000
0000
0000
0000
,
0100
0000
0000
0010
0000
0000
0100
0000
0000
0110
0000
0000
0000
0000
0000
0000
,
0001
0000
0000
0100
0000
0000
0001
0000
0010
0000
0000
0000
0000
0000
0000
0000
,
1000
0000
0000
0010
0000
0000
0100
0000
0010
0000
0000
0000
0000
0000
0000
0000
,
0100
0000
0000
0010
0000
0000
1000
0000
0100
0000
0000
0000
0000
0000
0000
0000
,
0010
0001
1000
0000
0100
0000
0200
0000
,
1300
0000
0001
0000
0100
0000
0010
0100
,
0001
0000
0000
0000
,
0010
0000
0000
0010
0000
0000
0100
0000
0000
0100
0000
0000
0000
0000
0000
0000
,
0010
0000
0000
1000
0000
0000
0001
0000
0000
1001
0000
0000
0000
0000
0000
0000
;

//--------------- dance-single - ----------------
#NOTES:
     dance-single:
     :
     Hard:
     8:
     0.460849,0.561005,0.293267,0.261846,0.125686,308,280,28,25,0,0,0.460849,0.561005,0.293267,0.261846,0.125686,308,280,28,25,0,0:
0000
0000
0000
0000
,
0000
0000
0000
0000
,
0000
0000
0000
0000
,
0000
0000
0000
0000
,
0002
0000
1000
0003
,
0100
0001
0100
0001
1000
0001
1000
0001
,
0020
0130
1100
0101
,
0010
1000
0000
0001
0100
0000
1001
0000
,
0100
0001
1000
0000
0010
0010
0100
0001
,
0000
1000
0001
2000
0000
0000
3010
0200
,
0001
0000
0301
0000
0010
1000
0001
2000
,
0100
0000
3100
0020
0001
0001
0031
0000
,
0100
0000
0000
0001
0000
0000
1000
0000
0000
1001
0000
0000
0010
0000
0100
0000
,
0001
0000
0000
1000
0000
0000
0110
0000
0000
0200
0000
0000
0000
0000
0000
0000
,
0000
0000
0000
0000
,
0300
0000
0100
0000
0000
0010
1000
0000
,
0200
0000
0010
0000
0000
0010
0310
0000
,
0001
1000
0001
0000
0100
0000
0110
0000
,
1000
0100
0000
0010
0001
0010
0001
1000
,
0000
0000
1100
0000
0010
0000
0100
0001
,
0010
0000
1001
0000
0100
0010
0100
0000
,
1000
0000
0010
0100
0010
0100
0001
1000
,
0000
0010
0100
0000
0002
0000
0013
0000
,
1000
1000
0002
0000
0000
0100
0003
0100
,
0020
0000
1030
0000
0100
0010
0000
0000
,
0101
0000
0010
1000
0001
0001
0000
1000
,
0020
0000
1030
0000
0100
0010
0100
0010
,
1000
1000
0001
0001
0010
0000
1001
0000
,
0010
0100
0001
0100
0002
0000
0013
0000
,
0010
0100
1000
0100
0001
1000
0001
0000
,
0100
0000
0001
0000
0000
0001
0000
0000
1000
0000
0002
0000
0003
0000
0000
0000
,
1000
0000
0100
0000
1000
0000
0010
0100
,
0000
0001
1000
0001
0010
0100
0010
0000
,
1100
0000
0001
0100
0001
0010
0100
2000
,
0000
0010
3010
0100
0001
0100
0001
0020
,
0100
0000
0130
1000
0100
1000
0001
0000
,
0010
0001
0010
0001
1000
0100
0001
0000
,
0100
1000
0100
1000
0001
0001
0001
0000
,
0010
0000
0100
0001
0000
0100
0001
0000
1000
0000
1000
0000
1001
0000
0000
0000
,
0100
0000
0101
0000
0000
0000
1000
0000
0020
0000
0000
0000
1030
0000
0000
0001
,
0100
0000
0010
1000
0000
0001
1000
0000
0001
0000
0000
0000
0100
0000
0010
0000
,
0100
0001
1000
0200
0010
0000
0301
0001
,
1001
0000
1100
0000
0010
0100
0001
0001
,
0000
2100
0000
3020
0000
0130
0001
0000
,
1100
0000
0000
0010
0000
0000
0100
0000
0000
0002
0000
0000
1003
0000
1000
0000
,
0010
0000
0000
0100
0000
0000
1100
0000
0000
0102
0000
0000
0013
0000
0010
0000
,
0100
0000
1000
0001
0000
1000
0001
0000
0010
0000
0100
0000
0001
0000
0000
0000
,
1100
0000
0000
0101
0000
0000
1100
0000
0010
0000
0010
0000
0010
0000
0000
0000
,
1000
0000
1000
0001
0000
0002
1000
0000
0010
0000
0010
0000
0103
0000
0000
0000
,
0100
0001
0100
1000
0100
0010
2000
0000
,
3001
0000
0101
0000
0010
1000
0100
1000
,
0001
0000
0000
0000
,
0010
0000
0000
1100
0000
0000
0101
0000
0000
0020
0000
0000
0130
0000
0100
0001
,
1000
0000
0000
1010
0000
0000
0101
0000
0000
1001
0000
0000
0000
0000
0000
0000
;

//--------------- dance-single - 8Chasey - 2025 chart ----------------
#NOTES:
     dance-single:
     8Chasey - 2025 chart:
     Challenge:
     9:
     0,0,0,0,0:
0000
0000
0000
0000
,
0000
0000
0000
0000
,
0000
0000
0000
0000
,
0000
0000
0000
0000
,
1001
0000
0001
0000
1000
0100
1000
0010
,
1000
0001
0000
0100
0001
0010
0001
0100
,
0010
0000
0000
0000
0110
0000
0000
0100
0001
0000
0001
0000
0100
0000
0001
0000
,
1001
0000
0000
0000
1000
0000
0010
0000
0010
0000
1000
0000
0001
0000
0100
0001
,
0100
0000
0000
0000
0110
0000
0010
0000
1000
0000
0100
0000
1000
0001
1000
0000
,
0001
0000
0010
0000
0001
1000
0001
0000
0100
0000
0001
0000
0100
0010
0100
0000
,
0010
0000
1010
1000
0100
1000
0001
0001
,
0100
0000
0000
0000
0101
0000
0000
0001
0010
0000
0001
0000
1000
0000
0100
0000
,
1000
0000
0010
1000
0000
0010
1000
0000
0001
0100
0000
0000
0001
0000
0010
0001
,
0010
0000
0001
1000
0001
0100
0001
0000
0000
2020
0000
0000
0000
0000
0000
0000
,
0000
0000
0000
0000
0000
0000
0000
3030
,
0010
1000
0001
0100
0001
0010
0010
0001
,
1000
0100
1100
0000
1000
0001
0100
0000
,
0001
0010
0001
0001
1000
0100
1000
0000
,
1001
0000
0001
0010
0001
0001
1000
0010
,
1000
0100
0010
0000
0100
0010
0001
0100
,
0100
0010
0110
0000
0100
0001
0010
0100
,
0000
0100
1000
0000
0100
1000
0001
0100
,
0000
0100
0001
1000
1001
0000
0001
0010
,
0001
0000
0001
0000
0100
0000
0000
0100
0010
0000
1000
0000
1000
0000
0100
0000
,
0000
1000
0001
0100
0010
0010
0100
0100
,
0001
0000
1000
0000
1001
0000
0000
1000
0010
0000
1000
0000
0001
0000
1001
0000
,
0000
1000
0100
1000
0001
0010
0001
0100
,
0010
0010
0100
0100
0001
0010
0001
1000
,
0000
0000
0100
1000
0100
0000
1000
0000
0010
0000
1000
0000
0001
0000
0010
0000
,
0001
0000
0100
0000
0010
0000
0000
0100
0010
0000
1000
0000
0100
0000
0010
0000
,
0001
0000
0100
0001
0000
1000
0000
0100
1000
0000
0001
0000
0100
0010
0100
0000
,
0010
1000
0100
1000
0000
0101
0000
0001
,
0010
0010
0001
1000
0000
1100
0000
0100
,
1000
0010
1000
0001
0000
0011
0000
1010
,
0000
1000
0100
0001
0000
0100
0010
0001
,
0100
0100
0001
0001
1000
0010
1000
0100
,
1000
1000
0010
0010
0100
0001
0010
0001
,
1001
0000
1000
0000
0010
0000
0001
0000
0010
0100
0010
0100
0001
1000
0001
1000
,
0100
0000
1000
0100
0000
1000
0010
0000
0100
0000
0101
0000
0001
0000
0001
0000
,
0100
0000
0001
0100
0000
0010
1000
0000
0100
0000
1100
0000
1000
0000
0010
1000
,
0010
0000
0100
0001
0000
1000
0001
0000
1000
0000
0100
0000
0010
0000
0100
0000
,
0010
0000
0001
0000
1001
0000
1000
0000
0100
0000
1000
0000
0010
1000
0010
0000
,
0110
0000
0100
0001
0010
0100
1000
1100
,
0000
0101
0000
1001
0000
1000
0010
1000
,
0001
0000
0010
0001
0000
0100
0001
0000
1000
0010
0000
0000
1000
0000
0100
0000
,
1000
0000
0010
1000
0000
0001
0100
0000
0001
0010
0000
0000
0100
0000
0100
0000
,
1000
0000
0010
1000
0000
0100
1000
0000
0010
0000
0100
0000
0001
0000
0101
0000
,
0001
0000
0010
0001
0000
0100
0001
0000
0100
0000
0010
0000
1000
0000
1100
0000
,
1000
0000
0001
0010
0000
0100
0010
0000
0100
0000
1000
0000
0010
0000
0100
0000
,
0010
0000
0100
0000
0001
0000
0010
0000
0001
0000
1000
0000
0100
1000
0100
0000
,
0010
0001
0101
0000
0010
0100
0001
1000
,
2002
0000
0000
3003
,
1100
0000
1000
0010
0000
0010
1000
0000
0001
0010
0000
0001
0100
0000
0001
0010
,
0001
0000
0000
0101
0000
0000
1100
0000
0000
1001
0000
0000
0000
0000
0000
0000
;

//--------------- dance-double - ----------------
#NOTES:
     dance-double:
     :
     Easy:
     3:
     0.197507,0.252158,0.115212,0.157108,0,132,121,11,15,0,0,0.197507,0.252158,0.115212,0.157108,0,132,121,11,15,0,0:
00000000
00000000
00000000
00000000
,
00000000
00000000
00000000
00000000
,
00000000
00000000
00000000
00000000
,
00000000
00000000
00000000
00000000
,
00001000
00000000
00010000
00000000
,
00001000
00010000
00001000
00010000
,
00011000
00000000
01000000
00000000
,
00100000
00000000
10000000
00000000
,
00100000
00000000
10000000
00000000
,
01000000
00100000
00010000
00000000
,
00100000
00001000
00010000
00000000
,
00000100
00001000
00000010
00000000
,
00000200
00000000
00000301
00000000
,
00000010
00001000
00000020
00000000
,
00000000
00000000
00000000
00000000
,
00000030
00000000
00000000
00000000
,
00001000
00000100
00010000
00000000
,
00001000
00000000
00010000
00000000
,
00002000
00000000
00013000
00010000
,
01000000
00000000
10000000
00000000
,
00100000
01000000
00000000
00000000
,
01000000
00010000
00100000
00000000
,
00001000
00010000
00011000
00000000
,
00020000
00000000
00030000
00000000
00000000
00002000
00000000
00003000
,
00000000
00000000
00000100
00000000
,
00000002
00000000
00000003
00000000
00000000
00002000
00000000
00003000
,
00000000
00000000
00011000
00000000
,
00000200
00000000
00010300
00000000
,
00000020
00000000
00001030
00000000
,
00000200
00000000
00000300
00000000
00000000
00000020
00000000
00000030
,
00000000
00000000
00000110
00000000
,
00001000
00000100
00010000
00001000
,
02000000
00000000
03100000
00000000
,
10000000
01000000
00100000
00010000
,
00002000
00000000
00003100
00000000
,
00001001
00000000
00001100
00000000
,
00011000
00000000
01010000
00000000
,
10000000
00010000
20000000
30000000
,
00010000
00100000
00010000
00000000
,
00001000
00010000
00001000
00000000
,
00000100
00001000
00000100
00000000
,
00000010
00000001
00000100
00001000
,
00020000
00000000
00030000
00000000
,
00001000
00000000
00011000
00000000
,
00100000
00010000
10000000
00000000
,
01000000
10000000
00010000
00000000
,
00100000
00001000
00010000
00000000
,
00000100
00001000
00000010
00000000
,
00010000
00001000
00010000
00000000
,
00001000
01000000
00010000
00100000
,
10000000
00100000
00010000
00000000
,
10010000
00000000
00000000
00000000
,
00010000
00100000
01000000
00000000
,
00010000
00001000
00011000
00000000
;
