#TITLE:Remix 8;
#SUBTITLE:(from Rhythm Heaven, ingame);
#ARTIST:Nintendo;
#TITLETRANSLIT:;
#SUBTITLETRANSLIT:;
#ARTISTTRANSLIT:;
#GENRE:;
#CREDIT:8Chasey 2025;
#MUSIC:Remix 8 (from Rhythm Heaven, ingame).ogg;
#BANNER:;
#BACKGROUND:;
#CDTITLE:;
#SAMPLESTART:53.150;
#SAMPLELENGTH:11.999;
#SELECTABLE:YES;
#OFFSET:0.132;
#BPMS:0.000=171.164
,62.000=342.328
,66.000=171.164
,74.000=85.582
,86.000=171.164
,120.000=85.582
,124.000=171.164
,188.000=182.128
,212.000=183.910
,220.000=189.500
,228.000=198.940
,236.000=209.560
,244.000=219.000
,252.000=219.460
,258.000=438.920
,262.000=219.460
;
#STOPS:1.000=1.052
,2.000=1.052
,3.000=0.351
,4.000=0.351
,98.500=1.052
,103.500=1.052
;
#DISPLAYBPM:85.000:440.000;
#BGCHANGES:;
#FGCHANGES:;

//--------------- dance-single - 8Chasey ----------------
#NOTES:
     dance-single:
     8Chasey:
     Beginner:
     2:
     0,0,0,0,0:
0000
0000
0000
0000
,
0000
0000
0000
0000
,
0001
0000
0000
0000
,
0100
0000
0000
0000
,
1000
0000
0000
0000
,
0100
0000
0100
0000
,
0001
0000
0001
0000
,
0100
0000
0100
0000
,
1000
0000
1000
0000
,
0100
0100
0100
0100
,
0000
0001
0001
0000
,
1000
0000
0001
0000
,
1000
1000
1000
0000
,
0001
0000
1000
0000
,
0010
0000
0100
0000
,
0010
0000
0000
0000
,
0000
0000
0100
0000
,
0000
0000
0100
0100
,
0000
0000
0001
0001
,
0001
0000
1000
1000
,
1000
0000
0010
0010
,
0010
0000
0100
0000
,
0100
0000
0100
0000
,
0000
0000
0001
0000
,
1000
0000
1000
1000
,
0000
0001
0000
0001
,
0001
0000
1000
0000
,
0001
0000
0000
0000
,
1000
0000
0001
0000
,
1000
0000
0000
0000
,
0000
0000
0000
0000
,
1001
0000
0000
0000
,
1000
0000
1000
0000
,
0001
0000
0000
0000
,
0001
0000
1000
1000
,
1000
0000
0000
0000
,
0010
0000
0010
0000
,
0100
0000
0000
0000
,
0010
0000
1000
1000
,
0000
0001
0000
0001
,
0000
0100
0000
0100
,
0000
0010
0000
0010
,
0000
1000
1000
0000
,
0000
1000
0000
1000
,
0000
0010
0000
0010
,
0000
0100
0000
0100
,
0000
0001
0001
0000
,
1000
0000
0000
0000
,
0001
0000
0000
0000
,
1001
0000
0000
0000
,
0000
0000
0000
0010
,
0010
0000
0000
0000
,
0100
0000
0000
0000
,
0001
0000
0000
0000
,
1000
0000
0001
0000
,
1000
0000
0000
0000
,
0001
0000
0000
0000
,
1000
0000
0000
0000
,
0010
0000
0010
0000
,
0100
0000
0000
0000
,
0001
0000
0000
0000
,
0100
0000
0000
0000
,
0010
0000
0000
0000
,
1000
0000
0000
0000
,
0001
0000
0000
0000
,
0000
0000
0100
0000
,
0000
0000
0000
0000
,
0000
0000
1001
0000
;

//--------------- dance-single - 8Chasey ----------------
#NOTES:
     dance-single:
     8Chasey:
     Easy:
     4:
     0,0,0,0,0:
0000
0001
0001
0001
,
0001
0001
1000
0001
,
1001
0000
1000
0000
,
0100
1000
0010
0000
,
1000
0000
0010
0000
,
0100
0001
0010
0000
,
0200
1000
0000
1300
,
0020
0100
0000
0130
,
0002
0010
0000
0013
,
0001
1000
0200
0300
,
0010
0001
0010
0100
,
2000
0000
0002
3003
,
0100
0010
0100
0000
,
0001
1000
0001
0000
,
0100
0010
0100
0010
,
1000
0010
2000
0000
,
0000
0000
3001
0100
,
0001
0100
0010
0110
,
0000
1001
1000
0100
,
1000
0000
0001
1000
0001
0000
0010
0000
,
0001
0000
1000
0001
1000
0000
0010
0000
,
0100
0001
0100
0000
,
0010
0000
0100
0010
,
0100
0010
1000
0000
,
0100
0000
0010
0001
,
0000
0100
0000
0010
,
1000
0000
0000
0100
0000
1000
0000
0000
,
0001
0000
0000
0100
0000
0001
0000
0000
,
0010
0000
0100
0000
,
2002
0000
0000
3003
,
1000
0000
0001
0000
1000
0001
1000
0001
,
1000
0010
1000
0000
,
0010
1000
0010
0000
,
0100
0001
0100
0000
,
0010
0000
1000
1000
,
0100
0000
0010
0000
,
0001
0100
0001
0000
,
1000
0000
0010
0100
,
0010
0000
1000
1000
,
0000
0100
0000
0110
,
0000
0010
0100
0010
,
0000
0001
0000
1000
,
0000
0001
0100
0100
,
0000
0010
0000
0110
,
0000
0100
0010
0100
,
0000
0010
0000
1000
,
0000
0001
1000
0001
,
0100
0000
0001
0000
,
1000
0000
0100
0000
,
0020
0000
0000
0030
,
0000
0000
0000
0001
,
1001
0000
1000
0000
,
0010
0000
0100
0000
,
0001
0100
1000
0000
,
0100
0000
0010
0000
,
1000
0100
1000
0000
,
0001
0100
0001
0000
,
1000
0010
1000
0000
,
0001
0010
0001
0000
,
0100
0000
0001
0000
,
1000
0000
0100
0000
,
0010
0100
0010
0000
,
0100
0000
0010
0000
,
0001
0000
0100
0000
,
0010
0000
1000
0000
,
0000
0000
0100
0000
,
0000
0000
0010
0020
,
0000
0030
1001
0000
;

//--------------- dance-single - 8Chasey ----------------
#NOTES:
     dance-single:
     8Chasey:
     Medium:
     8:
     0,0,0,0,0:
0000
0010
0010
0100
,
0100
0001
1000
1001
,
1001
0000
0001
0100
0001
0000
0010
0000
,
0100
1000
0100
1000
0000
1000
0010
0000
,
0100
0000
0010
1000
0100
1000
0010
0000
,
0100
0001
0100
0001
0000
0010
0001
0001
,
0100
0010
0000
1000
0100
0000
1000
0001
,
0100
0010
0100
0000
0001
0010
0001
0000
,
1000
0000
0010
0100
0000
0100
0010
0000
,
0100
0001
0100
0000
0010
1000
0010
0010
,
0100
0001
1000
0000
0100
0100
0010
0000
,
0002
0000
0100
0000
1003
0100
0010
0000
,
0100
0000
0010
0100
1000
0000
0001
0000
,
2000
0000
0010
0000
3001
0010
0100
0000
,
0010
0100
1000
0000
0001
0000
0100
0000
,
0010
1000
0010
0000
0200
0000
0000
0000
,
0000
0000
0000
0000
0301
0000
0010
0001
,
1000
0100
0010
0000
0110
0000
1001
0000
,
0000
0000
0100
0000
0010
0000
0000
0000
1010
0000
0010
0000
1000
0001
1000
0000
,
0001
0000
0000
0010
0100
0000
0010
0000
0100
0000
0000
1000
0100
0000
1000
0000
,
0001
0010
0001
0000
0200
0000
0010
0000
0310
0000
1000
0010
0000
1000
0001
1000
,
0000
0001
0000
0010
0000
0001
0000
0100
0020
0000
0000
0000
1030
0000
0100
0000
,
0020
0000
0031
0000
1000
0010
1000
0100
,
0010
0001
0100
0000
0010
0000
1000
0001
,
0000
1000
0010
0100
0020
0000
0130
0000
,
0001
1000
0000
0100
1000
0001
0200
0000
,
0310
0000
1000
0010
0000
0010
0000
0100
,
0001
0000
1000
0100
0000
0100
0000
0010
,
0100
1000
0100
1000
0000
0001
0000
0010
,
0002
0100
0000
1003
,
1000
0000
0100
0000
1000
0000
0001
0000
0010
0000
0001
0000
0100
0010
0100
0010
,
0100
0000
0002
0000
1003
0100
1000
0010
,
0000
0100
0010
0100
0000
0001
1000
0001
,
0000
0020
0000
0130
1000
0100
1000
0001
,
0000
0200
0000
0310
0100
0000
1001
0000
,
1000
0000
0200
0000
1300
0010
1000
0001
,
0000
0010
0001
0200
0000
0000
0310
1000
,
0000
0100
1000
0001
0010
0001
0000
0100
,
0010
0000
1000
0100
0010
0000
0110
0000
,
1001
0000
2000
0000
3010
1000
0010
0100
,
0000
0001
0100
1000
0000
0100
0010
1000
,
0000
0020
0000
0130
0001
1000
0100
1000
,
0000
0002
0000
0103
0010
1000
0010
0000
,
0100
0000
0110
0000
0010
1000
0010
0100
,
0000
0001
1000
0001
0000
0000
0010
0002
,
0000
0000
0103
0000
0010
1000
0000
0010
,
1000
0000
0100
0000
1000
0000
0010
2000
,
0000
0000
3100
0000
0010
0001
0000
0010
,
0001
0000
0100
0000
0010
1000
0010
0000
,
0220
0000
0000
0000
,
0000
0000
0330
1001
,
1001
0000
1000
0000
0010
1000
0010
0000
,
0100
0010
1000
0010
0000
1000
0010
0000
,
0100
0001
0100
0000
0001
0010
0001
0000
,
1000
0000
0100
0010
0100
0000
0010
0000
,
0001
0010
0000
0001
1000
0000
0010
1000
,
0000
0100
1000
0000
0010
0100
0010
0100
,
0001
0000
0010
0001
0000
1000
0100
0000
,
1000
0010
1000
0000
0001
0100
0001
0000
,
1000
0100
1000
0000
0010
0000
0100
0000
,
0001
0001
2002
3003
,
0010
0001
0010
0000
0001
0000
0100
0000
,
0020
1000
1000
1030
,
0100
1000
0100
0000
1000
0000
0001
0000
,
0100
0010
0200
0000
,
0000
0000
0310
1000
,
0100
0010
0011
1010
,
0000
0110
1001
0000
;

//--------------- dance-single - 8Chasey ----------------
#NOTES:
     dance-single:
     8Chasey:
     Hard:
     10:
     0,0,0,0,0:
0000
0000
0000
0000
0002
0003
0000
0000
2000
3000
0000
0000
0020
0030
0000
0000
,
0200
0300
0000
0000
0101
0000
0000
0000
1100
0000
0000
0000
0110
0000
0000
0000
,
1001
0000
0001
0000
0100
0000
0010
1000
0000
0010
1000
0000
0001
0000
0000
0000
,
0010
0000
0001
0000
0100
0000
0001
0010
0000
0001
0010
0000
0100
0000
0010
0000
,
1000
0001
1000
0000
0001
0000
0100
0010
0000
0100
0010
0000
1000
0000
0100
0000
,
1000
0010
1000
0000
0001
0000
0100
0010
0100
0000
0001
0000
1000
0000
0100
1000
,
0100
0000
1000
0000
0010
0000
1000
0001
1000
0000
0001
0000
0100
0010
0100
0000
,
0010
0000
0001
0010
0001
0000
1000
0100
1000
0000
0010
0000
0100
0000
0010
0100
,
0010
0000
0100
0000
0001
1000
0001
0000
1000
0100
1000
0000
0010
0000
0100
0000
,
0001
0010
0001
0000
1000
0000
0010
1000
0010
0000
0100
0000
0010
0000
0100
0001
,
0100
0000
0002
0000
0023
0000
0032
0000
1003
0100
2000
0000
3010
0000
0100
0000
,
0002
0000
0010
0000
0013
0000
0001
1000
0010
2000
0000
0000
3100
0000
1000
0000
,
0020
0000
0100
0000
0130
0000
0001
0100
0001
0000
1000
0000
0010
0000
1000
0000
,
0200
0000
1000
0000
0310
0000
0001
0000
0100
0001
0100
0001
0100
0000
0010
1000
,
0010
1000
0100
0001
0100
0010
0001
1000
,
0001
0100
0010
1000
0100
1000
0100
1000
,
0100
0000
1000
0000
0100
0000
1000
0000
0001
0000
0100
0000
0010
0000
1000
0001
,
1000
0001
0100
0010
0110
0000
1001
0000
,
0000
0000
1010
0000
0101
0000
0000
0000
0100
0001
0100
0000
0010
1000
0010
1000
,
0100
0000
1000
0001
0100
0000
0101
0000
1100
0000
1000
0100
0010
0100
1000
0001
,
0100
0100
0001
0010
0001
0000
1000
0000
0110
0000
0010
0100
0000
0001
1000
0001
,
0100
0010
0000
0010
0100
0001
1000
0100
0020
0000
0000
0000
0031
0000
0010
0100
,
2000
0000
0000
0000
3100
0000
0000
0000
1000
0000
0010
0000
1000
0000
0001
0010
,
0001
0000
0010
0100
0010
0000
0100
0000
0110
0000
0010
0000
0001
0000
1000
0000
,
0000
1010
0010
0100
0001
0201
0310
1000
,
0100
0110
0000
0011
0001
1000
0100
2100
,
3010
0000
0100
0000
0001
0000
0100
0010
0000
0000
1000
0010
1000
0000
0100
0000
,
0010
1000
0010
0001
0000
0011
0000
1010
,
1000
0001
0100
0020
0000
1000
0000
0130
,
0001
0000
0002
0000
1000
0000
2003
0000
0000
0000
3100
0000
1000
0000
0001
0100
,
0010
0020
0000
1000
2030
0000
0001
3002
0000
0100
0203
0000
0310
0100
0001
1000
,
1001
0000
0001
0000
0010
0000
0001
0000
1000
0000
0100
1000
0001
0000
0200
0000
,
0310
1000
0001
0020
0130
0010
0001
2000
,
3010
0000
1000
0100
1000
0000
0001
0100
0001
0000
0010
0000
0001
0000
1000
0010
,
1000
0010
0100
0001
0011
0000
1100
0000
,
0100
0000
0010
0000
0001
0000
0100
0000
0010
0000
1000
0100
1000
0000
0001
0000
,
0010
0000
0001
1000
0001
0000
2000
0000
0000
3000
0100
1000
0100
0000
0020
0000
,
0001
0000
0031
0000
0100
0000
0010
1000
0010
0000
1000
0000
0100
0000
0010
0000
,
0001
0010
0001
0000
1000
0010
1000
0000
1010
0000
0000
0000
0101
0000
0001
0000
,
1001
0000
0000
0000
1100
0000
1000
0000
0010
0000
1000
0001
1000
0000
0002
0000
,
0013
0000
0001
0100
0001
0000
2000
0000
3010
0100
0010
0000
1000
0000
0200
0000
,
1300
0000
0020
0000
0130
0000
0001
0000
0010
0001
0010
0000
0001
0000
1000
0000
,
0100
0000
0001
0000
0100
0000
0010
0000
0001
0010
0001
0000
0100
0000
0001
0000
,
0102
0000
0000
0000
0013
0000
0100
0000
1000
0000
0100
0010
0100
0000
0010
0000
,
0001
0000
0100
0010
0100
0000
0010
0000
1000
0000
0100
0000
0010
0001
0020
0000
,
0000
0000
0031
0100
0001
0000
1000
0000
0010
1000
0010
0000
0100
0000
0002
0000
,
0000
0000
0013
0100
0010
0000
0100
0000
1000
0100
1000
0000
0010
0100
0020
0000
,
0000
0000
0130
0001
0100
0000
0010
0000
1000
0010
1000
0000
0100
0000
0010
0000
,
0001
0000
0100
0000
1000
0000
0100
0000
0001
1000
0001
0000
1000
0000
0020
0000
,
0100
0100
1000
0000
0000
0000
0001
0000
,
0000
0230
0310
0110
,
1001
0000
1000
0000
0010
0000
0100
0001
0000
0100
0001
0000
0010
0000
0001
0000
,
0011
0000
0010
0000
0100
0000
1000
0001
0000
1000
0001
0000
0010
0000
0001
0000
,
0101
0000
0100
0000
0010
0000
1000
0100
0000
1000
0100
0000
0010
0000
0001
0100
,
0001
0000
1000
0010
1000
0000
0010
0100
0000
0010
0100
0000
0001
0000
1000
0100
,
1000
0001
1000
0000
0100
0000
0010
0001
0010
0000
0100
0000
1000
0001
1000
0000
,
0010
0000
0100
0001
0100
0000
0010
0000
1000
0100
1000
0000
0001
0000
0100
0000
,
0110
0000
0100
0000
0001
0010
0001
0000
1000
0100
1000
0000
0010
0000
0100
0000
,
0001
0100
0001
0000
0010
0000
0100
1000
0100
0000
0010
0000
0001
0000
0100
0001
,
0100
0000
0020
0000
2030
0000
3002
0000
0103
0010
0200
0000
0301
0000
1000
0100
,
1000
0000
0010
0000
0100
0000
0001
0010
0002
0000
0100
0000
0103
0000
0010
0000
,
1000
0100
1000
0000
0001
0000
0010
0100
0010
0000
0001
0000
0100
0000
1000
0000
,
0100
0010
0100
0000
0010
1000
0010
0000
0100
0000
0001
0000
0100
0000
0001
0010
,
0001
1000
0100
0001
0100
0010
0001
0100
,
0010
1000
0010
0100
0001
0100
0001
0100
,
0001
0000
0100
0000
0001
0000
0100
0000
0010
0000
1000
0000
0100
0000
0010
0001
,
0010
0001
0100
0010
1010
0000
0101
0000
,
0000
1100
0110
0000
1001
0000
0000
0000
;
