#TITLE:Remix 1 (from Rhythm Tengoku);
#SUBTITLE:;
#ARTIST:Nintendo;
#TITLETRANSLIT:;
#SUBTITLETRANSLIT:;
#ARTISTTRANSLIT:;
#GENRE:;
#CREDIT:;
#BANNER:;
#BACKGROUND:;
#LYRICSPATH:;
#CDTITLE:;
#MUSIC:Remix 1 (from Rhythm Tengoku).ogg;
#OFFSET:1.100000;
#SAMPLESTART:-0.091597;
#SAMPLELENGTH:14.117646;
#LASTBEATHINT:0.198333;
#SELECTABLE:YES;
#BPMS:0.000000=119.000000
;
#STOPS:
;
#BGCHANGES:;
#KEYSOUNDS:;
#ATTACKS:;

//---------------dance-single - ----------------
#NOTES:
     dance-single:
     :
     Easy:
     4:
     0.183026,0.294602,0.091513,0.077434,0.000000,182.000000,169.000000,13.000000,11.000000,0.000000,0.000000,0.183026,0.294602,0.091513,0.077434,0.000000,182.000000,169.000000,13.000000,11.000000,0.000000,0.000000:
0000
0000
0000
0000
,
0001
1000
0001
1000
,
0001
1000
0001
1000
,
0001
1000
0001
1000
,
0001
1000
0001
1000
,
0001
1000
0001
1001
,
0000
0000
0000
0000
,
0010
0000
0000
0000
,
1000
0001
1000
0001
,
1000
0001
1000
0001
,
1000
0001
1000
0001
,
1000
0001
1000
0001
,
1000
0001
1000
1001
,
0000
0000
0000
0000
,
0010
0000
0000
0000
,
0010
0000
0000
0000
,
0001
1000
0001
1000
,
0001
1000
0001
1000
,
0001
1000
0001
1000
,
0001
1000
0001
1000
,
0001
1000
0001
1001
,
0000
0000
0000
0000
,
0010
0000
0000
0100
,
0010
0000
0000
0000
,
0000
1000
0000
1000
,
0000
0001
0000
0001
,
0000
1000
0000
1000
,
0000
0001
0000
0001
,
0000
1000
0000
0001
,
0000
1001
0000
0000
,
0010
0000
0000
0100
,
0010
0000
0000
0000
,
0200
0000
0000
0310
0000
0000
0000
0000
,
0001
0001
0000
0000
,
1000
0000
0000
1001
0000
0000
0000
0000
,
1000
1000
0000
0000
,
0001
0000
0000
1001
0000
0000
0000
0000
,
0000
0001
0000
1000
,
0000
0000
0000
1001
0000
0000
0000
0001
,
0001
0000
0000
0000
0000
0000
0000
1000
,
1000
0000
0000
0000
,
0020
0000
0130
0000
,
0000
0001
0000
0001
,
0000
1000
0000
1000
,
0000
0010
0000
0010
,
0000
0000
1001
0000
,
1000
1000
1000
0000
1000
1000
1000
0000
,
0002
0000
1003
0000
,
0001
0001
0001
0000
0001
0001
0001
0000
,
2000
0000
3001
0010
,
0010
0000
0000
0000
,
0000
1000
0000
1000
,
0000
0001
0000
0001
,
0000
0010
0000
0010
,
0000
0000
1001
0000
,
0002
0003
0002
0003
,
2000
0000
3001
0000
,
2000
3000
2000
3000
,
0002
0000
1003
0010
,
0010
0000
0000
0000
,
0000
0001
0000
1000
,
0000
0001
0000
0001
0000
0001
0000
0000
,
0000
1000
0000
0001
,
0000
1000
0000
1000
0000
1000
0000
0000
,
0000
1001
0000
1001
,
0000
1001
0000
1001
,
0001
0001
0001
0000
1000
1000
1000
0000
,
0020
0000
0130
0010
,
0010
0000
0000
0000
,
0010
0010
0010
0010
;

//---------------dance-single - ----------------
#NOTES:
     dance-single:
     :
     Medium:
     6:
     0.286607,0.392803,0.323816,0.014079,0.031678,285.000000,239.000000,46.000000,2.000000,0.000000,0.000000,0.286607,0.392803,0.323816,0.014079,0.031678,285.000000,239.000000,46.000000,2.000000,0.000000,0.000000:
0000
0000
0000
0000
,
0001
1000
0001
1000
,
0001
1000
0001
1000
,
0001
1000
0001
1000
,
0001
1000
0001
1010
,
0001
1000
0001
1001
,
0000
0000
0000
0000
,
0110
0000
0000
0000
,
1000
0001
1000
0001
,
1000
0001
1000
0001
,
1000
0001
1000
0001
,
1000
0001
1000
0011
,
1000
0001
1000
1001
,
0000
0000
0000
0000
,
0110
0000
0000
0000
,
0110
0000
0000
0000
,
0001
1000
0001
1000
,
0001
1000
0011
0000
,
1000
0001
1000
0001
,
1000
0001
1010
0000
,
0010
0100
0000
1001
,
0000
0000
0000
0000
,
0110
0000
0000
1001
,
0110
0000
0000
0000
,
0001
0100
0001
0100
,
0001
0100
0001
1001
,
1000
0100
1000
0100
,
1000
0100
1000
1001
,
0010
0010
0010
0010
,
0000
0100
0000
0010
,
0110
0000
0000
1001
,
0110
0000
0000
0000
,
1000
0100
0010
0001
0000
0000
0000
0000
,
0001
0001
0101
0000
0001
0000
0100
0000
,
0001
0000
0001
0101
0000
0000
0000
0000
,
1000
1000
1100
0000
1000
0000
0100
0000
,
1000
0000
1000
1100
0000
0000
0000
0000
,
0010
0010
0110
0000
0010
0000
0100
0000
,
0010
0000
0010
0110
0000
0000
0000
0110
,
0110
0000
0000
0000
0000
0000
0000
1001
,
1001
0000
0000
0000
,
0010
0000
0000
0010
0000
0000
0010
0000
0010
0000
0000
0000
0000
0000
0000
0000
,
0001
0100
0001
0100
,
0001
0010
0001
0010
,
0001
1000
0001
1000
,
0002
0000
1003
0000
,
0001
0100
0001
0000
1000
0100
1000
0000
,
0001
1000
1001
0000
,
1000
0010
1000
0000
0001
0010
0001
0000
,
1000
0001
1001
0010
,
1001
0000
0000
0000
,
1000
0100
1000
0100
,
1000
0010
1000
0010
,
1000
0001
1000
0001
,
2000
0000
3001
0000
,
1000
0100
1000
0100
0000
0000
0001
0100
0001
0100
0000
0000
,
0001
1000
1001
0000
,
0001
0010
0001
0010
0000
0000
1000
0010
1000
0010
0000
0000
,
1000
0001
1001
0010
,
1001
0000
0000
0000
,
0001
1000
0001
0000
0001
1000
0001
0000
,
0001
1000
0000
1000
0000
1010
0000
0000
,
1000
0001
1000
0000
1000
0001
1000
0000
,
1000
0001
0000
0001
0000
0011
0000
0000
,
1000
1100
1000
1010
,
0001
0101
0001
0011
,
0001
0001
1001
0000
1000
1000
1001
0000
,
0001
1000
1001
0110
,
1001
0000
0000
0000
,
0010
0010
0010
1001
;

//---------------dance-single - ----------------
#NOTES:
     dance-single:
     :
     Hard:
     8:
     0.351974,0.491004,0.520921,0.028158,0.056316,350.000000,276.000000,74.000000,4.000000,0.000000,0.000000,0.351974,0.491004,0.520921,0.028158,0.056316,350.000000,276.000000,74.000000,4.000000,0.000000,0.000000:
0000
0000
0000
0000
,
0001
1000
0001
1010
,
1000
0001
1000
0011
,
0001
1000
0001
0101
,
1000
0001
1000
1100
,
0001
1000
0110
1001
,
0000
0000
0000
0000
,
0110
0000
0000
0000
,
1000
0001
1000
1010
,
0001
1000
0001
0011
,
1000
0001
1000
1100
,
0001
1000
0001
0101
,
1000
0001
0110
1001
,
0000
0000
0000
0000
,
0110
0000
0000
0000
,
1001
0000
0000
0000
,
1000
1010
1000
1010
,
1000
1000
0100
0000
1000
1000
0100
0000
,
0001
0011
0001
0011
,
0001
0001
0100
0000
0001
0001
0100
0000
,
0001
1000
0001
0000
1000
0001
1000
0000
,
0000
0000
0000
0000
,
1001
0000
0000
2100
,
3001
0000
0000
0000
,
0001
0001
0001
0011
,
0001
0010
0001
0010
0100
0000
0000
0000
,
1000
1010
1000
1010
,
1000
0010
1000
0010
0100
0000
0000
0000
,
0001
0100
0001
0000
1000
0100
1000
0000
,
0001
0010
0001
0000
1000
0010
1000
0000
,
1001
0000
0000
0102
,
1003
0000
0000
0000
,
0001
1000
1001
1001
0000
0000
0000
0000
,
1000
0001
1000
0000
0001
1000
0001
0000
,
1000
0000
0001
0011
0000
0000
0000
0000
,
0001
1000
0001
0000
1000
0001
1000
0000
,
0001
0000
1000
1010
0000
0000
0000
0000
,
0010
0100
0010
0000
0100
0010
0100
0000
,
0110
0000
0110
1001
0000
0000
0000
1100
,
1100
0000
0000
0000
0000
0000
0000
0101
,
0101
0000
0000
0000
,
0010
0000
0000
0100
0000
0000
0010
0000
1001
0000
0000
0000
0000
0000
0000
0000
,
0001
0000
0001
0100
0001
0000
0010
0001
,
1000
0000
1000
0100
1000
0000
0010
1000
,
0001
1001
1000
1001
,
0100
0000
0000
0100
0000
0000
0100
0000
1001
0000
0000
0000
0000
0000
0000
0000
,
0001
0100
0101
0000
1000
0100
1100
0000
,
0010
0000
0000
1000
0000
0000
0001
0000
1001
0000
0000
0000
0000
0000
0000
0000
,
1000
0100
1100
0000
0001
0100
0101
0000
,
0010
0000
0000
0001
0000
0000
1000
0000
1001
0000
0000
0000
0012
0000
0000
0000
,
1003
0000
0000
0000
,
1000
0000
1000
0100
1000
0000
0010
1000
,
0001
0000
0001
0100
0001
0000
0010
0001
,
1000
1001
0001
1001
,
0010
0000
0000
0010
0000
0000
0010
0000
1001
0000
0000
0000
0000
0000
0000
0000
,
0001
0001
0001
0001
0000
0000
1000
1000
1000
1000
0000
0000
,
0001
0000
0000
1000
0000
0000
0001
0000
1001
0000
0000
0000
0000
0000
0000
0000
,
1000
1000
1000
1000
0000
0000
0001
0001
0001
0001
0000
0000
,
1000
0000
0000
0001
0000
0000
1000
0000
1001
0000
0000
0000
2010
0000
0000
0000
,
3001
0000
0000
0000
,
0001
0100
1000
0000
0001
0100
1000
0000
,
0001
0100
0000
0101
0000
1001
0000
0000
,
1000
0100
0001
0000
1000
0100
0001
0000
,
1000
0010
0000
1010
0000
1001
0000
0000
,
0001
0011
1000
1010
,
0001
0101
1000
1100
,
0001
0100
0011
0000
1000
0010
1100
0000
,
1001
0000
0000
1001
0000
0000
0110
0000
1001
0000
0000
0000
0110
0000
0000
0000
,
1001
0000
0000
0000
,
0110
1001
0110
1001
;

//---------------dance-single - ----------------
#NOTES:
     dance-single:
     :
     Challenge:
     9:
     0.493769,0.591316,0.922172,0.337895,0.102072,491.000000,360.000000,131.000000,48.000000,0.000000,0.000000,0.493769,0.591316,0.922172,0.337895,0.102072,491.000000,360.000000,131.000000,48.000000,0.000000,0.000000:
0000
0000
0000
0000
,
0001
0001
1000
1000
0001
0001
1000
1000
,
0001
0001
1000
1000
0001
0100
0101
0000
,
1000
1000
0001
0001
1000
1000
0001
0001
,
1000
1000
0001
0001
1000
0010
1010
0000
,
0001
1000
0010
0000
1000
0001
1001
0000
,
0001
1000
0001
1000
,
2002
3003
0000
0000
,
1000
1000
0001
0001
1000
1000
0001
0001
,
1000
1000
0001
0001
1000
0100
1100
0000
,
0001
0001
1000
1000
0001
0001
1000
1000
,
0001
0001
1000
1000
0001
0010
0011
0000
,
1000
0001
0100
0000
0001
1000
1001
0000
,
1000
0001
1000
0001
,
2002
3003
0000
0000
,
2002
3003
0000
0000
,
1000
1000
0100
0100
0010
0010
0001
0001
,
1000
1000
0100
0100
0010
0010
0001
0001
,
1000
0100
0010
0001
1000
0100
0010
0001
,
1000
0100
0010
0001
1000
0100
0110
0000
,
0001
0100
0010
1000
0001
0100
0010
1000
,
0001
0100
0010
1000
0001
0100
0110
0000
,
2002
3003
0000
1010
,
0202
0303
0000
0000
,
0001
0000
0011
0000
0001
0010
0011
0000
,
0001
1000
0001
0100
0202
0000
0303
0000
,
1000
0000
1010
0000
1000
0010
1010
0000
,
1000
0001
1000
0100
2200
0000
3300
0000
,
0001
1000
0010
1000
2020
0000
3030
0000
,
1000
0001
0010
0001
0022
0000
0033
0000
,
2002
3003
0000
0011
,
2200
3300
0000
0000
,
1100
1010
0101
0011
0000
0000
1001
0000
,
0001
0010
0000
0000
0001
0010
0000
0000
1000
0100
0000
0000
1000
0100
0000
0000
,
1001
0000
0001
0100
0000
0000
0000
0000
,
1000
0010
0000
0000
1000
0010
0000
0000
0001
0100
0000
0000
0001
0100
0000
0000
,
1001
0000
1000
0010
0000
0000
0000
0000
,
0001
0010
0000
0000
1000
0010
0000
0000
0001
0100
0000
0000
1000
0100
0000
0000
,
0010
0100
0000
0000
0010
0000
1001
0000
0000
0000
0000
0000
0000
0000
1100
0000
,
0022
0000
0033
0000
0000
0000
0000
0101
,
2020
3030
0000
0000
,
0110
0000
0000
1001
0000
0000
0110
0000
2002
0000
0000
0000
3003
0000
0000
0000
,
0001
0001
0101
0000
0001
0010
0011
0001
,
1000
1000
1100
0000
1000
0010
1010
1000
,
0001
1000
1001
0000
1000
0001
1001
0000
,
0110
0000
0000
1001
0000
0000
0110
0000
2002
0000
0000
0000
3003
0000
0000
0000
,
0001
0011
1001
0000
1000
1100
1001
0000
,
1100
0000
0000
1010
0000
0000
0101
0000
0022
0000
0000
0000
0033
0000
0000
0000
,
1000
1010
1001
0000
0001
0101
1001
0000
,
0101
0000
0000
0011
0000
0000
1100
0000
1010
0000
0000
0000
0110
0000
0000
0000
,
2002
3003
0000
0000
,
1000
1000
1100
0000
1000
0010
1010
1000
,
0001
0001
0101
0000
0001
0010
0011
0001
,
1000
0001
1001
0000
0001
1000
1001
0000
,
1001
0000
0000
0110
0000
0000
1001
0000
0220
0000
0000
0000
0330
0000
0000
0000
,
0001
0101
0001
0101
0000
0000
1000
1100
1000
1100
0000
0000
,
1010
0000
0000
1100
0000
0000
0011
0000
0101
0000
0000
0000
0000
0000
0000
0000
,
1000
1010
1000
1010
0000
0000
0001
0011
0001
0011
0000
0000
,
0011
0000
0000
0101
0000
0000
1010
0000
1100
0000
0000
0000
0110
0000
0000
0000
,
2002
3003
0000
0000
,
1000
1010
1000
1010
1000
1100
1000
1100
,
1000
1001
0000
0011
0000
0101
0000
0000
,
0001
0011
0001
0011
0001
0101
0001
0101
,
0001
1001
0000
1100
0000
1010
0000
0000
,
1000
0100
1001
0000
1000
0010
1001
0000
,
0001
0100
1001
0000
0001
0010
1001
0000
,
1100
1010
1001
0000
0101
0011
1001
0000
,
1010
0000
0000
0101
0000
0000
1100
0000
0011
0000
0000
0000
0110
0000
0000
0000
,
2002
3003
0000
0000
,
2200
0000
0000
3300
0022
0000
0000
0033
0220
0000
0000
0330
2002
0000
0000
0000
,
3003
0000
0000
0000
;

//---------------dance-single - ----------------
#NOTES:
     dance-single:
     :
     Beginner:
     2:
     0.160902,0.220952,0.063355,0.000000,0.000000,160.000000,151.000000,9.000000,0.000000,0.000000,0.000000,0.160902,0.220952,0.063355,0.000000,0.000000,160.000000,151.000000,9.000000,0.000000,0.000000,0.000000:
0000
0000
0000
0000
,
0001
0001
0001
0001
,
0001
0001
0001
0001
,
0001
0001
0001
0001
,
0001
0001
0001
0001
,
0001
0001
0001
0001
,
0000
0000
0000
0000
,
0001
0000
0000
0000
,
1000
1000
1000
1000
,
1000
1000
1000
1000
,
1000
1000
1000
1000
,
1000
1000
1000
1000
,
1000
1000
1000
1000
,
0000
0000
0000
0000
,
1000
0000
0000
0000
,
1001
0000
0000
0000
,
0010
0010
0010
0010
,
0010
0010
0010
0010
,
0010
0010
0010
0010
,
0010
0010
0010
0010
,
0010
0010
0010
0010
,
0000
0000
0000
0000
,
0010
0000
0000
0100
,
0100
0000
0000
0000
,
0000
0001
0000
0001
,
0000
0001
0000
0001
,
0000
1000
0000
1000
,
0000
1000
0000
1000
,
0000
0010
0000
0010
,
0000
0100
0000
0100
,
0100
0000
0000
0010
,
0010
0000
0000
0000
,
1001
1001
0000
0000
,
0001
0001
0000
0000
,
0001
0001
0000
0000
,
1000
1000
0000
0000
,
1000
1000
0000
0000
,
0010
0010
0000
0000
,
0010
0010
0000
0000
,
0110
0000
0000
0000
,
0110
0000
0000
0000
,
0010
0000
0010
0000
,
0000
0010
0000
0010
,
0000
0000
0010
0000
,
0000
0100
0000
0100
,
0000
0000
0100
0000
,
0001
0000
0001
0000
,
0001
0001
0001
0000
,
1000
0000
1000
0000
,
1000
1000
1000
0000
,
1001
0000
0000
0000
,
0000
0100
0000
0100
,
0000
0000
0100
0000
,
0000
0010
0000
0010
,
0000
0000
0010
0000
,
1000
0000
1000
0000
,
1000
1000
1000
0000
,
0001
0000
0001
0000
,
0001
0001
0001
0000
,
1001
0000
0000
0000
,
0000
0000
0000
0000
,
0001
0001
0001
0000
,
0000
0000
0000
0000
,
1000
1000
1000
0000
,
0000
0010
0000
0010
,
0000
0100
0000
0100
,
0000
0001
0000
1000
,
0000
0000
1001
0000
,
1001
0000
0000
0000
,
0010
0010
0010
0010
;

//---------------dance-double - ----------------
#NOTES:
     dance-double:
     :
     Easy:
     4:
     0.237331,0.343702,0.267500,0.028158,0.000000,236.000000,198.000000,38.000000,4.000000,0.000000,0.000000,0.237331,0.343702,0.267500,0.028158,0.000000,236.000000,198.000000,38.000000,4.000000,0.000000,0.000000:
// measure 0
00000000
00000000
00000000
00000000
,  // measure 1
00001000
00010000
00001000
00010000
,  // measure 2
00001000
00010000
00001000
00010100
,  // measure 3
00010000
00001000
00010000
00001000
,  // measure 4
00010000
00001000
00010000
01001000
,  // measure 5
00001000
00010100
00010000
01001000
,  // measure 6
00000000
00000000
00000000
00000000
,  // measure 7
00011000
00000000
00000000
00000000
,  // measure 8
00010000
00001000
00010000
00001000
,  // measure 9
00010000
00001000
00010000
00101000
,  // measure 10
00001000
00010000
00001000
00010000
,  // measure 11
00001000
00010000
00001000
00010010
,  // measure 12
00010000
00101000
00001000
00010010
,  // measure 13
00000000
00000000
00000000
00000000
,  // measure 14
00011000
00000000
00000000
00000000
,  // measure 15
00011000
00000000
00000000
00000000
,  // measure 16
00001000
00010000
00001000
00010000
,  // measure 17
00000100
00000010
00000100
00000000
,  // measure 18
00010000
00001000
00010000
00001000
,  // measure 19
01000000
00100000
01000000
00000000
,  // measure 20
00001000
00010000
00001000
00010000
,  // measure 21
00000000
00000000
00000000
00000000
,  // measure 22
00011000
00000000
00000000
01000000
,  // measure 23
10010000
00000000
00000000
00000000
,  // measure 24
01000000
00100000
01000000
00100000
,  // measure 25
00010000
00001000
00000100
00000000
,  // measure 26
00000010
00000100
00000010
00000100
,  // measure 27
00001000
00010000
01000000
00000000
,  // measure 28
00010000
00001000
01000000
00000000
,  // measure 29
00001000
00010000
00000100
00000000
,  // measure 30
00011000
00000000
00000000
00000100
,  // measure 31
00001001
00000000
00000000
00000000
,  // measure 32
00000020
00000000
00000000
00000130
00000000
00000000
00000000
00000000
,  // measure 33
00000001
00000100
00000001
00000100
,  // measure 34
00000010
00000000
00000000
00011000
00000000
00000000
00000000
00000000
,  // measure 35
10000000
01000000
10000000
01000000
,  // measure 36
00100000
00000000
00000000
00011000
00000000
00000000
00000000
00000000
,  // measure 37
00001000
00010000
00001000
00010000
,  // measure 38
00000000
00000000
00000000
00011000
00000000
00000000
00000000
00001000
,  // measure 39
00001000
00000000
00000000
00000000
00000000
00000000
00000000
00010000
,  // measure 40
00010000
00000000
00000000
00000000
,  // measure 41
00000020
00000000
00000130
00000000
,  // measure 42
00000001
00000100
00000001
00000100
,  // measure 43
00001000
00010000
01000000
10000000
,  // measure 44
01000000
10000000
01000000
00010000
,  // measure 45
00001000
00010000
00011000
00000000
,  // measure 46
00000100
00000010
00000100
00001000
,  // measure 47
00010000
00000000
00011000
00000000
,  // measure 48
01000000
00100000
01000000
00010000
,  // measure 49
00001000
00000000
00011000
00000000
,  // measure 50
00011000
00000000
00000000
00000000
,  // measure 51
10000000
01000000
00010000
00000000
,  // measure 52
00001000
00000100
00000001
00000000
,  // measure 53
00000001
00000010
00001000
00000000
,  // measure 54
00010000
00100000
10000000
00000000
,  // measure 55
01010000
00011000
00001100
00011000
,  // measure 56
00001000
00010000
00011000
00000000
,  // measure 57
00010010
00011000
00101000
00000000
,  // measure 58
00010000
00001000
00011000
00000000
,  // measure 59
10010000
00000000
00000000
00000000
,  // measure 60
00100000
00100000
00010000
00010000
,  // measure 61
02000000
00000000
00000000
03100000
00000000
00000000
00000000
00000000
,  // measure 62
00100000
00100000
10000000
10000000
,  // measure 63
02000000
00000000
00000000
03100000
00001000
00000000
01000000
00000000
,  // measure 64
00001000
00010000
00010000
00000100
,  // measure 65
00010000
00001000
00000000
01001000
,  // measure 66
00000000
00010100
00000010
00000100
,  // measure 67
00000110
00000110
00001001
00000000
,  // measure 68
00000010
00000000
00000000
00000000
,  // measure 69
00001000
00000001
00000010
00001001
;
