#TITLE:Protogent Rap;
#SUBTITLE:;
#ARTIST:Unistal Global;
#TITLETRANSLIT:;
#SUBTITLETRANSLIT:;
#ARTISTTRANSLIT:;
#GENRE:;
#CREDIT:8Chasey;
#MUSIC:Protogent Rap.ogg;
#BANNER:;
#BACKGROUND:;
#CDTITLE:;
#SAMPLESTART:52.94;
#SAMPLELENGTH:12;
#SELECTABLE:YES;
#OFFSET:-0.168;
#BPMS:0.000=100.000;
#STOPS:;
#BGCHANGES:;
#FGCHANGES:;

//--------------- dance-single - ----------------
#NOTES:
     dance-single:
     :
     Beginner:
     1:
     0,0,0,0,0:
0000
0000
0000
0000
,
0000
0000
0000
0000
,
0000
0000
0000
0000
,
0000
0000
0000
0000
,
1000
0000
1000
0000
,
0001
0000
0001
0000
,
1000
0000
0001
0000
,
1001
0000
0000
0000
,
0001
0001
0000
1000
,
1000
0000
0010
0010
,
0000
0000
0000
0000
,
0000
0000
0000
0000
,
0100
0100
0100
0000
,
0000
0100
0000
0100
,
0000
0000
0001
0001
,
0000
0000
1000
1000
,
0000
0010
0000
0010
,
0000
0100
0000
0100
,
0000
0000
0001
0001
,
0000
0000
1000
1000
,
0000
0000
0000
0000
,
0000
0000
0000
0000
,
0001
0000
1000
0000
,
0001
0000
1000
0000
,
0100
0000
0100
0000
,
0010
0000
0010
0000
,
1001
0000
0000
0000
,
0100
0000
0000
0000
,
0010
0000
0010
0000
,
0000
0000
0100
0000
,
0100
0000
0001
0000
,
0000
0000
0000
0000
,
0010
0010
0010
0000
,
0000
0010
0000
0010
,
0000
0000
1000
0000
,
0000
0000
0001
0000
,
0100
0100
0000
0000
,
0010
0000
0100
0000
,
0010
0010
0000
0000
,
0100
0000
0010
0000
,
0000
0000
0000
0000
,
0000
0000
0000
0000
,
0110
0000
0000
0000
,
0010
0000
0100
0000
,
0001
0001
0001
0000
,
1000
1000
1000
0000
,
0001
0000
1000
0000
,
0001
0000
0000
0000
,
1000
0000
0000
0000
,
1000
0000
0000
0000
,
0010
0000
0100
0000
,
0010
0000
0010
0000
,
1001
0000
0000
0000
,
0000
0000
0000
0110
;

//--------------- dance-single - ----------------
#NOTES:
     dance-single:
     :
     Easy:
     3:
     0,0,0,0,0:
0000
0000
0000
0000
,
0000
0000
0000
0000
,
0001
0100
0010
0000
,
1000
0010
1000
0000
,
0100
0100
0100
0000
,
0010
0001
1000
0000
,
0001
1000
0001
0000
,
1100
0101
1001
0000
,
0001
0000
0001
0001
0000
0000
1000
0000
,
1000
1000
0000
0010
0000
0010
0000
0000
,
0100
0001
0000
0001
,
0100
0010
0000
1000
,
0001
1000
0001
0000
1000
0000
0000
0000
,
0100
0010
0000
0110
,
0010
0001
0000
0010
0001
0000
0010
0000
0000
0000
0000
0000
,
0100
1000
0001
0000
0100
0000
0000
0000
,
0010
1000
0010
0010
,
0100
0001
0100
0100
,
0001
0000
1000
0000
,
0001
1000
0000
1001
,
0000
1000
0010
1000
,
0000
0001
0000
0100
,
0010
0100
0010
0000
,
0100
0100
0000
0110
,
0001
1000
0001
1000
,
0100
0100
0010
0010
,
1001
0000
0000
0000
0100
0100
0100
0000
,
0010
0100
0000
0000
,
0001
0000
1000
0000
,
0010
1000
0010
0000
,
0100
0000
0000
0100
0000
0000
0001
0000
0000
0000
0000
0000
1000
0000
0000
0000
,
0001
0000
1000
0000
,
0001
1000
0001
0000
1000
0000
0000
0000
,
0010
0100
0000
0110
,
0010
1000
0010
0000
,
0100
0001
1001
0000
,
1000
0010
0000
0000
,
0100
0001
0100
0000
,
0001
0000
0000
0001
0000
0000
0001
0000
0000
0000
0000
0000
0000
0000
0000
0000
,
1000
0001
0110
0000
,
0100
0001
0100
0001
,
1000
0010
1000
0010
,
0100
0100
0100
0000
,
0010
1000
0000
1100
,
0000
1000
0001
0000
,
0001
1000
0001
0000
,
1000
1000
0010
0000
,
0100
0100
0001
0000
,
1000
0001
0000
0000
,
0110
1001
0000
0000
,
0001
0010
0001
0000
,
1000
0001
1000
0001
,
1001
0000
0000
0000
,
0000
0100
0000
0110
;

//--------------- dance-single - ----------------
#NOTES:
     dance-single:
     :
     Medium:
     5:
     0,0,0,0,0:
0000
0000
0000
0000
,
0000
0000
0000
0000
,
0001
1000
0001
0000
1000
0000
0100
0000
,
1000
1000
0010
0000
1000
0001
1000
0000
,
0001
0010
0100
0000
0010
0000
0100
0000
,
1000
0100
0001
0100
1000
0000
0001
0000
,
0100
0000
0010
0000
0100
0001
1000
0000
,
0010
0010
0100
0000
1001
0000
0000
0000
,
1000
0010
1000
1000
0000
0001
0100
0001
,
0001
0000
0100
0000
0010
1000
0001
0000
,
0100
0100
0001
0000
1000
0000
0010
0000
,
0100
0100
0010
0000
1000
0000
0001
0000
,
1000
0100
1000
0100
1100
0000
0000
0000
,
1000
0010
0100
0000
0001
0010
0011
0000
,
0010
0000
0001
0000
0000
0000
0100
0000
0001
0000
0000
0000
1000
0000
0000
0100
0000
0000
1000
0000
0000
0000
0000
0000
,
0010
1000
0001
0000
0100
0000
0001
0000
,
1000
0100
0010
0000
0001
0010
0100
0000
,
1000
0000
0001
0000
0100
0010
0100
0000
,
0001
0100
0100
0000
0001
1000
0010
0100
,
0000
0010
1000
1000
0000
0100
0010
0100
,
0000
0000
0011
0000
0001
1000
0001
0000
,
1000
0000
1010
0000
1000
0001
1000
0000
,
0100
0000
0010
0000
0100
0100
0000
0000
,
0001
1000
0100
0010
0000
0000
0110
0000
,
0001
1000
0001
1000
0100
0100
0010
0010
,
0001
0000
1000
0000
0010
0100
0010
0000
,
1001
0000
0000
0000
0000
0000
0000
0000
0100
0010
0100
0010
0000
0000
0000
0000
,
0100
0001
0010
0000
0000
0000
0000
0000
,
0100
1000
0000
0000
0011
0000
1001
0000
,
0010
1000
0100
0000
1000
0001
1000
0010
,
0100
0000
0000
0100
0000
0000
0001
0000
0000
0000
0000
0000
0010
0000
0000
0000
,
0100
1000
0100
0000
1000
0001
1000
0000
,
0001
0100
0001
0100
0101
0000
0000
0000
,
0001
0010
0100
0000
1000
0010
1010
0000
,
0010
0100
0001
0000
1000
0001
0000
0000
,
1000
0100
0010
0000
0001
1000
0000
0000
,
0010
0110
0000
0100
,
0001
0100
1000
0000
0100
0010
0100
0000
,
0010
0000
0000
0010
0000
0000
0010
0000
0000
0000
0100
0000
0010
0000
0000
0000
,
0100
0001
0100
0000
1100
0000
0000
0000
,
1000
0010
1000
0000
0001
0000
0010
0000
,
0001
0100
0010
1000
0100
0000
0010
0000
,
0001
0000
1000
0000
0010
0100
0010
0000
,
0100
0001
1000
0100
0000
0000
1100
0000
,
1001
0000
0001
0010
0100
0000
0000
0000
,
0010
0001
1000
0000
0010
0000
0100
0000
,
0001
0100
0001
0000
1000
0000
0000
0010
,
1000
0100
1000
0000
0001
0000
0100
0000
,
0010
0100
1001
0000
0000
0000
0000
0000
,
0001
1000
0001
0000
0000
0000
1000
0000
,
0100
1000
0001
0000
0010
0001
0000
0010
,
0001
0000
0100
0000
0010
0100
0010
0000
,
1001
0000
0000
0000
,
1000
0010
0100
0001
0000
0010
0110
0000
;

//--------------- dance-single - ----------------
#NOTES:
     dance-single:
     :
     Hard:
     8:
     0,0,0,0,0:
0000
0000
0000
0000
,
0000
0000
0000
0000
,
0001
0000
1000
0000
0001
0000
0000
0000
1000
0100
0000
0000
0010
0000
0100
0000
,
1000
1000
0001
0001
0100
0110
0000
0010
,
1000
0010
0010
1000
0001
0101
0000
0001
,
1000
0100
0001
0100
1000
1100
0000
0000
,
0010
0000
0010
0000
0100
0000
0100
0000
0010
0000
0100
0000
0001
1000
0001
0000
,
1000
1000
0010
0100
0001
1001
0000
1000
,
0010
1000
0000
0010
1000
0000
0001
0000
0000
0000
0100
0010
0000
0110
0000
0000
,
0010
0010
0000
0000
1000
0000
0001
1000
0000
0000
0001
0000
0100
0001
0100
0001
,
0100
0000
0010
0000
1000
0000
0000
0001
0000
0000
1000
0000
0001
0000
0000
0010
,
0001
0000
0010
0000
0100
0000
0000
1000
0000
0000
0100
0000
1000
0000
0000
0000
,
0001
1000
0001
1000
0001
1000
0001
1000
0001
0000
0000
0000
1000
0000
0010
0000
,
1000
0000
1000
0000
0100
0000
0000
0010
0000
0001
0100
0000
0001
0000
0000
1000
,
0001
0000
0000
0000
0010
0000
0000
0000
0001
0000
0000
0000
1000
0000
0000
0000
0100
0000
0000
0000
1000
0000
0000
0000
0010
0000
0000
0000
0000
0000
0100
0000
0000
0000
0000
0000
0010
0000
0000
0000
0000
0000
0100
0000
0000
0001
0000
0000
,
0100
0000
0100
0000
0010
0000
0000
1000
0010
0000
1000
0000
0100
0000
0000
0000
,
1001
0000
1001
0000
0001
0010
0001
0000
0100
0000
0100
0000
0001
0000
1000
0100
,
1000
0000
0010
0000
0100
0000
0001
0100
1000
0000
0100
0000
0110
0000
0000
0000
,
0010
0000
1000
0001
1000
0000
0001
0100
0000
0001
1000
0000
0010
0100
0010
0000
,
1000
0000
1000
0000
0001
0000
0101
0000
0000
0100
0010
0000
1010
0000
1001
0000
,
0001
0000
0010
0000
0001
0000
0000
1000
0000
0000
0001
0000
1000
0000
0000
0000
,
0100
0000
1000
0000
1100
0000
0000
1000
0000
0000
0010
0000
1000
0000
0001
0000
,
0100
0000
1001
0000
0001
1000
1001
0000
,
0010
0000
1000
0000
0100
0000
0001
0100
0000
0000
0000
0000
0110
0000
0000
0000
,
0100
1000
0100
0000
1000
0001
1001
0000
,
0010
0000
0001
0000
1000
0000
0100
1000
0010
0000
0100
0000
1001
0000
0000
0000
,
0101
0000
0000
0000
0010
0000
0000
0000
1000
0001
1000
0001
0000
0000
1000
0000
,
0010
0000
0000
0100
0010
0000
0100
0000
0000
0000
0000
0000
0000
0000
0001
0000
,
1000
0000
0110
0000
0000
0000
0000
0000
1001
0000
0000
0000
0001
1000
0001
0000
,
1000
0000
0010
0100
0010
0000
0100
0001
0100
0000
0000
0000
0001
0000
1000
0000
,
0010
0000
0100
0001
0000
0000
1100
0000
0000
0000
0000
0000
0110
0000
0000
0010
,
0100
0000
0100
0000
0001
0000
0000
1000
0000
0000
0100
0000
1000
0000
0001
0000
,
1000
0001
1000
0001
1000
0001
1000
0001
1000
0000
0000
0101
0000
0000
0001
0000
,
0010
0000
0001
0000
1000
0000
0100
1000
0000
0000
0000
0000
0101
0000
0000
0000
,
0001
0010
0000
0001
1000
0000
0000
0000
0100
0000
1100
0000
1000
0000
0000
0000
,
0010
1000
0000
0010
0100
0000
0001
0000
1000
0000
1001
0000
0000
0000
0000
0000
,
0001
0000
1000
0000
0011
0000
0000
0000
0000
0000
1000
0000
0100
0000
1000
0001
,
1000
0001
0010
0001
0100
0110
0000
0000
,
0010
0000
1000
0010
0000
0100
0001
0000
1000
0000
0100
0000
0010
0000
0100
1000
,
0100
1000
0001
0000
0101
0101
0000
0000
,
0100
0000
0010
0000
1000
0000
0010
1000
0000
0010
1000
0000
0001
0000
1000
0000
,
0100
0000
0010
0000
0001
0000
0010
0001
0000
0010
0001
0000
1000
0000
0001
0000
,
0100
0010
0110
0000
0010
1000
0100
0001
,
0100
0000
0000
0010
0000
0000
0100
0000
0000
0000
0000
0000
0010
0000
0000
0000
0001
0000
0000
0000
0010
0000
0000
0000
0000
0000
0000
0000
0000
0000
0000
0000
0000
0000
0000
0000
1100
0000
0000
0000
0000
0000
0000
0000
0000
0000
0000
0000
,
0001
0000
1000
0000
0010
0000
0100
0000
0101
0000
0000
0000
0000
0000
1000
0001
,
1000
0010
1000
0000
1100
0000
0000
0000
,
0010
0000
0000
0001
1000
0000
0100
1000
0000
0100
1000
0000
0010
1000
0010
0000
,
0100
0000
0001
0000
1001
0000
1000
0010
0100
0000
0000
0000
0101
0000
0000
0000
,
0001
1000
0000
0001
1000
0000
0000
0000
0000
0000
0000
0000
0010
1000
0010
0000
,
1000
0000
0001
0000
0100
0000
0001
1000
0000
0000
0100
0000
1100
0000
0000
0000
,
1000
0010
1000
0000
0010
0000
0100
0001
0100
0000
0001
0000
1000
0001
1000
0000
,
0001
1000
0100
0010
0110
1001
0000
0000
,
1000
0000
0001
0000
0011
1100
0000
1000
,
0010
0000
0100
0000
0001
1000
0001
1000
0000
0000
0010
0000
1001
0000
0000
0000
;

//--------------- dance-double - ----------------
#NOTES:
     dance-double:
     :
     Easy:
     2:
     0,0,0,0,0:
00000000
00000000
00000000
00000000
,
00000000
00000000
00000000
00000000
,
00001000
00000000
00000100
00000000
,
00000010
00000100
00000010
00000000
,
00000001
00000000
00000100
00000000
,
00001000
00010000
00001000
00000000
,
00100000
01000000
00100000
00000000
,
00010000
10000000
10010000
00000000
,
01000000
00001000
00000000
00010000
,
00000100
00000000
00000010
00000000
,
00000100
00001000
00000000
00001000
,
00000001
00000100
00000000
00000100
,
00000010
00000100
00000110
00000000
,
00000010
00001000
00000000
00001010
,
00000100
00000001
00001000
00000000
,
00000100
00010000
00001000
00000000
,
00100000
00010000
00100000
00010000
,
10000000
01000000
10000000
10010000
,
00000000
00100000
01000000
00010000
,
00000000
00100000
01000000
10000000
,
00000000
00010000
00000000
01000000
,
00000000
00001000
00000000
00010000
,
00001000
00010000
00011000
00000000
,
00000100
00010000
00001000
00100000
,
00010000
00010000
10000000
10000000
,
01000000
00100000
01000000
00100000
,
10010000
00000000
00000000
00000000
00100000
00100000
00100000
00000000
,
00001000
00010000
00000000
00000000
,
00000100
00000000
00000010
00000000
,
00000001
00001000
00000010
00000000
,
00000100
00000000
00000000
00000100
00000000
00000000
00000001
00000000
00000000
00000000
00000000
00000000
00000000
00000000
00000000
00000000
,
00000000
00000000
00000000
00000000
,
01000000
00100000
01100000
00000000
,
01000000
00010000
00000000
01010000
,
00000000
10000000
01000000
10000000
,
00000000
00010000
00100000
00010000
,
01000000
01000000
00000000
00001000
,
00010000
00000000
00011000
00000000
,
00010000
00000000
00000000
00010000
00000000
00000000
00010000
00000000
00000000
00000000
00000000
00000000
00000000
00000000
00000000
00000000
,
00000100
00000010
00001001
00000000
,
00000001
00000100
00000001
00000100
,
00001000
00010000
00001000
00010000
,
00100000
01000000
01100000
00000000
,
00010000
10000000
00000000
10010000
,
10000000
00010000
01000000
00000000
,
00001000
00010000
00001000
00000000
,
00010000
00000100
00010000
00000000
,
00000010
00000100
00000010
00000000
,
00001000
00000001
00000000
00000000
,
00000100
00000010
00000000
00000000
,
00001000
00000010
00000100
00000000
,
00001001
00000000
00000000
00000000
,
00011000
00000000
00000000
00000000
,
00000000
00000000
00000000
01100000
;
