#TITLE:Potty Mouth;
#SUBTITLE:(Chadtronic Remix);
#ARTIST:CG5;
#TITLETRANSLIT:;
#SUBTITLETRANSLIT:;
#ARTISTTRANSLIT:;
#GENRE:Trap;
#CREDIT:8Chasey 2025;
#MUSIC:Potty Mouth (Chadtronic Remix).ogg;
#BANNER:Potty Mouth (Chadtronic Remix)-bn.png;
#BACKGROUND:Potty Mouth (Chadtronic Remix)-bg.png;
#CDTITLE:;
#SAMPLESTART:60.170;
#SAMPLELENGTH:12.000;
#SELECTABLE:YES;
#OFFSET:-2.570;
#BPMS:0.000=100.000;
#STOPS:;
#BGCHANGES:-0.250=Potty Mouth (Chadtronic Remix).avi=1.000=1=0=0=StretchNoLoop==CrossFade==,
228.250=Potty Mouth (Chadtronic Remix)-bg.png=1.000=0=0=0=StretchNoLoop====,
99999.000=-nosongbg-=1.000=0=0=0=StretchNoLoop====
;
#FGCHANGES:;

//--------------- dance-single - 8Chasey ----------------
#NOTES:
     dance-single:
     8Chasey:
     Beginner:
     1:
     0,0,0,0,0:
0000
0000
0000
0000
,
0000
0000
0000
0000
,
0000
0000
0000
0000
,
0000
0000
0000
0000
,
1000
0000
0000
0001
,
0001
0000
0000
0000
,
0001
0000
0000
1000
,
1000
0000
0000
0000
,
0010
0000
0000
0100
,
0100
0000
0000
0000
,
0100
0000
0000
0010
,
0010
0000
0000
0000
,
1000
0000
0000
0000
,
0001
0000
0000
0000
,
1000
0000
0001
0000
,
1000
0000
0001
0001
,
0000
1000
1000
0000
,
0001
0000
1000
1000
,
0000
0001
0001
0000
,
1000
0000
0001
0001
,
0000
0100
0100
0000
,
0010
0000
0100
0100
,
0000
0010
0010
0000
,
0100
0000
0010
0010
,
0000
1000
0000
1000
,
0000
0001
0000
0001
,
0000
0100
0000
0100
,
0000
0010
0000
0010
,
0000
1000
1000
0000
,
0001
0000
1000
1000
,
0000
0001
0001
0000
,
1000
0000
0001
0001
,
0001
0000
0000
0000
,
0001
0000
0000
0000
,
1000
0000
0000
0000
,
1000
0000
0000
0000
,
0010
0000
0010
0000
,
0100
0000
0100
0000
,
0010
0000
0010
0000
,
0100
0000
0000
0000
,
0001
0000
0000
0001
,
0001
0000
0000
0000
,
1000
0000
0000
1000
,
1000
0000
0000
0000
,
0010
0000
0000
0100
,
0100
0000
0000
0000
,
0010
0000
0000
0100
,
0100
0000
0000
0000
,
0010
0010
0000
1000
,
0000
1000
0000
0001
,
0000
0001
0000
0100
,
0000
0100
0000
0010
,
0000
0010
0010
0000
,
0100
0000
0010
0010
,
0000
1000
1000
0000
,
0001
0000
0100
0000
,
1001
0000
0000
0000
;

//--------------- dance-single - 8Chasey ----------------
#NOTES:
     dance-single:
     8Chasey:
     Easy:
     3:
     0,0,0,0,0:
0000
0000
0000
0000
,
0000
0000
0000
0000
,
0000
0000
0000
0000
,
0000
0000
0000
0000
,
1001
0000
0001
1000
,
0001
0001
0000
0000
0000
0000
1000
0000
,
1001
0000
1000
0001
,
1000
1000
0000
0000
0000
0000
0010
0000
,
0110
0000
0100
0010
,
0100
0100
0000
0000
0000
0000
0010
0000
,
0110
0000
0010
0100
,
0010
0010
0000
0000
0000
0000
1000
0000
,
1001
0000
0001
0000
,
1000
0000
0100
0000
,
0010
0010
0100
0100
,
1000
0001
1000
0001
,
1001
0000
1000
0000
,
0010
0010
1000
0000
,
0100
0000
0001
0000
,
0100
0100
0001
0000
,
1000
0100
1000
0000
,
0001
0000
0100
0100
,
0001
0010
0001
0000
,
0100
0010
0100
0000
,
1001
0001
0001
0001
,
1001
1000
0010
0010
,
0110
0100
0100
0100
,
0110
0010
0010
0010
,
1000
0100
1000
0001
,
0100
0100
0000
0100
,
0001
0010
0001
1000
,
0100
0100
0000
0010
,
0100
0000
0000
1000
,
0100
0000
0000
1000
,
0001
0000
0000
0001
,
0100
0000
0000
0001
,
1000
0000
0010
0100
,
0010
0000
0100
0001
,
0100
0000
0001
1000
,
1001
0000
0000
0000
,
0010
0000
1000
0100
,
1000
1000
0000
0000
0000
0000
0100
0000
,
0010
0000
0001
0100
,
0001
0001
0000
0000
0000
0000
1000
0000
,
0010
0000
0100
0001
,
0100
0100
0000
0000
0000
0000
0001
0000
,
0010
0000
0100
1000
,
0100
0100
0000
0000
1000
0000
0000
0000
,
1001
0010
0010
0010
,
0110
0100
0001
0001
,
1001
1000
1000
1000
,
0110
0001
0001
0001
,
0100
0001
0100
0010
,
1000
1000
0000
1001
,
0100
1000
0100
0010
,
0001
0001
0000
1000
,
1001
0000
0000
0000
;

//--------------- dance-single - 8Chasey ----------------
#NOTES:
     dance-single:
     8Chasey:
     Medium:
     5:
     0,0,0,0,0:
0000
0000
0000
0000
,
0000
0000
0000
0000
,
0000
0000
0000
0000
,
0000
0000
0000
0000
,
1001
0000
0001
1000
0010
1000
0100
0000
,
0010
0010
0100
0010
0000
0001
0100
0010
,
0110
0000
0100
0001
1000
0100
1000
0000
,
0010
0010
1000
0100
0000
1000
0100
0010
,
0110
0000
0100
1000
0001
0100
0010
0000
,
0100
0100
0001
0100
1000
0100
0010
0010
,
1010
0000
0011
0001
1000
0100
0010
0000
,
0100
0100
1000
0001
0000
0100
0010
0100
,
0001
0100
1000
0010
,
0100
0001
0100
0000
0001
0000
1000
0000
,
0100
1000
0100
0000
0010
0001
0010
0000
,
0100
0010
0100
0000
1000
0000
1001
0000
,
0001
0000
0100
0100
0001
0000
1000
1000
,
0001
0000
0000
0010
0001
0010
0001
0000
0000
1001
0000
0000
,
1000
0000
0010
0010
1000
0000
0001
0001
,
1000
0000
0000
0100
1000
0100
1000
0000
0000
0010
0000
0000
,
0110
0000
0100
0001
0100
0000
0010
1000
,
0010
0000
0000
0100
0010
0100
0010
0000
0000
1001
0000
0000
,
0001
0010
0001
0001
1000
0100
1000
1000
,
0010
0000
0100
0000
0010
0000
0000
0010
,
1000
1000
0000
0100
0000
1000
0001
1000
,
0001
0001
0000
0010
0000
0001
1000
0001
,
0010
0010
0000
0100
0000
1000
0000
0001
,
0100
0100
0000
0001
0000
1000
0010
1000
,
0010
0000
0100
0010
0100
0000
0001
1000
,
0001
0000
0000
0100
0010
0100
0010
0000
0000
0110
0000
0000
,
0100
0001
0100
0001
1000
0000
0100
1000
,
0100
1000
0001
0000
0100
0000
0010
0000
,
1000
1000
0100
0000
0000
1000
0001
0000
,
0100
0010
0100
0000
0001
0010
0000
0010
,
0001
0001
0100
0000
0000
0001
1000
0000
,
0010
0100
0010
0000
0100
0010
0000
0010
,
1000
0000
0100
0000
1000
0001
1000
0000
,
0001
0000
0100
0000
0001
1000
0001
0000
,
0100
0010
0100
0000
0001
0000
1001
0000
,
1000
0110
0000
0000
,
0001
0100
0000
0000
0001
0000
0000
0000
1000
0000
0000
0000
0100
0000
0000
0000
,
1000
0010
1000
0000
0010
0100
0010
0000
,
1000
0100
0000
0000
1000
0000
0000
0000
0001
0000
0000
0000
0100
0000
0000
0000
,
0001
0010
0001
0000
0100
0010
0100
0000
,
0010
1000
0000
0000
0010
0000
0000
0000
0100
0000
0000
0000
0001
0000
0000
0000
,
1000
0100
1000
0000
0001
0010
0001
0000
,
0100
0001
0100
0001
1000
0100
1000
0100
,
0110
0000
0000
0000
,
0001
0100
0000
0001
0000
0001
0010
0001
,
1000
0100
0000
1000
0000
0010
0100
0100
,
0001
0010
0000
0001
0000
0001
0100
0001
,
1000
0100
0000
1000
0010
0100
0010
0000
,
0110
0000
0100
0100
0001
0000
0100
0010
,
1000
0000
0000
0001
1000
0001
1000
0000
0000
1001
0000
0000
,
0001
0010
0001
0000
1000
0100
1000
0000
,
0010
0000
0000
0100
0000
0000
0001
0000
1000
0000
0001
0000
1000
0000
0000
0000
0000
0000
0001
0000
0000
0000
0000
0000
,
1001
0000
0000
0000
;

//--------------- dance-single - 8Chasey ----------------
#NOTES:
     dance-single:
     8Chasey:
     Hard:
     9:
     0,0,0,0,0:
0000
0000
0000
0000
,
0000
0000
0000
0000
,
0000
0000
0000
0000
,
0000
0000
0000
0000
,
0001
0100
0000
0000
1100
0000
1000
0010
1000
0000
0001
0000
0101
0000
0000
0100
,
0010
0000
0110
0000
0100
0000
0001
0000
1000
0000
0100
1000
0000
0001
1000
0000
,
1001
0000
0001
0000
0100
0000
0010
1000
0010
0000
1000
0000
1100
0000
0000
1000
,
0001
0000
1001
0000
1000
0100
1000
0000
0001
0000
0100
0010
0000
0100
0010
0000
,
0101
0000
0001
0000
1000
0010
1000
0000
0100
0000
1000
0000
1010
0000
0000
1000
,
0001
0000
0011
0000
0010
0100
0010
0000
0100
0000
1000
0100
0000
0100
0010
0000
,
0110
0000
0100
0000
1000
0100
1000
0000
0001
0100
0010
0000
1010
0000
1000
0001
,
0010
0000
0011
0000
0010
0100
0010
0000
0001
0001
1000
0100
0000
1000
0001
0000
,
1001
1001
1000
0000
0010
1000
0001
0100
,
0110
0000
0110
0000
0010
0000
1000
0000
0100
0000
1000
0001
0000
0001
1000
0000
,
1001
0000
0001
0000
0100
0010
0100
0000
0010
0000
0010
0000
1000
0001
1000
0000
,
0100
1000
0100
1000
0001
0000
0100
0000
0010
0100
0000
0100
0010
0000
0000
0000
,
1001
0000
0001
0100
0001
0000
0010
0000
0010
0000
0100
1000
0001
0000
0100
0000
,
0110
0000
0000
0010
0000
0000
1000
0000
0100
0000
1000
0000
0001
0000
0000
0100
0000
0000
0101
0000
0000
0000
0000
0000
,
1100
0000
1000
0010
1000
0000
0001
0000
0100
0000
0010
0100
0001
0000
1000
0000
,
1001
0000
0000
0000
0000
0000
1000
0000
0000
0000
0000
0000
0001
0000
0000
0000
0100
0000
0000
0000
0001
0000
0000
0000
1000
0000
0000
0000
0000
0000
0100
0000
0000
0010
0000
0000
0000
0000
0000
0100
0000
0000
0010
0000
0000
0000
0000
0000
,
0110
0000
0100
1000
0100
0000
0100
0000
1000
0000
0001
0100
0010
0000
0100
0000
,
0110
0000
0000
0000
0000
0000
0010
0000
0000
0000
0000
0000
1000
0000
0000
0000
0100
0000
0000
0000
0001
0000
0000
0000
0010
0000
0000
0000
0000
0000
0100
0000
0000
0010
0000
0000
1001
0000
0000
0000
0000
0000
1000
0000
0000
0000
0000
0000
,
0001
0000
0110
0000
1001
0000
1000
0000
0001
0000
0100
0010
0100
0000
0010
0100
,
0010
0000
0000
1000
0000
0000
0100
0000
1000
0000
0001
0000
0100
0000
0000
0010
0000
0000
0110
0000
0000
0000
0000
0000
,
1001
0000
0001
0000
0000
1000
0100
1000
0000
0001
0100
0001
0000
1000
0100
1000
,
0010
0000
0110
0000
0000
0100
0010
0100
0000
0001
0100
0010
0000
0010
1000
0000
,
1001
0000
1000
0000
0001
0000
0010
0001
0000
0100
0001
0100
0000
0010
1000
0010
,
0100
0000
0110
0000
0000
0010
0100
0000
0001
0000
0100
0001
0000
1000
0001
0000
,
1001
0000
1000
0010
1000
0000
0010
0000
0100
0000
0001
0010
0001
0000
0100
0000
,
0010
0000
0000
0010
0000
0000
0100
0000
0001
0000
0100
0000
0001
0000
0000
0010
0000
0000
1100
0000
0000
0000
0000
0000
,
1001
0000
0001
0100
0001
0000
1000
0000
1000
0000
0010
1000
0010
0000
0100
0000
,
0010
0000
0000
0010
0000
0000
1000
0000
0100
0000
1000
0000
0001
0000
0000
0100
0000
0000
0110
0000
0000
0010
0000
0000
,
1000
0000
1000
0000
0100
0000
0000
0010
0100
0000
1000
0000
0001
0000
0100
0000
,
0001
0000
0001
0000
0010
0000
0100
0000
0010
0000
0100
1000
0000
0100
1000
0000
,
0100
0000
0100
0000
1000
0000
0001
0000
0100
0001
0100
0000
0001
0000
1000
0000
,
0010
0000
0010
0000
0100
0000
0010
0000
1000
0000
0001
1000
0000
0001
1000
0000
,
0001
0000
0001
0000
0100
0000
0001
0000
0010
0001
0010
0000
0001
0000
0000
0000
,
1000
0000
1000
0000
0100
0000
1000
0000
0010
0000
1000
0100
0000
1000
0001
0000
,
0100
0001
0100
0000
0001
0000
0010
0000
0001
0100
0001
0000
1000
0000
0010
0000
,
0200
0020
0000
0330
,
1001
0000
0001
0000
1000
0000
0100
1000
0010
0000
0100
0000
0101
0000
0001
0000
,
1001
0000
1000
0000
0010
0000
0100
0001
0100
0000
0010
0100
0000
0010
0100
0000
,
0110
0000
0010
0000
1000
0000
0100
1000
0001
0000
1000
0000
1010
0000
0010
0000
,
0110
0000
0100
0000
0001
0010
0001
0000
1000
0000
0100
1000
0000
0001
0100
0000
,
0101
0000
0100
0000
0010
0000
1000
0100
1000
0000
0001
0000
1001
0000
1000
0000
,
1100
0000
0100
0000
0010
0000
0001
0010
0001
0000
0100
0001
0000
1000
0010
0000
,
1010
0000
0011
0000
0010
0001
0010
0000
0001
0100
0001
0000
0101
0000
0100
0000
,
0010
1000
0020
0000
0000
0100
0000
0000
0200
0000
0000
0000
0330
0000
0000
0000
,
0110
0000
1001
0000
0000
1000
0100
1000
0000
0001
0010
0001
0000
0100
0010
0100
,
0010
0000
0110
0000
0000
0100
0001
0100
0001
0000
1000
0100
0000
1000
0100
0000
,
1100
0000
0101
0000
0001
0000
1000
0100
0000
0010
0100
0010
0000
0100
0010
0100
,
0010
0000
0110
0000
0000
0100
1000
0000
0001
0000
0100
0001
0000
0001
0100
0000
,
0110
0000
0010
1000
0010
0000
1000
0000
1000
0000
0100
0010
0100
0000
0010
0000
,
0001
0000
0000
0000
0000
0000
0100
0000
0000
0000
0000
0000
0001
0000
0000
0000
0100
0000
0000
0000
1000
0000
0000
0000
0010
0000
0000
0000
0000
0000
0010
0000
0000
0100
0000
0000
1001
0000
0000
0000
0000
0000
0000
0000
0000
0000
0000
0000
,
0110
0000
0010
1000
0010
0000
1000
0000
0100
0000
0010
0001
0010
0000
0001
0000
,
0100
0000
0000
0000
0000
0000
0001
0000
0000
0000
0000
0000
1000
0000
0000
0000
1000
0000
0000
0000
0001
0000
0000
0000
0001
0000
0000
0000
0000
0000
0100
0000
0000
0000
0000
0000
0010
0000
0000
1000
0000
0000
0001
0000
0000
0000
0000
0000
,
2002
0000
0000
0000
,
0000
0000
3003
0000
;

//--------------- dance-double - 8Chasey ----------------
#NOTES:
     dance-double:
     8Chasey:
     Easy:
     3:
     0,0,0,0,0:
00000000
00000000
00000000
00000000
,
00000000
00000000
00000000
00000000
,
00000000
00000000
00000000
00000000
,
00000000
00000000
00000000
00000000
,
00011000
00001000
01000000
00010000
,
01000000
01000000
00000000
00000000
00000000
00000000
00001000
00000000
,
00011000
00010000
00000100
00001000
,
00000100
00000100
00000000
00000000
00000000
00000000
00010000
00000000
,
00011000
00100000
00010000
00100000
,
01000000
01000000
00000000
00000000
10000000
00000000
00010000
00000000
,
10010000
00010000
01000000
00100000
,
01000000
01000000
00000000
00000000
00100000
00000000
01100000
00000000
,
01000000
00010000
00000000
00010000
,
00100000
00001000
00000000
00001000
,
00010000
00000100
00010000
00000100
,
00000010
00000001
00001000
00001001
,
00000001
00000100
00001000
00000000
,
00010000
00000000
00001000
00000000
,
00100000
00010000
10000000
01000000
,
00010000
00000000
00001000
00000000
,
00100000
00010000
01000000
00001000
,
00010000
00000000
00000100
00000000
,
00000010
00000001
00000100
00001000
,
00010000
00000000
00001000
00000000
,
00100000
00010000
00000000
00010000
,
01000000
10000000
00000000
10000000
,
01000000
00001000
00000000
00001000
,
00010000
00000100
00000000
00000100
,
00000010
00000001
00000010
00000000
,
00000100
00001000
00000100
00000000
,
00010000
00001000
00010000
00000000
,
00001000
00010000
00001000
00000000
,
00100000
00000000
00000000
00010000
,
01000000
00000000
00000000
00000000
00000000
00100000
00000000
00000000
,
00100000
00000000
00000000
10000000
,
01000000
00000000
00000000
00000000
00000000
00010000
00000000
00000000
,
00001000
00010000
00000000
00010000
,
00000100
00000010
00000000
00000010
,
00000001
00000100
00000000
00001000
,
00011000
00000000
00000000
00000000
,
00100000
00001000
00100000
00000000
,
00010000
00000000
00000000
00000000
,
01000000
00100000
01000000
00000000
,
00100000
00000000
00000000
00000000
,
10000000
01000000
10000000
00000000
,
01000000
00000000
00010000
00000000
,
00001000
00010000
00001000
00010000
,
00000100
00000000
00000010
00000000
,
00000001
00000100
00000000
00000001
,
00001000
00000010
00000000
00001000
,
00000100
00010000
00000000
00001000
,
00100000
00001000
00000000
00100000
,
01000000
01000000
10000000
10000000
,
00010000
10000000
00010000
00000000
,
01000000
01000000
00001000
00001000
,
00010000
00000100
00010000
00000000
,
00011000
00000000
00000000
00000000
;
