#TITLE:Polkamania!;
#SUBTITLE:;
#ARTIST:"Weird Al" Yankovic;
#TITLETRANSLIT:;
#SUBTITLETRANSLIT:;
#ARTISTTRANSLIT:;
#GENRE:;
#CREDIT:8Chasey;
#MUSIC:Polkamania!.ogg;
#BANNER:;
#BACKGROUND:;
#CDTITLE:;
#SAMPLESTART:37.83;
#SAMPLELENGTH:12;
#SELECTABLE:YES;
#OFFSET:-0.005;
#BPMS:0.000=151.000
,2.000=146.000
,4.000=151.000
,18.000=145.000
,19.000=151.000
,38.000=141.000
,41.000=161.800
,95.000=150.000
,97.000=155.000
,113.000=161.000
,120.000=162.000
,132.000=158.000
,133.000=151.000
,134.000=147.000
,135.000=143.000
,136.000=130.000
,136.500=105.000
,137.000=98.000
,138.000=108.000
,141.000=105.000
,143.000=107.000
,144.000=116.000
,145.000=110.000
,146.000=108.000
,152.000=109.000
,158.000=110.000
,160.000=111.000
,168.000=112.000
,171.000=114.000
,172.000=119.000
,174.000=118.000
,192.000=119.000
,204.000=130.000
,207.000=122.000
,208.000=131.000
,210.000=127.000
,220.000=125.000
,228.000=130.000
,236.000=140.000
,237.000=150.000
,238.000=153.000
,270.000=156.000
,274.000=153.000
,277.000=155.000
,283.000=174.000
,288.000=180.000
,291.000=173.000
,294.000=168.000
,303.000=172.000
,311.000=115.000
,312.000=102.000
,313.000=166.000
;
#STOPS:18.000=0.373
,32.000=0.397
,40.000=0.426
,143.000=0.570
,220.000=0.930
,273.000=0.385
,276.000=0.392
,279.000=0.387
,313.000=0.542
;
#BGCHANGES:;
#FGCHANGES:;

//--------------- dance-single - 8Chasey ----------------
#NOTES:
     dance-single:
     8Chasey:
     Hard:
     9:
     0,0,0,0,0:
0000
0000
0000
0000
,
1001
0000
0101
0000
1000
0100
0010
0000
,
0110
0000
1100
0000
0001
0010
0001
0000
,
1010
0000
0011
0000
0100
0001
1000
0000
,
0010
0100
0010
0000
1001
0000
0010
0001
,
0100
0000
0001
1000
0001
1000
0010
1000
,
0100
0000
1000
0001
1000
0001
0100
0000
,
1010
0000
1000
0100
0010
0000
0011
0000
,
1001
0000
0001
1000
0200
0000
0000
0000
,
0000
0000
0020
0000
,
0330
0000
1001
0000
0001
0100
0001
0000
,
1000
0020
0000
2030
0000
0000
0001
0000
,
3100
0000
1000
0000
0100
0010
0001
0000
,
0100
0002
0000
1003
1000
0001
0001
0000
,
0110
0000
1001
0000
1000
0010
1000
0000
,
0001
0020
0000
0032
0000
0000
0100
0000
,
2003
0000
3010
0100
0001
0000
0010
0000
,
0100
1000
0010
0000
0100
0000
0010
1000
,
0001
0100
0001
0000
1000
0000
0100
0010
,
0000
0011
0000
1001
0000
0000
1000
0100
,
0010
0020
0001
0100
,
0031
1000
0200
0000
0000
0000
1300
0001
,
0100
0000
0010
0100
0000
0001
0100
1000
,
0100
0000
0010
0000
0000
0000
1000
0001
1000
0000
0001
0000
1001
0000
0000
0000
,
0000
0000
0000
0000
0010
0000
0001
0000
0100
0000
0002
0000
0000
0003
1000
0010
,
1000
0100
1000
0010
0010
2000
0000
3100
,
0010
0001
0100
0010
1000
0100
0000
1000
,
0020
0230
0001
0020
,
0330
0000
1000
0020
0000
1030
1010
0000
,
0100
0000
0001
0200
0000
0301
0101
0000
,
1001
0000
1000
0100
0010
0000
0100
0000
,
0010
0001
0100
0000
0010
0000
0110
0000
,
1001
0000
0001
0001
0010
0001
0010
0010
,
0100
0010
0100
0100
1000
0100
1000
1000
,
0001
1000
0002
0000
0100
0000
0100
0000
,
1003
0001
0000
0000
2000
0000
0000
0100
0000
0000
0100
0000
3010
0000
0000
0000
,
0100
0000
0001
0000
0100
0000
0010
0000
1000
0010
1000
0000
0100
0000
1000
0000
,
0010
0000
2000
0000
0010
0000
3010
0100
0010
0000
0100
0000
0202
0000
0303
0000
,
0001
0000
0010
0000
0001
0000
0100
0000
0010
0100
0010
0000
1000
0000
1000
0000
,
0001
0010
0002
0000
1003
0100
2000
0000
3010
0000
0100
0000
1001
0000
0000
0000
,
0001
0010
0001
0100
0001
0000
1000
0000
0010
0000
2000
0000
0000
0000
0100
0000
,
0000
3001
0100
0010
1000
0100
2200
3300
,
1000
0010
1000
0100
1000
0000
0010
0000
0100
0000
0002
0000
0000
0000
0010
0000
,
0013
0000
0001
0000
0100
0000
0010
0000
1010
0000
0000
0000
0000
0000
1000
0001
,
1000
0000
0001
0010
0000
0000
0001
0000
0100
0000
0001
1000
0001
0000
1000
0000
,
0020
0000
0000
0000
0130
0001
0100
0001
0100
0000
0001
1000
0001
0000
1000
0000
,
1001
0000
1000
0010
1000
0000
0100
0000
2000
0000
0010
0000
3010
0000
0100
0000
,
0002
0000
1003
0010
1000
0100
0020
0000
,
0230
1000
0320
0001
0032
0010
2003
0100
,
3000
0000
0100
1000
0001
0000
0100
0000
0001
0000
0010
0000
0100
0000
0100
0000
,
0020
0001
0230
1000
2300
0010
3002
0100
,
1003
0000
0010
1000
0010
0000
0200
0000
0002
0000
0000
0000
0303
0000
0000
0000
,
0100
0010
1000
0100
1000
0001
0100
0001
,
0010
0100
0010
0001
1000
0100
0010
0100
,
0010
0100
1000
0010
0000
0100
0010
0000
1000
0000
0100
0010
0000
0000
0001
0000
,
0022
0000
0033
0000
0101
0000
0000
0000
0010
1000
0010
1000
0010
0000
0100
0001
,
0100
0001
0100
0000
0010
0100
0010
0000
2000
0000
0000
3100
0000
1000
0100
0000
,
0020
0000
0031
0000
0100
0000
0001
0000
0101
0000
0000
0101
0000
0000
1010
0000
,
0000
0000
0000
1010
0000
0000
0000
0000
0000
0000
0000
0000
1100
0000
0000
0000
0000
0000
0000
0000
0000
0000
0000
0000
0010
0000
0000
0000
0001
0000
0000
0000
0010
0000
0000
0000
0100
0000
0000
0000
1000
0000
0000
0000
0100
0000
0000
0000
,
0020
0000
0130
0000
1000
0010
0100
0001
,
0100
0100
0001
0100
0000
0020
2000
0030
,
0002
0000
3003
0000
0010
0001
0010
0001
0010
0000
0100
0000
1000
0000
0001
0000
,
0100
0000
0010
1000
0010
0000
0100
0000
0000
0000
0020
0000
2000
0000
0030
0000
,
0002
0000
3003
0000
1000
0010
1000
0010
1000
0000
0100
0000
0100
0000
1000
0000
,
1001
0000
0100
0001
0000
0020
0032
0000
,
2000
0000
3003
0000
0100
1000
0100
0000
1100
0000
0000
0000
0011
0000
0000
0000
,
1100
0000
0000
0000
0001
0000
0100
0000
0010
0000
1000
0010
2000
0000
0000
0000
,
0002
0000
3000
0000
0103
0000
0000
0001
0010
0000
0000
0000
0100
0000
1000
0000
,
0001
0000
0000
0000
2002
3003
0000
0000
0001
0000
0010
0000
0100
0000
0000
0000
,
0220
0330
0000
0000
0100
0000
1000
0000
0001
0000
0000
0000
2002
3003
0000
1000
,
0100
1000
0010
0100
0001
0000
0020
0000
,
0001
0100
0032
0100
,
2003
0000
3020
0000
0230
0000
0302
0010
,
0000
0010
0000
0103
0010
0010
2000
0100
,
0000
0100
0000
3010
0100
0001
0020
0100
,
0000
0001
0000
0130
1000
0010
0200
0010
,
0000
0000
1000
0000
0000
0000
0310
0000
0100
0000
0001
0000
0010
0001
0010
0000
,
0100
0000
1000
0000
0010
1000
0000
0010
1000
0000
0100
0000
1000
0010
0000
1010
,
0000
0100
0001
0000
0101
0000
0000
0000
2002
0000
0000
0000
0000
0000
0000
0000
,
0000
0000
0000
0000
,
0000
0000
3003
0000
;
