#TITLE:POKEMON MASTERS ARE BROKE;
#SUBTITLE:(Funny Mix Chart);
#ARTIST:MATPAT;
#TITLETRANSLIT:;
#SUBTITLETRANSLIT:;
#ARTISTTRANSLIT:;
#GENRE:;
#CREDIT:;
#MUSIC:POKEMON MASTERS ARE BROKE.ogg;
#BANNER:POKEMON MASTERS ARE BROKE.png;
#BACKGROUND:bg.png;
#CDTITLE:;
#SAMPLESTART:74.51;
#SAMPLELENGTH:12;
#SELECTABLE:YES;
#OFFSET:-1.577;
#BPMS:0.000=102.000;
#STOPS:;
#BGCHANGES:;
#FGCHANGES:;

//--------------- dance-single - ----------------
#NOTES:
     dance-single:
     :
     Beginner:
     1:
     0,0,0,0,0:
0000
0000
0000
0000
,
0000
0000
0000
0000
,
0000
0000
0000
0000
,
0000
0000
0000
0000
,
0000
0000
0000
0000
,
0001
0000
0001
0000
,
0001
0000
0000
0000
,
1000
0000
1000
0000
,
1000
0000
0000
0000
,
0001
0000
1000
0000
,
0001
0000
1000
0000
,
0010
0000
0010
0000
,
0010
0000
0000
0000
,
0100
0000
0000
0000
,
0100
0000
0000
0000
,
0010
0000
0000
0000
,
0100
0100
0100
0000
,
0000
0000
0000
0000
,
1000
0000
0000
0000
,
1000
0000
0000
0000
,
0001
0000
0000
0000
,
0001
0000
0000
0000
,
0010
0000
0000
0000
,
0100
0000
0000
0000
,
0100
0000
0100
0000
,
0010
0000
0010
0000
,
0001
0000
0001
0000
,
0001
0000
0000
0000
,
1000
0000
1000
0000
,
1000
0000
0000
0000
,
1001
0000
0000
0000
,
0100
0000
0100
0000
,
0001
0001
0001
0000
,
0100
0000
0100
0000
,
1000
1000
1000
0000
,
0010
0000
0000
0000
,
0110
0000
0000
0000
,
0100
0000
0000
0000
,
0100
0000
0100
0000
,
1001
0000
0000
0000
;

//--------------- dance-single - ----------------
#NOTES:
     dance-single:
     :
     Easy:
     3:
     0,0,0,0,0:
0000
0000
0000
0000
,
0000
0000
0000
0000
,
0000
0000
0000
0000
,
0000
0000
0000
0000
,
0000
0000
0000
0000
,
0001
0001
0100
0010
,
1001
0000
1001
0000
,
1000
1000
0100
0010
,
0001
1000
0001
0000
,
1000
0001
1000
0000
,
0100
0100
0110
0000
,
0010
0001
0010
1000
,
0000
0100
1001
0000
,
1000
0100
0100
0000
,
0010
0001
1000
0000
,
0001
0100
0100
0000
,
0001
0001
1000
1000
,
1001
0100
0100
0100
,
0010
0000
1001
0000
,
0100
0000
0100
0000
,
0001
0000
0010
0000
,
1000
0000
0100
0000
,
1000
1000
0010
0010
,
0001
0001
1001
0000
,
0100
0001
0010
0000
,
0100
1000
0010
0000
,
1000
1100
1000
1100
,
0001
0101
0001
0101
,
1000
1010
0001
0011
,
1001
0000
0100
0000
,
0010
1000
0001
0010
,
0100
0100
1000
0000
,
0010
0010
0100
0000
,
0001
0001
0010
0000
,
0100
0100
0001
0000
,
0000
1000
0000
1000
,
0000
0100
0000
0100
,
0000
0001
0000
0001
,
0100
0100
0100
0100
,
1001
0000
0000
0000
;

//--------------- dance-single - ----------------
#NOTES:
     dance-single:
     :
     Medium:
     5:
     0,0,0,0,0:
0000
0000
0000
0000
,
0000
0000
0000
0000
,
0000
0000
0000
0000
,
0000
0000
0000
0000
,
0000
0000
0000
0000
,
0001
0010
0001
0000
1000
0000
0100
0000
,
1000
0100
1000
0000
0010
0100
0010
0000
,
1010
1000
0001
0101
,
0001
1000
0100
0000
0010
0100
0010
0001
,
1000
0000
0010
0100
0001
0000
0010
0100
,
1000
0110
0101
0000
,
0010
1000
0010
0000
0100
0000
0001
1000
,
0100
0010
0000
0010
0001
0000
1000
0000
,
0110
0000
0001
0010
0001
0000
1000
0000
,
1100
0000
0010
0001
1000
0000
0000
0000
,
0101
0000
1000
0010
0100
0001
1000
0000
,
1001
0110
1001
0110
,
1000
0010
0001
0010
1000
0010
0001
0000
,
0100
0000
0000
0101
0000
0000
0000
0000
,
0001
0000
0000
1010
0000
0000
0000
0000
,
1000
0100
0000
0001
0100
0000
0010
0000
,
1001
1001
0100
0000
,
0010
1000
0010
0000
0001
0000
1100
0000
,
0010
0001
0010
0000
0101
0000
0000
0000
,
0010
0010
0010
0000
1000
0001
0000
0000
,
1001
0101
1100
0010
,
0100
0010
0001
0000
0100
0010
0001
0000
,
0100
0010
1000
0000
0100
0010
1000
0000
,
0010
0100
0010
0000
0100
0010
0100
0000
,
0110
0000
0000
0001
0001
1000
1000
0000
,
0010
0001
0010
1000
0010
0100
0010
0000
,
0011
0000
0001
0010
0100
0000
0000
0000
,
1010
0000
1000
0010
0100
0000
0000
0000
,
0001
0001
0010
0010
,
1000
1000
0100
0100
,
1000
0010
0100
0000
0100
0000
0100
0000
,
0001
0010
0100
0000
0100
0000
0100
0000
,
1000
1100
0101
0001
,
0110
0000
0110
0000
1000
0001
0010
0000
,
1001
0000
0000
0000
;

//--------------- dance-single - ----------------
#NOTES:
     dance-single:
     :
     Hard:
     8:
     0,0,0,0,0:
0000
0000
0000
0000
,
0000
0000
0000
0000
,
0000
0000
0000
0000
,
0000
0000
0000
0000
,
0000
0000
0000
0000
,
0001
0000
0100
0001
0000
0000
1000
0010
0000
0000
1100
0000
1000
0000
0001
0000
,
1000
0000
0010
1000
0000
0010
1000
0000
0001
0000
0010
0001
0000
0010
0001
0000
,
1000
0000
0010
0000
0100
0001
0100
0001
0000
0000
0010
0000
0100
0000
0000
0000
,
1000
0000
1000
0000
0001
0000
0010
0100
0000
0010
0000
0000
0110
0000
0100
0000
,
1000
0000
1100
1000
0001
0000
0101
0010
,
1000
0000
0010
0000
0100
0000
0001
1000
0100
0000
0100
0000
0100
0000
0000
0000
,
1000
0010
1000
0000
0001
0000
0100
0001
0000
0000
0010
0100
1000
0000
0100
1000
,
0001
0000
0101
0000
0010
0000
0100
0000
1100
0000
0000
1000
0010
0000
0000
0000
,
0010
1000
0010
1000
0000
0001
0010
0001
0000
0000
0000
0000
0100
0000
0000
0000
,
1001
0000
0000
0000
1000
0001
0000
0001
0000
0000
0000
0100
0010
0000
1000
0000
,
0001
0010
0001
0010
0000
0100
1000
0010
0000
0000
1000
0000
0010
0000
0100
0000
,
0011
0000
0000
0000
1010
0000
0000
0000
1000
0010
0000
0001
0000
0000
0010
0000
,
0100
0001
0000
1000
0100
0000
0010
0100
0000
1000
0001
0000
0100
0000
0010
0000
,
0010
1000
0000
0100
0000
0100
0000
0000
0000
0000
0000
0000
0000
0000
1000
0000
,
0001
0000
0100
0001
0000
0010
0100
0000
0000
0000
0000
0000
0010
0001
0010
0001
,
1000
0000
0000
0001
0000
0000
1010
0000
0000
1000
0000
0000
0011
0000
0001
0100
,
0000
0001
1000
0100
0010
0000
0100
0010
0001
0000
1000
0000
1001
0000
0001
0000
,
0100
0000
0010
1000
0000
0001
0010
0000
0100
0000
1000
0000
0100
0000
0001
0000
,
0100
0000
0100
0000
0010
0000
0001
1000
0000
0000
0100
0000
1100
0000
0100
0000
,
0010
0001
0010
0000
0001
1000
0010
0100
0000
0100
0000
0100
0001
0000
1000
0000
,
0100
0000
0010
0000
1000
0000
0010
0000
0001
1000
0001
1000
0000
0000
0000
0000
,
1010
0000
1000
0001
0000
0010
0000
0000
0110
0000
0010
0001
0000
0000
0000
0000
,
1000
0000
0001
1000
0000
0000
0000
0000
0001
0010
0000
0010
0000
0000
0000
0000
,
0011
0000
0001
1000
0000
0000
0000
0000
0100
0000
0010
1000
0000
0000
0000
0000
,
0010
0001
0000
0000
1000
0000
0010
0000
0100
0001
1000
0001
0100
0000
0100
0000
,
0010
1000
0010
1000
0010
0100
0001
0100
0000
0001
0100
0000
1001
0000
0100
0000
,
0100
0001
1000
0010
0000
0000
0010
1000
0000
0000
0100
0000
0010
0000
0010
0000
,
0011
0000
0000
0000
0001
1000
0000
0100
0010
0000
0100
0000
1000
0010
0100
0001
,
0010
0000
0001
0010
0000
0100
0010
0100
0000
1000
0001
0000
1000
0010
0100
0000
,
0110
0000
0000
0000
1100
0000
1000
0000
0010
0100
0000
1000
0000
0000
0100
0000
,
0001
0010
0100
0010
0001
1000
0100
0010
,
1001
0000
0000
0000
1000
0010
0000
0100
0000
0000
0001
0000
0001
0000
0001
0000
,
0011
0010
0100
1000
0001
0100
0010
1000
,
1000
0010
0000
0000
0001
0010
0000
0000
0001
1000
0100
0010
0000
0000
0110
0000
,
1001
0000
0000
0000
;

//--------------- dance-solo - ----------------
#NOTES:
     dance-solo:
     :
     Easy:
     4:
     0,0,0,0,0:
000000
000000
000000
000000
,
000000
000000
000000
000000
,
000000
000000
000000
000000
,
000000
000000
000000
000000
,
000000
000000
000000
000000
,
000001
000100
000010
000110
,
100000
000100
100000
010100
,
100000
000001
001000
000010
,
010000
001000
100000
000001
,
001000
000001
010000
000000
,
001000
100000
000010
000000
,
100000
100000
000001
000001
,
000000
010000
000010
000000
,
100000
100000
000001
000000
,
010000
000001
001000
000000
,
000100
000100
100000
000000
,
000010
100000
001000
000100
,
100001
000010
010000
000010
,
010000
000000
001100
000000
,
000010
001000
000010
000000
,
100000
000000
000001
000000
,
010000
001000
010000
000000
,
100000
010000
000001
000010
,
001000
000100
000100
000000
,
001000
000010
010000
000100
,
010010
101000
001001
000000
,
100000
100100
100000
100100
,
000001
000101
000001
000101
,
000010
001010
010000
011000
,
100001
000000
001000
000100
,
100000
001000
000001
001000
,
010000
000100
010000
000000
,
000010
100000
000010
000000
,
001000
001000
000100
000100
,
001000
100000
000001
100001
,
000000
010000
000000
010000
,
000000
000001
000000
000001
,
000000
000010
000000
000010
,
001000
001000
100000
100000
,
010010
000000
000000
000000
;
