#TITLE:Phineas and Ferb Theme Song;
#SUBTITLE:;
#ARTIST:Disney Channel;
#TITLETRANSLIT:;
#SUBTITLETRANSLIT:;
#ARTISTTRANSLIT:;
#GENRE:;
#CREDIT:8Chasey 2025;
#MUSIC:Phineas and Ferb Theme Song.ogg;
#BANNER:;
#BACKGROUND:;
#CDTITLE:;
#SAMPLESTART:12.25;
#SAMPLELENGTH:12;
#SELECTABLE:YES;
#OFFSET:-0.700;
#BPMS:0.000=164.000
,4.000=166.000
,8.000=176.000
,16.000=166.000
,20.000=170.000
,24.000=166.000
,28.000=175.000
,32.000=176.000
,36.000=180.200
;
#STOPS:;
#DISPLAYBPM:180;
#BGCHANGES:-1.000=Phineas and Ferb Theme Song.avi=1.000=0=0=0=StretchNoLoop==CrossFade==,
164.000=Phineas and Ferb Theme Song-bg.png=1.000=0=0=0=====,
99999.000=-nosongbg-=1.000=0=0=0=StretchNoLoop====
;
#FGCHANGES:;

//--------------- dance-single - 8Chasey ----------------
#NOTES:
     dance-single:
     8Chasey:
     Beginner:
     2:
     0,0,0,0,0:
0000
0000
0000
0000
,
0000
0000
0000
0000
,
0000
0000
0000
0000
,
0000
0000
0000
0000
,
0001
0000
0000
0000
,
1000
0000
0000
0000
,
0010
0000
0000
0000
,
0100
0000
0000
0000
,
0000
0000
0000
0000
,
0000
0000
0001
0000
,
0000
0000
0001
0000
,
0000
0000
1000
0000
,
0000
0000
1000
0000
,
0000
0000
0010
0000
,
0000
0000
0100
0000
,
0010
0000
0100
0000
,
0010
0000
0000
0000
,
0000
0001
0000
0001
,
0000
1000
0000
1000
,
0000
0001
0000
0001
,
0001
0000
0000
0000
,
0000
1000
0000
1000
,
0000
0001
0000
0001
,
0000
1000
0000
1000
,
1000
0000
0010
0000
,
0100
0000
0000
0000
,
0010
0000
0000
0000
,
1000
0000
1000
0000
,
1000
0000
0000
0000
,
0010
0000
0000
0000
,
0100
0000
0000
0000
,
0001
0000
0001
0000
,
0001
0000
0000
0000
,
1000
0000
0000
0000
,
0001
0000
0000
0000
,
0100
0000
0010
0000
,
0100
0000
0010
0000
,
0000
0000
0000
0000
,
0000
0000
0000
0000
,
0000
0000
0000
0000
,
1001
0000
0000
0000
;

//--------------- dance-single - 8Chasey ----------------
#NOTES:
     dance-single:
     8Chasey:
     Easy:
     3:
     0,0,0,0,0:
0000
0000
0000
0000
,
0000
0000
0000
0000
,
0000
0000
0000
0000
,
0000
0000
0000
0000
,
0002
0000
0013
0000
,
2000
0000
3100
0000
,
0020
0000
0130
0000
,
2002
0000
0000
0000
,
3003
0000
0000
0000
,
0001
0000
0001
0000
,
1000
0001
1000
0000
,
0010
0000
1000
0000
,
0020
0000
0030
0000
,
1000
0000
1000
0000
,
0001
1000
0001
0000
,
0100
0000
0001
0000
,
0200
0000
0310
0000
,
1000
0000
0001
0001
,
0100
0000
0010
0010
,
1000
0000
0100
0000
,
2000
0000
3000
0000
,
0001
0000
1000
1000
,
0010
0000
0100
0100
,
0001
0000
1000
0000
,
0002
0000
0003
0000
,
0010
0000
0001
0000
,
1000
0010
1000
0000
,
0100
0000
1000
0000
,
0002
0000
0013
0000
,
0001
0100
0001
0000
,
1000
0010
1000
0000
,
0100
0000
0010
0000
,
0200
0000
0300
0000
,
0010
0010
0100
0100
,
1000
0001
1000
0001
,
0200
0300
0020
0030
,
1000
0001
1000
0000
,
0000
0000
0000
0000
,
0000
0000
0000
0000
,
0000
0000
0000
0000
,
1001
0000
0000
0000
;

//--------------- dance-single - 8Chasey ----------------
#NOTES:
     dance-single:
     8Chasey:
     Medium:
     4:
     0,0,0,0,0:
0000
0000
0000
0000
,
0000
0000
0000
0000
,
0000
0000
0000
0000
,
0000
0000
0000
0000
,
0001
0000
0000
1000
0000
0010
0000
0000
,
1000
0000
0100
1000
0000
0001
0000
0000
,
0100
0000
0010
0100
0000
0010
0000
0000
,
0200
0000
0000
0000
,
0300
0000
0000
0000
0000
0000
0000
1001
,
0000
0001
0100
0001
,
1000
0000
1000
0000
0010
0000
1000
0100
,
1000
0000
0010
0000
0100
0000
0010
0100
,
0000
0010
0100
0000
0001
0000
0100
0000
,
0001
0000
0010
0000
0001
0000
0000
1000
,
0000
0010
1000
0000
0001
0000
0100
0000
,
0001
0010
0001
1000
,
0010
0110
1001
0110
,
0020
1000
0100
1030
,
0200
0001
0010
0301
,
0100
0000
0001
1000
0001
0000
0010
0000
,
0200
0000
1300
0000
,
0002
0010
1000
0103
,
2000
0010
0001
3100
,
0010
0000
0001
1000
0001
0000
0100
0000
,
0002
0000
2000
3003
,
0100
0000
1000
0000
0100
0000
0000
1000
,
0010
0000
1000
0000
0100
0000
0000
1000
,
0001
0000
0010
0000
0001
0000
0000
0100
,
0001
1000
0010
0100
,
0002
0100
0103
0001
,
1000
0010
1000
0100
,
1000
0100
0000
0000
0001
0100
0000
0000
,
0020
0000
0000
0200
0000
0000
0330
0000
,
1000
1000
0001
0001
,
1000
0001
1000
0000
0010
0000
0100
0000
,
0001
0010
0100
1000
,
0001
1000
0010
0000
,
0000
0000
0000
0000
,
0000
0000
0000
0000
,
0000
0000
0000
0000
,
1001
0000
0000
0000
;

//--------------- dance-single - 8Chasey ----------------
#NOTES:
     dance-single:
     8Chasey:
     Hard:
     8:
     0,0,0,0,0:
0000
0000
0000
0000
,
0000
0000
0000
0000
,
0000
0000
0000
0000
,
0000
0000
0000
0000
,
0001
0010
0001
2000
0000
0100
0000
3100
,
1000
0010
1000
0002
0000
0100
0000
0103
,
0010
0000
1000
0010
0000
1000
0001
0000
,
0021
0000
0200
0000
,
0330
0000
1000
0000
0001
0000
0100
0010
,
0000
0100
0001
0000
2100
0000
3001
0000
,
0010
0001
0010
0001
0000
1000
0000
0100
,
1000
0000
0100
0000
0010
0100
0000
1000
,
0010
1000
0001
0001
0100
0000
0010
0100
,
0001
0000
0100
0001
0000
1001
0000
1000
,
0010
1000
0001
0100
0000
0000
0110
0000
,
0010
1000
0010
0000
1000
0100
1000
0000
,
0001
0101
1010
1100
,
0110
0000
0010
0001
0010
1000
0010
0000
,
0100
1000
0100
0001
0100
0010
0100
0000
,
1000
0010
1000
0001
0000
0010
0001
0000
,
0101
0000
1000
0010
1000
0000
0100
0000
,
0010
0001
1000
0100
1000
0001
0100
0000
,
0010
1000
0010
0100
0001
1000
0001
0000
,
1001
0000
1000
0010
0000
0100
0001
0000
,
0100
0010
2010
3002
,
0103
0000
0001
0010
0001
0000
1000
0010
,
0000
1000
0100
1000
0001
0000
0010
0000
,
0001
1000
0001
0000
1000
0010
0000
0010
,
0000
0100
0001
0000
0100
0000
0110
0000
,
0010
1000
0001
1000
0010
0000
1010
0000
,
1000
0001
0010
0000
0001
0000
0100
0000
,
0001
0100
0001
0000
1000
0010
1000
0000
,
0010
0000
1000
0001
1000
0000
1001
0000
,
0010
0001
1000
0010
1000
0000
1010
0000
,
0101
0000
0001
1000
0100
0000
1100
0000
,
0011
0000
0010
0000
0001
0100
0001
0000
,
1000
0010
1000
0001
0010
0000
0000
0000
,
0000
0000
0000
0000
,
0000
0000
0000
0000
,
0000
0000
0000
0000
,
1001
0000
0000
0000
;
