#TITLE:Percy's Seaside Trip;
#SUBTITLE:;
#ARTIST:Mike O'Donnell and Junior Campbell;
#TITLETRANSLIT:;
#SUBTITLETRANSLIT:;
#ARTISTTRANSLIT:;
#GENRE:;
#CREDIT:;
#MUSIC:Percy's Seaside Trip.ogg;
#BANNER:Percy's Seaside Trip.png;
#BACKGROUND:Percy's Seaside Trip-bg.png;
#CDTITLE:;
#SAMPLESTART:48.000;
#SAMPLELENGTH:12.000;
#SELECTABLE:YES;
#OFFSET:-1.420;
#BPMS:0.000=103.000;
#STOPS:;
#BGCHANGES:;
#FGCHANGES:;

//--------------- dance-single - ----------------
#NOTES:
     dance-single:
     :
     Easy:
     3:
     0,0,0,0,0:
0000
0000
0000
0000
,
0000
0000
0000
0000
,
0000
0000
0000
0000
,
0000
0000
0000
0000
,
0001
0000
1000
0000
,
1000
0000
0001
0000
,
0100
0000
0010
0000
,
1000
0001
1000
0000
,
0100
0000
0100
0000
,
1000
0000
0001
0000
,
0010
0000
0100
0000
,
0010
0010
1001
0000
,
0001
0000
0100
0000
,
1000
0000
0010
0000
,
1000
0000
0100
0000
,
0001
0000
0100
0000
,
0010
1000
0001
0000
,
0100
0000
0100
0000
,
0001
0100
1000
0000
,
0010
0010
0000
0000
0110
0000
0000
0000
,
0001
0001
0000
0100
,
1000
1000
0000
0000
,
0010
1000
0100
0000
,
0001
0100
1000
0000
,
0100
0100
0000
0001
,
0010
0010
0000
0000
,
0100
1000
0001
0100
,
0010
0000
0000
0000
,
1001
0000
0100
0000
,
0001
0000
1000
0000
,
1000
0000
0001
0000
,
0010
0000
0000
0100
0100
0000
0000
0000
,
1000
0100
0001
0000
,
0010
0000
0001
0000
,
1000
0000
0010
0000
,
0100
0100
0110
0000
,
0010
1000
0000
0100
,
0010
0001
0000
0000
,
1000
0001
1000
0000
,
0001
1000
0010
0000
,
0100
0100
0000
0001
,
0100
0100
0000
1000
,
0010
0000
1001
0100
,
0100
0001
1000
0000
,
1000
0100
0000
0010
,
0001
0100
0000
0000
,
0001
0000
0100
0000
,
1000
0010
0010
0000
,
1000
0100
0000
0010
,
0001
1001
0000
0000
,
1000
0010
0001
0100
,
0010
0000
1000
0000
,
0001
0000
1000
0000
,
0010
0010
1001
0000
;

//--------------- dance-single - ----------------
#NOTES:
     dance-single:
     :
     Medium:
     4:
     0,0,0,0,0:
0000
0000
0000
0000
,
0000
0000
0000
0000
,
0000
0000
0000
0000
,
0000
0000
0000
0000
,
1000
0100
0001
0010
,
0001
1000
0110
0000
,
1000
0001
0100
0100
,
0001
0000
0000
1001
0000
0000
0000
0000
,
1000
0100
0001
0100
,
1000
0001
0010
0000
,
0100
1000
0001
0000
0010
0000
0010
0000
,
0001
1000
1001
0000
,
1000
0100
0010
0001
,
0010
0001
1000
0010
,
0100
1000
0100
0001
,
1000
0000
0010
0010
0000
0100
0100
0000
,
0001
0100
1000
0000
0010
0000
1000
0000
,
0001
0010
1100
0000
,
1000
0001
0100
0100
,
0010
0010
0000
0000
0101
0000
0000
0000
,
0001
0000
1000
0000
0000
0001
0010
0001
,
1000
0010
0000
0100
,
0001
1000
0010
1010
,
0100
0001
0011
0000
,
0001
0000
1000
0000
0000
0100
0010
0001
,
1000
0001
0100
0100
,
0000
1000
0010
0000
0100
0000
0001
0000
,
0010
0010
0100
0010
,
0001
0100
1000
0000
0010
0000
1000
0000
,
0001
0100
0100
0000
,
1000
0100
0001
0010
,
0001
0000
1000
0010
0010
0000
0000
0000
,
1000
0001
0100
0100
,
0001
0010
0100
0000
,
1000
0010
0100
1000
,
0100
0001
1001
0000
,
1010
0000
1000
0000
0000
0010
0100
0001
,
0010
0011
0000
0100
,
1000
0001
0010
0001
,
1000
0010
0100
0001
,
0101
0000
1000
0000
0000
0100
0010
0001
,
1000
0110
0001
1000
,
0100
0001
0000
1000
0010
0000
0100
0000
,
1001
0001
1000
0100
,
0010
0000
0010
0000
1000
0100
0010
0001
,
0100
0010
0100
1000
,
0100
0001
1000
0000
0100
0000
0011
0000
,
1000
0010
0100
0000
1010
0000
0000
0000
,
0001
0000
1000
0000
0000
0001
0100
0010
,
0100
1000
0001
0010
,
0000
1100
0000
0000
0001
0000
0100
0000
,
0010
1000
0100
0010
,
0001
1000
0010
0110
,
0000
1000
0001
0000
0100
0100
0001
0000
;

//--------------- dance-single - ----------------
#NOTES:
     dance-single:
     :
     Hard:
     7:
     0,0,0,0,0:
0000
0000
0000
0000
,
0000
0000
0000
0000
,
0000
0000
0000
0000
,
0000
0000
0000
0000
,
0001
0010
0001
1000
0010
0100
1000
0000
,
0100
0000
0001
1000
0000
0110
0000
0010
,
0100
1000
0001
0100
,
0001
1000
0010
0100
0000
0000
0001
0000
,
0101
0000
0010
0100
1000
0010
0000
0000
,
1100
0000
0000
0010
0000
0000
0001
0000
0100
0000
1000
0000
1000
0000
0000
0000
,
0001
0010
0100
0010
0100
1000
0001
0100
,
0010
0000
0000
1000
0001
0000
0010
0000
1001
0000
0000
0000
0000
0000
0000
0000
,
1010
0010
0100
0000
0100
0001
1000
0000
,
0001
0010
0001
0011
0000
0100
0000
0100
,
0010
1000
0100
0000
0001
0100
1000
0000
,
0010
1000
0001
0010
0000
1000
0101
0000
,
0001
0010
0001
1000
1100
0000
0100
0000
,
0010
0000
0000
0001
0000
0000
1000
0000
0010
0000
0010
0000
0100
0000
0000
0000
,
0001
0100
1000
0000
0010
1000
0001
0100
,
0110
0110
1000
0000
1001
0000
0000
0000
,
0001
0000
0010
0000
0001
0000
0000
0000
1000
0000
0010
0100
0000
0001
0100
0000
,
0001
0010
1000
0000
0001
0100
1001
0000
,
0010
0100
1000
0100
0001
1000
0001
0000
,
1000
0001
0001
0010
0000
0100
0010
0000
,
0001
0000
1000
0000
0010
0000
0000
0000
0010
0000
1000
0001
0000
0100
0001
0000
,
0010
0001
0100
0000
0010
1000
1001
0000
,
1000
0010
0000
0010
0100
0001
1000
0100
,
0011
0001
0000
1010
0000
0000
0001
1000
,
0010
0000
1000
0100
0001
0000
0110
0000
,
0010
0001
1000
0010
0100
0010
1000
0001
,
0010
0000
0010
0100
1000
0000
0001
0100
,
1000
0000
0000
0100
0000
0000
1001
0000
0011
0000
0000
0000
1010
0000
0000
0000
,
0010
0000
0010
0000
0100
0001
1000
0100
,
0010
0000
0000
0001
0000
0000
1000
0000
0000
0000
0001
0000
0000
0000
0100
0000
,
0010
0010
1000
0100
0001
0100
0100
0010
,
0001
0000
0000
1000
0001
0000
0100
0000
0010
0000
0000
0000
1000
0000
0000
0000
,
1001
0000
0000
0000
0001
0000
0000
0000
0010
0000
0001
1000
0000
0010
0100
0000
,
0100
0001
1000
0000
0000
1100
0010
0001
,
0100
0100
0001
1000
0000
0010
0100
1000
,
0100
0001
1000
0010
0000
0100
0001
0000
,
0101
0000
0000
0000
0010
0000
0000
0000
0001
0000
1000
0010
0000
0100
0010
0000
,
0100
0001
1000
0000
0010
0010
1000
0001
,
0010
0011
0000
0000
0001
1000
0010
0100
,
0000
1010
0000
0100
0000
0001
1000
0100
,
0010
0011
0100
1100
,
1000
0101
0001
1010
,
0100
0010
0100
0001
1000
0100
0010
0100
,
1000
0001
0100
0100
0000
0001
1000
0100
,
0011
0000
0000
0000
1100
0000
0000
0000
0000
0000
1000
0001
0000
0001
0100
0000
,
0101
0000
1010
0000
0000
0100
0010
1000
,
0000
0100
0000
0001
0010
0100
0010
0001
,
1000
0010
0100
1000
0100
0001
0010
0100
,
1000
1000
0100
0100
0010
0010
0001
0001
,
1000
0000
0001
0000
0000
0001
1000
0000
0010
0000
0100
0000
0110
0000
0000
0000
;
