#TITLE:Penny's Song;
#SUBTITLE:(from WarioWare\: Get It Together!);
#ARTIST:Fryda Wolff;
#TITLETRANSLIT:;
#SUBTITLETRANSLIT:;
#ARTISTTRANSLIT:;
#GENRE:Pop;
#CREDIT:8Chasey 2023;
#MUSIC:Penny's Song.ogg;
#BANNER:Penny's Song-bn.png;
#BACKGROUND:Penny's Song-bg.png;
#CDTITLE:;
#SAMPLESTART:1.500;
#SAMPLELENGTH:12.000;
#SELECTABLE:YES;
#OFFSET:-0.050;
#BPMS:0.000=110.000;
#STOPS:;
#ORIGIN:;
#PREVIEWVID:;
#JACKET:Penny's Song-jacket.png;
#CDIMAGE:;
#DISCIMAGE:;
#BGCHANGES:;
#FGCHANGES:;

//--------------- dance-single - 8Chasey - 2025 chart ----------------
#NOTES:
     dance-single:
     8Chasey - 2025 chart:
     Beginner:
     2:
     0,0,0,0,0:
0000
0000
0000
0000
,
0001
0000
0000
0000
,
1000
0000
0000
0000
,
0010
0000
0010
0000
,
0010
0000
0000
0000
,
1000
0000
0000
0000
,
0001
0000
0000
0000
,
0100
0000
0100
0000
,
0100
0000
0000
0100
,
0000
0001
0000
0001
,
0000
0000
0000
0000
,
0000
1000
0000
1000
,
0000
0000
0000
0000
,
0010
0000
0010
0000
,
0010
0010
0010
0000
,
0100
0000
0000
0000
,
0001
0000
0001
0000
,
0100
0000
0000
0000
,
1000
0000
1000
0000
,
0010
0000
0100
0000
,
0010
0000
0000
0000
,
0100
0000
0010
0000
,
0100
0000
0000
0000
,
0000
0001
0000
0001
,
0000
0001
0001
0000
,
0000
1000
0000
1000
,
0000
1000
1000
0000
,
0010
0010
0010
0000
,
0010
0010
0010
0000
,
0100
0000
0100
0000
,
0100
0100
0000
0110
,
0000
0000
0001
0000
,
0001
0001
0001
0000
,
0000
0000
0010
0000
,
0010
0010
0010
0000
,
0000
0000
1000
0000
,
1000
1000
1000
0000
,
0100
0000
0000
0000
,
0100
0100
0100
0000
,
1001
0000
0000
0000
,
0001
0000
0000
0000
,
1000
0000
0001
0000
,
1000
0000
0000
0000
,
0001
0000
1000
0000
,
0001
0000
0000
0000
,
1000
0000
0000
0000
,
1000
0000
0000
0000
,
0001
0000
0000
0000
,
0001
0000
0000
0000
,
1000
0000
1000
0000
,
0001
0000
0001
0000
,
0100
0000
0100
0000
,
0001
0000
0000
0000
,
1000
0000
0010
0000
,
1000
0000
0000
0000
,
0001
0000
0100
0000
,
0001
0000
0000
0000
,
1000
0000
1000
0000
,
0001
0000
0001
0000
,
0100
0000
0010
0000
,
0100
0000
0010
0000
,
1000
0000
0000
0000
,
0001
0000
0000
0000
,
0100
0000
0100
0000
,
0100
0000
0000
0000
,
0001
0000
0000
0000
,
1000
0000
0000
0000
,
0010
0000
0010
0000
,
0010
0000
0000
0000
,
1000
0000
0000
0000
,
0001
0000
1000
0000
,
0001
0000
0000
0000
,
1000
0000
0001
0000
,
0100
0000
0000
0000
,
0010
0000
0000
0000
,
0100
0000
0010
0000
,
0100
0100
0100
0000
;

//--------------- dance-single - 8Chasey - 2025 chart ----------------
#NOTES:
     dance-single:
     8Chasey - 2025 chart:
     Easy:
     3:
     0,0,0,0,0:
0000
0000
0000
0000
,
0001
1000
0001
0000
,
1000
0010
0100
0000
,
0002
0003
2000
3000
,
0200
0000
0310
0000
,
0010
0100
0010
0000
,
0100
0010
0100
0000
,
1000
0100
0001
0100
,
0020
0000
0000
0130
,
0000
1000
0001
1000
,
0010
0000
1000
0000
,
0000
0001
1000
0001
,
0100
0000
0001
0100
,
0000
0010
0100
0010
,
1000
0001
1000
0001
,
0100
0000
0010
0000
,
1000
0010
1000
0010
,
0000
1000
0000
1000
,
0001
0010
0001
0010
,
0000
0100
0010
0100
,
2000
0000
3001
0000
,
0002
0000
1003
0000
,
0010
0100
0020
0030
,
1000
0100
0001
0000
,
0100
0010
0100
0000
,
0001
0100
1000
0000
,
0100
0010
0100
0000
,
1100
1100
1000
1000
,
0101
0101
0001
0001
,
0200
0300
0020
0030
,
1000
0001
1000
1001
,
0020
0000
0000
0000
,
1000
1000
1030
0000
,
0200
0000
0000
0000
,
0001
0001
0301
0000
,
1000
0000
0100
0000
,
0010
0001
0010
0000
,
0002
0000
0000
0013
,
2000
0100
0100
3100
,
0220
0000
0330
0000
,
0010
0000
0001
0000
,
1000
0010
1000
0000
,
0001
0100
0001
0000
,
1000
0000
0001
0000
,
0100
0010
0100
0000
,
0020
0000
0000
0030
,
1000
0000
0000
0020
0000
0000
0130
0000
,
0001
0000
0000
0200
0000
0000
0310
0000
,
2002
0000
0000
3003
,
0001
0100
0001
0000
,
1000
0000
1001
0000
,
1000
0010
1000
0000
,
0110
0000
0000
0000
,
0100
0001
0100
0000
,
0001
0000
1000
0000
,
0100
1000
0100
0000
,
1000
0000
0001
0000
,
0020
0000
0130
0000
,
0200
0000
0310
0000
,
0001
0001
1000
1000
,
0010
1000
0001
0000
,
0100
0001
0100
0000
,
0001
1000
0001
0000
,
2000
3000
0002
0003
,
0020
0000
0130
0000
,
1000
1000
0010
0000
,
0100
0100
0001
0000
,
1000
0100
0010
0001
,
0200
0000
0000
0300
,
0010
0000
0010
0000
,
1000
0001
1000
0000
,
0001
0010
0001
0000
,
0100
0100
0010
0000
,
1000
0000
0001
0000
,
0100
0010
0100
0000
,
0001
1000
0001
1000
,
0010
0000
0000
0200
0000
0000
0300
0000
;

//--------------- dance-single - 8Chasey - 2023 chart ----------------
#NOTES:
     dance-single:
     8Chasey - 2023 chart:
     Medium:
     6:
     0.336651,0.364465,0.184013,0.178077,0.047487,397,366,31,30,0,0,0,0,0,0.336651,0.364465,0.184013,0.178077,0.047487,397,366,31,30,0,0,0,0,0:
0000
0000
0000
0000
,
1000
0001
1000
0000
0020
0000
0030
0000
,
0001
1000
0001
0000
0200
0000
0300
0000
,
0002
0013
2000
3010
,
1000
0000
0001
0100
0000
0010
0010
0000
,
1000
0000
0001
0010
0001
0000
0100
0000
,
0010
1000
0100
0000
0020
0000
0030
0000
,
1000
0101
0001
1100
,
0020
0000
0030
0000
1000
0001
0100
0000
,
0001
0000
0000
0000
0001
0000
0000
0000
0010
0000
0000
0001
0000
0000
0100
0000
,
1000
0000
0000
1000
0000
0000
1000
0000
0000
0000
0010
0000
0100
0000
0001
0000
,
0010
0000
1001
0000
0100
0010
0000
0010
,
1000
0000
0000
0001
0000
0000
1000
0000
0000
0001
0000
0000
0200
0000
0000
0000
,
0310
0110
0000
1000
0001
0000
1000
0001
,
0010
0100
0010
0000
0001
1000
1001
0000
,
0001
0100
1000
0100
,
0010
0001
1000
0000
0100
0000
0110
0000
,
0000
0000
1001
0000
0001
1000
0000
0100
,
1000
0010
0100
0101
,
1100
0000
0020
0000
0130
0000
0010
1000
,
0000
0100
0010
0002
0000
0003
1000
0010
,
0100
0000
1001
0000
0010
0100
0000
0110
,
0000
1000
0100
0001
0000
0010
0010
0000
,
1000
0000
0001
0000
0010
0001
1000
0100
,
0000
0010
0100
0110
,
1000
0000
0001
0000
0010
0000
0001
0100
,
0000
0010
1000
0000
0100
0000
0110
0000
,
0001
0010
0000
0000
0001
0010
0000
0000
0001
0000
0001
0000
0001
0000
0000
0000
,
1000
0010
0000
0000
1000
0010
0000
0000
1000
0000
1000
0000
1000
0000
0000
0000
,
1000
1000
0001
0001
,
1000
0100
0020
0000
0200
0000
0330
0000
,
1000
0000
0100
0000
0000
0000
0010
0000
0001
0000
0000
0001
0000
0000
1000
0000
,
0010
0100
0001
0000
2000
0000
3010
0000
,
0001
0000
0010
0000
0001
0100
0010
0000
,
1000
0000
0000
0100
0000
0000
0010
0000
0000
0001
0000
0000
1001
0000
0000
0000
,
0010
1000
0100
0000
0010
0001
0100
0000
,
0010
0100
0010
0000
0001
0001
0000
0000
,
0020
0000
0130
1000
,
0101
0000
1100
0000
0010
1000
0001
0000
,
0200
0010
0001
0310
,
1000
0100
0010
0100
0000
1000
0001
0000
,
0012
0000
0103
0000
0010
1000
0001
0000
,
1000
0000
0000
1000
0000
0000
0020
0000
0000
0000
0100
0000
0130
0000
0000
0000
,
0001
0000
0010
0000
0001
1000
0010
0000
,
0100
0010
0000
1001
0000
0000
0100
0000
,
0020
0000
0000
0000
0000
0030
0000
0000
,
2000
0000
0000
0002
0000
0000
3003
0000
,
0100
0000
0000
0220
0000
0000
0330
0000
,
1000
0000
1000
0000
0001
0000
0001
0000
0000
0000
0010
0000
0000
1001
0000
0000
,
0100
0000
0001
0010
0100
0000
0000
1000
,
0020
0000
0130
0000
0010
0000
0000
0100
,
0001
0010
0001
0000
1000
0100
0000
0011
,
0001
0000
1000
0000
0100
0100
0100
0010
,
0001
0000
1100
0000
2000
0000
3010
0001
,
0100
0000
0000
0100
0010
0000
1001
0000
,
1000
0100
0000
0000
0001
0100
0000
0000
,
0010
0000
0100
0020
0000
0130
1001
0000
,
0001
0100
1000
0000
0020
0000
1030
0000
,
1000
0100
0001
0000
0020
0000
0031
0000
,
1100
0000
0101
0000
,
0010
0000
1000
0100
0010
0001
0100
0100
,
0010
0000
0000
0010
1000
0000
0101
0000
,
0001
0010
0001
0010
0001
0000
0000
0000
,
1000
0010
1000
0010
1000
0000
0000
0100
,
0010
0010
0010
0020
0000
0000
0030
0000
,
1000
0100
1000
0010
0100
0000
0000
0101
,
0001
0010
0001
0100
1000
0000
0010
1000
,
0100
0000
0010
0001
0100
0000
0010
0020
,
1000
0100
0031
0000
,
1000
0100
0000
0100
0010
0000
0001
0010
,
1000
0000
0000
0110
0000
0000
1001
0000
0000
0000
0001
0000
0001
0000
1000
0000
,
1000
0000
0100
0000
1000
0001
0000
0001
,
0010
0000
0000
0001
0000
0000
1000
0000
0000
0010
0000
0000
0200
0000
0000
0000
,
0310
0100
0001
1000
0010
0010
0100
0100
,
1000
0001
1000
0001
0000
0000
0000
0000
,
0100
0001
0100
1000
0000
0010
0000
0101
,
0000
1000
0100
0020
0000
0000
0030
0000
;

//--------------- dance-single - 8Chasey - 2023 chart ----------------
#NOTES:
     dance-single:
     8Chasey - 2023 chart:
     Hard:
     8:
     0.469785,0.478361,0.207757,0.415514,0.204789,554,519,35,70,0,0,0,0,0,0.469785,0.478361,0.207757,0.415514,0.204789,554,519,35,70,0,0,0,0,0:
0000
0000
0000
0000
,
0001
0000
1000
0000
0100
0000
1000
0020
0000
0000
0000
0000
1030
0000
0000
0000
,
1100
0000
0010
0000
0001
0000
0100
0002
0000
0000
0000
0000
1003
0000
0010
0000
,
0100
0000
0001
1000
0001
0000
1001
0000
,
0010
0001
1000
0020
0000
0130
0100
0000
,
0100
0000
1000
0000
0001
0000
0010
0001
0020
0000
0000
0000
0130
0000
0000
0000
,
1100
0000
0010
0000
0001
0000
1000
0001
2000
0000
0000
0000
3010
0000
0010
0000
,
0100
0001
0100
0010
1000
0100
0010
0010
,
0002
0000
0003
0000
0100
0010
0100
0010
1000
0000
0000
0000
0110
0000
0000
0000
,
0100
0000
1000
0001
0000
1000
0001
0000
0010
0000
0100
0000
0001
0000
1000
0000
,
0101
0000
0000
1100
0000
0000
1001
0000
0000
0010
1000
0000
0020
0000
0100
0000
,
0130
0000
0001
0000
1000
0000
0100
0000
0010
0000
0001
1000
0000
0001
1000
0000
,
0002
0000
0000
2003
0000
0000
3010
0100
0000
0000
0001
0000
0011
0000
0000
0000
,
1000
0100
0000
0010
0000
0000
1000
0000
0010
0001
0000
1000
0000
0010
0100
0000
,
0001
1000
0001
1000
0020
0100
0130
0000
,
0001
0000
0100
0000
1000
0100
0000
0010
,
1000
0000
0000
0000
0001
0000
0000
0100
0001
0000
2000
0000
0010
0000
0000
0000
,
3010
0000
0110
0000
1000
0100
1000
0001
,
0000
0010
0010
0100
1000
0100
0002
0000
,
0103
0000
0000
0000
0110
0000
0000
0010
0001
0000
1000
0000
1000
0000
0020
0000
,
0000
0130
0001
2000
0000
3100
0010
0100
,
0002
0000
0103
0010
0001
1000
0100
1000
,
0000
0000
0010
0000
0100
0000
0001
1000
0001
0000
0010
0000
0110
0000
0000
0000
,
1100
0000
0000
0001
0100
0000
0000
0010
1000
0000
0100
0000
0100
0000
0010
0000
,
1000
0010
0001
1000
0010
0100
0002
0000
,
1003
0000
0000
0000
0010
0000
0000
0100
0010
0000
1000
0000
0100
0000
0020
0000
,
0001
0000
0130
1000
0010
0100
0010
0000
,
1000
0001
0000
0000
0001
1000
0000
0000
0010
0000
0100
0000
0110
0000
0000
0000
,
0100
0010
0000
0000
0010
0100
0000
0000
0001
0000
1000
0000
1001
0000
0000
0000
,
0200
0302
2003
3200
,
0310
0000
0100
0000
1000
0000
0001
0000
0100
0010
0100
0000
0110
0000
0000
0000
,
0001
0000
0100
0000
1000
0000
0010
0000
0100
0001
0000
0100
0000
0000
0001
0000
,
0010
0100
1000
0001
0002
0000
0013
0000
,
2200
0000
3300
0010
0100
0100
0001
0100
,
0010
0000
0000
1000
0000
0000
1100
0000
0000
0010
0000
0000
0001
0000
1000
0000
,
0200
0000
0310
0001
2000
0000
3010
0100
,
0001
0000
0100
0000
0010
1000
0010
0000
0100
0000
0001
0000
0000
0001
0000
0000
,
2001
0000
0010
0000
3100
0000
0010
0100
,
1002
0010
0203
0320
,
1030
0000
0000
1000
0000
0000
0001
0000
0000
0100
0001
0000
0010
0000
1000
0000
,
0010
0000
0000
0100
0000
0000
1000
0000
0000
0001
1000
0000
0010
0000
0010
0000
,
0020
0000
0000
0100
0000
0000
0100
0000
0230
0000
0000
0001
0000
0000
0301
0000
,
0002
0000
0000
1000
0000
0000
2003
0000
0000
0000
3010
0000
0100
0000
0010
0000
,
0001
1000
0100
0010
1000
0010
0001
1000
,
0010
0100
0010
0000
1000
0100
1000
0000
0001
0000
0001
0000
0100
0000
0000
0000
,
0220
0000
0000
0300
0000
2000
0000
3030
,
0002
0000
0000
0200
0003
0000
0310
0000
,
2002
0000
3000
0020
0000
0003
0200
0030
,
1300
0000
0001
0000
1000
0000
0010
1000
0100
0000
0010
0000
0001
0100
0000
0000
,
0001
0000
1000
0000
0010
0000
0100
0001
0200
0000
0010
0000
0310
0000
1000
0000
,
0001
0000
0101
1000
0020
0000
0130
0001
,
1000
0000
1100
0000
0101
0010
0100
0002
,
0010
0000
0000
0000
0100
0000
0000
0000
1003
0000
0010
0000
0100
0010
0100
0000
,
0001
0000
0001
0000
1000
0100
1000
0000
0020
0000
0000
0000
0130
0000
0100
0000
,
0001
0000
1000
0000
0100
0010
0100
0000
2000
0000
0000
0000
3001
0000
0100
0000
,
0010
1000
0001
0100
0100
0010
2000
0000
,
3001
0100
0020
2000
0030
0001
3002
0000
,
0103
0000
0010
0000
1000
0000
0100
2000
0000
0000
0001
0000
3001
0000
0000
0000
,
0110
0000
1000
0000
0100
0000
0010
0002
0000
0000
1000
0000
1003
0000
0000
0000
,
0010
0100
0001
0010
1000
0010
0100
1000
,
0002
0203
0320
2030
,
3001
0000
0100
0000
0010
0000
1000
0001
2000
0000
0001
0000
0001
0000
3001
0000
,
0010
0000
0100
0000
0010
0000
0001
0100
0002
0000
1000
0000
1000
0000
1003
0000
,
0010
0100
0110
0000
1000
0002
0000
0103
,
0010
0100
0001
0020
0000
1030
0010
0000
,
0110
0000
1000
0000
0001
0000
0100
0010
0200
0000
0000
0000
0301
0000
1000
0000
,
0010
0000
0010
0000
1000
0100
1000
0001
0020
0000
0000
0000
0130
0000
0100
0000
,
1000
0001
0010
0100
0001
0100
1000
1000
,
0020
0000
0030
0000
0001
1000
0001
0100
0010
0000
0000
0000
0101
0000
0000
0000
,
1100
0000
0010
0001
0000
0001
1000
0000
0010
0000
0100
0000
0010
0000
0010
0000
,
1010
0000
0000
0011
0000
0000
0110
0000
0000
0100
0001
0000
0020
0000
0100
0000
,
0130
0000
1000
0001
0000
1000
0001
0000
1000
0000
0010
0000
0100
0000
0010
0000
,
0100
0000
0001
0000
0010
0000
0011
0000
0000
1000
0001
0000
0100
0000
0100
0000
,
0001
0000
0010
0000
0100
0000
1000
0000
0001
0100
0001
0000
0010
0000
0010
0000
,
0200
0000
0000
1300
0000
0000
0102
0000
0000
0000
0013
0000
0100
0000
1000
0000
,
0001
0010
0010
1000
0010
0001
0100
0010
,
1000
0001
1000
2002
0000
0000
3003
0000
;
