#TITLE:PEEPY'S THEME;
#SUBTITLE:;
#ARTIST:itemLabel;
#TITLETRANSLIT:;
#SUBTITLETRANSLIT:;
#ARTISTTRANSLIT:;
#GENRE:;
#CREDIT:;
#MUSIC:Peepy's Theme.mp3;
#BANNER:Peepy's Theme-bn.png;
#BACKGROUND:Peepy's Theme-bg.png;
#CDTITLE:;
#SAMPLESTART:24.130;
#SAMPLELENGTH:12.000;
#SELECTABLE:YES;
#OFFSET:-0.112;
#BPMS:0.000=180.000;
#STOPS:;
#BGCHANGES:;
#FGCHANGES:;

//--------------- dance-single - ----------------
#NOTES:
     dance-single:
     :
     Beginner:
     1:
     0,0,0,0,0:
0000
0000
0000
0000
,
0000
0000
0000
0000
,
0001
0000
0000
0000
,
0000
0000
0000
0000
,
0001
0000
0000
0000
,
0000
0000
0000
0000
,
1000
0000
0000
0000
,
0000
0000
0000
0000
,
1000
0000
0000
0000
,
0000
0000
0000
0000
,
0010
0000
0000
0000
,
0010
0000
0010
0000
,
0010
0000
0000
0000
,
0010
0000
0000
0000
,
0100
0000
0000
0000
,
0100
0000
0000
0000
,
0100
0000
0100
0000
,
0100
0000
0000
0000
,
0001
0001
0000
0000
,
0000
0000
0000
0000
,
0001
0001
0000
0000
,
0000
0000
0000
0000
,
1000
0000
0000
0000
,
0001
0000
0000
0000
,
1001
0000
0000
0000
,
0000
0000
0000
0000
,
1000
1000
0000
0000
,
0000
0000
0000
0000
,
1000
1000
0000
0000
,
0000
0000
0000
0000
,
0001
0000
0000
0000
,
1000
0000
0000
0000
,
1001
0000
0000
0000
,
0000
0000
0000
0000
,
0010
0010
0000
0000
,
0100
0000
0000
0000
,
0100
0100
0000
0000
,
0010
0000
0000
0000
,
1000
0000
0000
0000
,
0001
0000
0000
0000
,
0010
0000
0010
0000
,
0100
0000
0000
0000
,
0001
0001
0000
0000
,
0000
0000
0000
0000
,
1000
1000
0000
0000
,
0000
0000
0000
0000
,
0001
0000
0000
0000
,
1000
0000
0000
0000
,
0100
0000
0100
0000
,
1001
0000
0000
0000
;

//--------------- dance-single - ----------------
#NOTES:
     dance-single:
     :
     Easy:
     2:
     0,0,0,0,0:
0000
0000
0000
0000
,
0000
0000
0000
0000
,
0001
0000
0000
0000
,
0010
0000
0001
0000
,
1000
0000
0000
0000
,
0010
0000
1000
0000
,
0001
0000
0000
0000
,
0100
0000
0000
0000
,
0001
0000
1000
0000
,
0001
0000
1000
0000
,
0100
0000
0000
0000
,
1000
0000
1000
0000
,
0001
0000
0000
0000
,
0001
0000
0001
0000
,
1000
0000
0100
0000
,
0010
0000
0001
0000
,
0100
0000
0100
0000
,
0110
0000
0000
0000
,
1000
0001
0000
0000
,
0001
0000
0100
0000
,
0001
1000
0000
0000
,
0010
0000
0000
0000
,
1000
0000
0000
0000
,
0100
0000
0000
0000
,
1000
0001
0000
0000
,
0001
0000
0100
0000
,
0001
1000
0000
0000
,
0010
0000
0010
0000
,
1000
0001
0000
0000
,
0100
0000
0100
0000
,
0001
0000
0000
0000
,
0010
0000
0000
0000
,
1000
0000
0000
0000
,
0100
0000
0110
0000
,
0010
0100
0000
0000
,
0001
0000
0000
0000
,
0100
0010
0000
0000
,
1000
0000
0000
0000
,
0001
0000
0001
0000
,
1000
0000
1000
0000
,
0100
0010
0000
0000
,
0010
0100
0000
0000
,
0001
0001
0000
0000
,
0010
0000
0001
0000
,
1000
1000
0000
0000
,
0100
0000
1000
0000
,
0001
0000
1001
0000
,
1000
0000
1001
0000
,
0100
0000
0010
0000
,
1000
0001
1000
0001
;

//--------------- dance-single - ----------------
#NOTES:
     dance-single:
     :
     Medium:
     4:
     0,0,0,0,0:
0000
0000
0000
0000
,
0000
0000
0000
0000
,
0001
0010
0001
0000
,
1000
0000
0100
0000
,
1000
0010
1000
0000
,
0001
0000
0100
0000
,
0010
0000
1010
0000
,
0100
0000
0101
0000
,
0001
0001
1000
0000
,
0100
0000
0010
0000
,
1000
0000
0100
0000
,
0001
0000
0100
0000
,
0010
0000
0000
1000
,
0001
0000
1000
0000
,
0001
0000
1000
0000
,
0010
0000
0100
0000
,
1001
0000
0010
0000
,
1001
0000
0000
0000
,
1000
0100
0000
0000
,
1000
0000
0010
0000
,
0001
0100
0000
0000
,
0001
0000
1000
0000
,
0100
1000
0000
0000
,
0010
0001
0000
0000
,
0100
0100
0000
0000
,
1001
0000
0010
0000
,
1000
0010
0000
0000
,
1000
0001
0010
0000
,
0001
0001
0000
0000
,
0100
0000
0001
0000
,
1000
0100
0010
0000
,
0001
0100
0010
0000
,
1001
0000
0000
0000
,
1000
0000
0100
0000
,
0010
0010
0000
0000
,
1000
0000
0001
0000
,
0100
0100
0000
0000
,
0001
0000
1000
0000
,
0100
0000
1000
0000
,
0010
0000
0100
0000
,
0001
0000
0010
0000
,
0001
0000
1000
0000
,
0100
0100
0000
0000
,
1000
0010
0100
0001
,
0010
0010
0000
0000
,
0001
1000
0001
0000
,
0011
0000
0001
0000
,
1010
0000
1000
0000
,
0001
1000
0001
1000
,
0100
0000
1001
1001
;

//--------------- dance-single - ----------------
#NOTES:
     dance-single:
     :
     Hard:
     6:
     0,0,0,0,0:
0000
0000
0000
0000
,
0000
0000
0000
0000
,
0001
0010
0010
0001
,
1000
0010
1010
0000
,
0100
0001
1000
0100
,
1000
0001
0011
0000
,
0010
0010
0001
1000
,
0010
0100
0110
0000
,
0100
0100
0001
1000
,
0100
1000
1001
0000
,
1000
0000
0010
1000
,
0001
0000
0101
0000
,
0001
0000
1000
0100
,
0010
0000
1100
0000
,
1000
1000
0010
0000
,
0001
1000
0001
0010
,
0011
0000
1100
0000
,
1001
0000
0100
0010
,
0100
0001
1001
0000
,
1000
1000
0010
1000
,
0100
0010
0110
0000
,
0001
0001
0010
0000
,
0001
1000
1000
0000
,
0010
1000
0001
0000
,
0001
1000
0000
0000
,
0100
1000
1000
0000
,
0010
1000
0100
0000
,
0100
1000
0001
0001
,
0010
0001
0100
0000
,
0001
0010
0010
0000
,
0011
0000
0001
1000
,
1010
0000
0100
0010
,
0100
0001
0010
0100
,
1000
0001
1000
0000
,
0010
0000
1000
0100
,
1000
0001
0010
0001
,
0010
0000
0001
1000
,
0001
0001
0100
0000
,
1100
0000
0101
0000
,
1000
0001
0001
0010
,
0100
1000
0000
0000
,
0010
1000
1000
0001
,
0010
0010
0000
0001
,
1000
0100
0001
0100
,
1000
0010
0010
0000
,
0100
0001
0010
0001
,
1000
1000
1100
0000
,
0010
0001
0101
0000
,
0001
0001
1000
0100
,
0010
0000
0100
0000
1000
0001
1000
0000
;

//--------------- dance-solo - ----------------
#NOTES:
     dance-solo:
     :
     Easy:
     1:
     0,0,0,0,0:
000000
000000
000000
000000
,
000000
000000
000000
000000
,
000010
000000
000000
000000
,
010000
000000
000000
000000
,
000010
000000
000000
000000
,
000000
000000
000000
000000
,
010000
000000
000000
000000
,
000010
000000
000000
000000
,
010000
000000
000000
000000
,
000000
000000
000000
000000
,
000100
000000
000000
000000
,
001000
000000
001000
000000
,
001000
000000
000000
000000
,
000100
000000
000000
000000
,
010000
000000
000000
000000
,
000010
000000
000000
000000
,
010000
000000
000010
000000
,
010000
000000
000010
000000
,
010000
010000
000000
000000
,
000001
000000
100000
000000
,
000010
000010
000000
000000
,
100000
000000
000001
000000
,
001000
000000
000000
000000
,
000100
000000
000000
000000
,
010000
000000
000000
000000
,
000010
000000
000000
000000
,
000010
000010
000000
000000
,
100000
000000
000001
000000
,
010000
010000
000000
000000
,
000001
000000
100000
000000
,
001000
000000
000000
000000
,
000100
000000
000000
000000
,
010000
000000
010000
000000
,
000010
000000
000010
000000
,
100000
100000
000000
000000
,
000010
000000
010000
000000
,
000001
000001
000000
000000
,
010000
000000
000010
000000
,
100000
000000
000000
000000
,
001000
000000
000000
000000
,
000001
000000
000000
000000
,
000100
000000
000000
000000
,
000001
000001
000000
000000
,
010000
000000
000010
000000
,
100000
100000
000000
000000
,
000010
000000
010000
000000
,
000100
000000
000000
000000
,
001000
000000
000000
000000
,
000010
000000
010000
000000
,
010010
000000
000000
000000
;
