#TITLE:Pac-Man;
#SUBTITLE:(from Just Dance 2019);
#ARTIST:Dancing Bros.;
#TITLETRANSLIT:;
#SUBTITLETRANSLIT:;
#ARTISTTRANSLIT:;
#GENRE:;
#CREDIT:;
#MUSIC:Pac-Man (from Just Dance 2019).ogg;
#BANNER:;
#BACKGROUND:;
#CDTITLE:;
#SAMPLESTART:46.168;
#SAMPLELENGTH:12.000;
#SELECTABLE:YES;
#OFFSET:-0.098;
#BPMS:0.000=125.000
,256.000=145.000
,264.000=150.000
,272.000=155.000
,280.000=160.000
,288.000=128.000
,290.000=125.000
;
#STOPS:288.000=0.469
,289.000=0.469
;
#DISPLAYBPM:125.000;
#BGCHANGES:;
#FGCHANGES:;

//--------------- dance-single - 8Chasey ----------------
#NOTES:
     dance-single:
     8Chasey:
     Easy:
     4:
     0,0,0,0,0:
0000
0000
0000
0000
,
0000
0000
0000
0000
,
2000
3000
0002
0003
,
0200
0300
0010
1001
,
0100
0001
0100
1000
,
0010
0100
0010
0000
,
0001
0010
1000
0100
,
0001
1000
1001
0000
,
0010
0100
0010
1000
,
0001
0100
0001
0000
,
0001
1000
1000
0001
,
0020
1030
0001
0100
,
0010
0100
0010
0100
,
0001
1000
0001
1000
,
0100
0010
0001
1000
,
0100
0010
2002
3003
,
0110
0020
0130
1000
,
0010
0200
0301
0010
,
0001
2000
3010
1000
,
1002
0100
0103
0010
,
0100
0002
0013
0001
,
0100
0020
0100
0130
,
0010
2000
3100
1000
,
0001
1000
0010
1000
,
0010
0100
0010
0100
,
0010
0100
0010
0100
,
0001
1000
1000
0001
,
0100
0001
1000
0000
,
0100
0100
0100
0100
,
0100
0100
0010
0100
,
0010
0001
0100
1000
,
0010
0100
0020
0030
,
0101
2000
0000
3100
,
1100
0002
0000
0013
,
0110
0020
0000
0130
,
1000
1000
0001
0001
,
1010
0002
0000
0013
,
0011
2000
0000
3010
,
1001
0200
0000
0310
,
0001
1000
0100
0010
,
0200
0000
0320
0000
,
0032
0000
1003
0001
,
0020
0000
0230
0000
,
2300
0000
3010
0000
,
2001
0000
3001
0001
,
0002
0000
1003
0000
,
0120
0000
0100
0130
,
0011
1010
2002
3003
,
1000
1000
0100
0001
,
0010
0001
1000
0010
,
0100
0000
1000
0001
,
0101
1100
2002
3003
,
1002
0000
1000
1000
,
2003
0000
3001
0000
,
0200
0000
0010
0310
,
0001
0100
0010
1000
,
0001
0001
1000
1000
,
0100
1000
0001
0010
,
0001
0001
1000
1000
,
0001
0010
0100
1000
,
0010
0010
0100
0100
,
0010
0100
0001
1000
,
0001
0100
0010
0010
,
1000
0100
0010
0001
,
0100
0001
0100
0010
,
1000
0100
1000
0100
,
0010
1000
0010
0001
,
0100
0010
0100
0010
,
0100
0200
0310
0020
,
0130
0010
0010
0100
,
0002
1003
2000
3001
,
0010
0100
0010
0100
,
1001
1001
2002
0000
,
3003
0000
0000
0000
;

//--------------- dance-single - 8Chasey ----------------
#NOTES:
     dance-single:
     8Chasey:
     Medium:
     5:
     0,0,0,0,0:
0000
0000
0000
0000
,
0000
0000
0000
0000
,
0100
0001
0100
1000
,
0100
0000
0010
0000
0100
0010
0100
0000
,
0001
0001
1000
1000
,
0001
0000
1000
0000
0100
1000
0100
0000
,
1000
1000
0001
0001
,
1000
0000
0001
0000
0200
0000
0000
0300
,
0010
1000
0020
0000
0000
0000
0130
0000
,
0010
0000
1000
0000
0001
1000
0001
0000
,
0010
0001
0020
0000
0000
0000
0130
0000
,
0010
0000
0001
0000
1000
0001
1000
0000
,
0010
0000
2000
0001
0000
3001
1000
0100
,
1000
0100
0010
0001
,
0010
0000
0002
1000
0000
1003
0001
0100
,
0001
1000
2002
3003
,
0010
1000
0020
0000
0100
0000
0130
0000
,
0100
0001
2000
0000
0100
0000
3001
0000
,
0010
0001
0020
0000
0100
0000
0130
0000
,
1000
0010
1000
0010
2000
0000
3002
0000
,
0103
0000
0100
0001
0010
0001
0100
0000
,
0010
0000
0010
1000
0100
1000
0001
0000
,
0100
0000
0001
0010
0001
1000
0001
0000
,
0100
0001
0100
0001
2000
0000
3020
0000
,
0130
0001
2000
0000
0000
0000
3001
0000
,
0010
0000
0001
0000
0100
0001
0100
0000
,
0010
1000
0002
0000
0000
0000
1003
0000
,
0010
0000
1000
0000
0100
1000
0100
0000
,
0010
0000
0002
0000
0103
0001
0020
0000
,
0130
1000
0001
0000
2000
0000
3001
1000
,
0010
0000
2000
0000
3100
1000
0020
0000
,
0130
0001
1000
0000
0002
0000
1003
0001
,
0100
0102
0000
1003
,
0100
2100
0000
3001
,
0010
0001
0020
0000
0100
0000
0031
0000
,
1000
0100
0010
0000
0001
0100
0010
0000
,
2100
0020
0030
3001
,
0102
0020
0030
1003
,
0010
1000
0020
0000
0100
0000
1030
0000
,
0001
0010
0100
0000
1000
0010
0100
0000
,
0002
0000
0103
0000
0100
0001
0100
0000
,
0010
0000
1000
0000
0100
1000
0010
0000
,
2000
0000
3100
0000
0100
1000
0100
0000
,
0010
0000
0001
0000
0100
0001
0010
0000
,
2200
0300
0010
0001
,
0020
0030
0002
3003
,
0022
0030
0100
1003
,
0010
1000
0100
0010
0001
0000
0100
0000
,
0210
0000
0310
0000
1000
0010
1000
0000
,
0200
1000
0000
1300
0100
0000
0010
0000
,
2002
3003
0001
1000
,
0001
0010
0001
1000
0200
0000
1300
0000
,
1001
0000
0001
0100
0002
0000
0013
0000
,
0100
1000
0010
0000
2000
0000
3100
0000
,
0010
0001
1000
0000
0010
0000
0100
0000
,
0001
0010
0100
1000
0001
0010
0100
1000
,
0010
0000
1010
0000
1000
0100
1000
0000
,
0010
0000
0100
0000
0001
0010
0001
0000
,
0010
0000
0011
0000
0001
0100
0001
0000
,
0010
0000
0100
0000
1000
0100
1000
0000
,
0001
0100
0001
0000
0100
0010
0100
0000
,
0010
1000
0010
0000
1000
0000
0100
0000
,
1000
0100
1000
0000
0010
0100
0010
0000
,
0100
0001
0020
0000
0100
0000
0130
0000
,
1000
1000
0000
0001
0010
0010
0000
0001
,
0100
0100
0000
0010
1000
0100
0010
0000
,
0001
0001
0000
1000
0100
0100
0000
1000
,
0010
0010
0000
0100
0010
0000
1001
0000
,
0001
0010
0001
0000
1000
0100
1000
0000
,
0010
0100
0010
0000
1000
0000
0001
0000
,
0010
0001
0100
0000
0010
1000
0100
0000
,
1000
0100
1000
0100
0010
0001
1000
0000
,
1001
0110
2002
0000
,
3003
0000
0000
0000
;

//--------------- dance-single - 8Chasey ----------------
#NOTES:
     dance-single:
     8Chasey:
     Hard:
     8:
     0,0,0,0,0:
0000
0000
0000
0000
,
0000
0000
0000
0000
,
0100
0000
0000
0001
0000
0000
0100
0000
0010
0000
0000
1000
0000
0000
0010
0000
,
0100
0000
0000
0001
0000
0000
1000
0000
0100
0000
0010
0000
0001
0000
0001
0000
,
1000
0000
0000
0100
1000
0000
0010
0000
0100
0000
0000
0001
1000
0000
1000
0000
,
0001
0000
0000
0100
0001
0000
0010
0000
0100
0000
1000
0000
0001
0000
0100
0000
,
0010
0000
0000
1000
0010
0000
1000
0000
0001
0000
0000
1000
0001
0000
0001
0000
,
0010
0000
0000
0100
0010
0000
0002
0000
2000
0000
0000
0000
0000
0000
3003
0000
,
0001
0000
0100
0000
0010
1000
0010
0000
1000
0000
0100
0000
0010
0001
0010
0000
,
0001
0000
1000
0000
0100
0000
1000
0000
0001
0100
0001
0000
1000
0000
0010
0000
,
1000
0000
0000
1000
0100
0000
1000
0000
0010
0000
0000
1000
0010
0000
1000
0000
,
0001
0000
0000
0001
0100
0000
0001
0000
1000
0001
1000
0000
0010
0100
0010
0000
,
0110
0000
0000
0001
1000
0000
0001
0000
0010
0000
0000
0001
1000
0000
1000
0000
,
0100
0000
0000
1000
0001
0000
1000
0000
0010
0000
0100
0000
0010
0000
0010
0000
,
0100
0000
0000
0001
0010
0000
0001
0000
1000
0000
1000
0000
0010
0000
1000
0000
,
0100
0000
0000
1000
0010
0000
1000
0000
2002
0000
0000
0000
0000
0000
3003
0000
,
0100
0000
0000
0001
2000
0000
0001
0000
0001
0000
0000
0000
3010
0000
1000
0000
,
0100
0000
0000
1000
0002
0000
1000
0000
1000
0000
0000
0000
0013
0000
0001
0000
,
0100
0000
0000
0001
0020
0000
0100
0000
0100
0030
0000
1000
0100
0000
1000
0000
,
0100
0000
0010
0000
0001
0000
1000
0000
0001
0100
0001
0000
0100
0001
0100
0000
,
0001
0000
1000
0001
2000
0000
0000
0000
0100
0000
3100
0000
1000
0000
0010
0000
,
0100
0000
0001
1000
0002
0000
0000
0000
0010
0000
0013
0000
0001
0000
0100
0000
,
0010
0000
0100
0010
0200
0000
0000
0000
0001
0000
0000
0000
0310
0000
1000
0000
,
0100
0000
1000
0000
0001
0000
0100
0000
0010
1000
0010
0000
1000
0010
1000
0000
,
0100
1000
0100
0000
2000
0000
0000
3000
0010
0100
0010
0000
0200
0000
0000
0300
,
0001
0100
0001
0000
0020
0000
0000
0030
0001
0000
1000
0000
0001
1000
0001
0000
,
0010
0001
0010
0000
0002
0000
0000
0003
0100
0001
0100
0000
0020
0000
0000
0030
,
1000
0100
1000
0000
0200
0000
0000
0300
1000
0001
1000
0000
0001
1000
0001
0000
,
0010
0000
0001
0000
0100
0001
0100
0000
0001
0000
1000
0000
0100
1000
0100
0000
,
1000
0000
0010
0000
0100
0010
0100
0000
0001
0000
0010
0000
0100
0000
1000
0000
,
0010
0000
1000
0000
0001
1000
0001
0000
0100
0000
0001
0000
1000
0001
1000
0000
,
0010
0000
0010
0000
0100
0010
0100
0000
0002
0000
1000
0000
2003
0000
0100
0000
,
3100
0000
0000
1000
0002
0000
0000
0000
0100
0000
0103
0000
0001
0000
0001
0000
,
0010
0000
0000
0001
2000
0000
0000
0000
0100
0000
0100
3000
1000
0000
0010
0000
,
0100
0000
0000
0100
0020
0000
0100
0000
0100
0000
1000
0000
1030
0000
0100
0000
,
1000
0000
0001
0000
0100
0000
0001
0000
0010
0001
0010
0000
0001
0010
0001
0000
,
1000
0000
0000
0010
2000
0000
0000
0000
0100
0000
0100
0000
3001
0000
0010
0000
,
0100
0000
0000
0010
0002
0000
0000
0000
0100
0000
0100
0000
1003
0000
0010
0000
,
1000
0000
0000
0010
0200
0000
0000
0000
0001
0000
0001
0000
0310
0000
0100
0000
,
0001
0000
0010
0000
0100
0000
1000
0000
0100
1000
0100
0000
1000
0100
1000
0000
,
0020
0000
0000
2000
0030
0000
3010
0000
2000
0000
0000
0002
3000
0000
0103
0000
,
0002
0000
0000
0020
0003
0000
0031
0000
0200
0000
0010
0000
0010
0000
0310
0000
,
1000
0001
0000
1000
0000
0001
0100
0000
0001
1000
0000
0001
0000
1000
0010
0000
,
0100
0001
0000
1000
0000
0010
0100
0000
0220
0000
0000
0000
0000
0000
0330
0000
,
0102
0100
0100
0003
2200
3300
0202
0303
,
2100
0100
0100
3000
0120
0100
0100
0030
,
2010
0010
0010
3000
0022
0033
2020
3030
,
0012
0010
1000
1000
0203
0001
0301
0010
,
0001
2000
0000
0001
3100
0200
1000
0000
,
0310
0002
0000
0100
1003
0020
0100
0000
,
0130
0000
0001
0100
0000
0001
2000
0000
0010
0000
0000
0000
0100
0000
0000
0000
,
3001
0000
0010
0001
0010
0000
0100
0010
0100
0000
1000
0100
1000
0000
0100
0000
,
2100
0100
0001
3000
0202
0303
2020
3030
,
0120
0100
1000
0000
0230
0001
0301
0000
,
0102
0100
1000
0003
2200
3300
0022
0033
,
0002
0000
0023
0000
0230
0000
2300
0000
3001
0010
0001
0000
1000
0100
1000
0000
,
0001
0000
0100
0000
0001
1000
0001
0000
1000
0000
0100
0000
1000
0001
1000
0000
,
0010
0000
1000
0000
0001
1000
0001
0000
0200
0000
0001
0000
0301
0000
0100
0000
,
0010
0000
1000
0000
0001
1000
0001
0000
0010
0000
0001
0000
1000
0001
1000
0000
,
0100
1000
0001
0010
0200
1000
1300
0100
,
2000
0000
0010
3010
1000
0001
0100
0100
,
0002
0000
0000
0000
0010
0000
0013
0000
0001
1000
0001
0000
1000
0001
1000
0000
,
0020
1000
0130
0001
0020
0001
0130
1000
,
0010
0000
1000
0000
0001
1000
0001
0000
2000
0000
0001
0000
0001
0000
3001
0000
,
0100
0001
0010
0001
1000
0100
1100
0000
,
1000
0010
1000
0001
0100
0001
0101
0000
,
0010
0001
1000
0001
0100
0010
1010
0000
,
1000
0010
1000
0100
0010
0001
0011
0000
,
0100
0001
0200
0000
0310
1000
0020
0000
,
1030
0001
2000
0000
3001
0100
0002
0000
,
0013
0001
0010
0100
1000
0001
1000
0010
,
0100
0001
1000
0100
0010
0100
1000
0100
,
2200
3300
0000
0000
0202
0303
0000
0000
2002
0000
0000
0000
0000
0000
0000
0000
,
3003
0000
0000
0000
;

//--------------- dance-single - 8Chasey ----------------
#NOTES:
     dance-single:
     8Chasey:
     Challenge:
     10:
     0,0,0,0,0:
0000
0000
0000
0000
,
0000
0000
0000
0000
,
0200
0000
0000
0001
0300
0000
0100
0000
0020
0000
0000
1000
0030
0000
0010
0000
,
0200
0000
0000
0001
0300
0000
1000
0000
0001
1000
0001
1000
0001
1000
0001
0000
,
0100
0001
0100
0000
0002
0000
0013
0000
0001
1000
0010
0000
2000
0000
3100
0000
,
0010
0100
0010
0000
0200
0000
1300
0000
0001
0100
0001
0000
1000
0010
1000
0000
,
0001
0010
0001
0000
0020
0000
0130
0000
1000
0010
1000
0000
0200
0000
0310
0000
,
0001
1000
0010
0000
2000
0000
3002
0000
1003
0100
0010
0001
0010
0100
1000
0000
,
0010
0000
0000
0000
0000
0000
1000
0000
0100
0000
1000
0000
0100
0000
0000
0000
0000
0000
1000
0000
0000
0000
0000
0000
0010
0000
0000
1000
0000
0000
0010
0000
0000
0000
0000
0000
1000
0000
0000
0000
0000
0000
0001
0000
0000
0000
0000
0000
,
0010
0000
0000
0000
0000
0000
0001
0000
0100
0000
0001
0000
0100
0000
0000
0000
0000
0000
0001
0000
0000
0000
0000
0000
1000
0000
0000
0100
0000
0000
1000
0000
0000
0000
0000
0000
0001
0000
0000
0100
0000
0000
0001
0000
0000
0000
0000
0000
,
0021
0000
0000
0031
1000
0000
0100
0000
1200
0000
0000
1300
0001
0000
0100
0000
,
0210
0000
0000
0310
1000
0000
0001
0000
1000
0001
1000
0001
1000
0001
1000
0000
,
0010
1000
0001
1000
0100
0000
1100
0000
0010
0001
1000
0001
0100
0000
0101
0000
,
1000
0100
0010
0001
0100
0000
0110
0000
0100
0001
0010
0100
1000
0001
1000
0000
,
0010
1000
0010
1000
0001
0000
0010
0000
0100
0010
0100
0000
1000
0000
0001
0000
,
0010
0001
0010
0001
1000
0000
0010
0000
2001
0000
0010
0000
0001
0000
3100
0000
,
0110
0000
0010
0001
0020
0000
0100
0000
0130
0000
1000
0001
1000
0000
0010
0000
,
0110
0000
0100
0001
0200
0000
0010
0000
0010
0000
0301
1000
0001
0000
0010
0000
,
0011
0000
1000
0100
2000
0000
0010
0000
3010
0000
1000
0001
1000
0000
0001
0000
,
1002
0000
0100
0000
0100
0000
1003
0000
0100
0010
0001
0000
0010
0100
1000
0000
,
0010
0000
0000
0000
0000
0000
1000
0000
0001
0000
1000
0000
0002
0000
0000
0000
0000
0000
0010
0000
0000
0000
0000
0000
0013
0000
0000
0000
0000
0000
0001
0000
0000
1000
0000
0000
0001
0000
0000
0000
0000
0000
0100
0000
0000
0000
0000
0000
,
0101
0000
1000
0100
2000
0000
0010
0000
3010
0000
1000
0001
1000
0000
0100
0000
,
1100
0000
0000
0000
0000
0000
1000
0000
0000
0001
0000
0000
0020
0000
0000
0000
0000
0000
0100
0000
0000
0000
0000
0000
0130
0000
0000
0000
0000
0000
0010
0000
0001
0000
0010
0000
0001
0000
0000
0000
0000
0000
1000
0000
0000
0000
0000
0000
,
0001
0000
0000
0000
0000
0000
1001
0000
0000
0000
0000
0000
1001
0000
0000
0000
0000
0000
1000
0000
0000
0000
0000
0000
0010
0000
0000
0000
0000
0000
1000
0000
0000
0000
0100
0000
1000
0000
0000
0100
0000
0000
1000
0000
0000
0000
0000
0000
,
0010
1000
0010
0000
0100
0000
0001
0000
0010
0001
0010
0000
0100
0000
1000
0000
,
0010
1000
0001
0000
0100
0000
0002
0000
0010
0000
1000
0000
1000
0000
0013
0000
,
0001
0100
0001
0000
1000
0000
0010
0000
1000
0100
1000
0000
0001
0000
0010
0000
,
0100
1000
0001
1000
0001
0000
2000
0000
0010
0000
0001
0000
0001
0000
3010
0000
,
0100
0001
0010
0000
0100
0000
1000
0000
0100
1000
0010
0000
0100
0000
0001
0000
,
0100
0010
0100
0000
0100
0000
0010
0000
1000
0100
1000
0000
0001
0010
0001
0000
,
0100
0001
0100
0000
0001
0000
1000
0000
0100
1000
0100
0000
1000
0000
0010
0000
,
0100
0010
1000
0000
0010
0000
0100
0000
0001
0010
0100
1000
0010
0000
0100
0000
,
0101
0000
0000
0001
2000
0000
0100
0000
0100
0000
3010
1000
0010
0000
1000
0000
,
1100
0000
0000
1000
0002
0000
0010
0000
0013
0000
0001
0100
0001
0000
0100
0000
,
0110
0000
0000
0100
0020
0000
1000
0000
0130
0000
0001
0100
0001
0000
1000
0000
,
0100
0000
1000
0000
0001
0000
0100
0000
0010
1000
0010
0000
1000
0010
1000
0000
,
1010
0000
0000
0100
0002
0000
0010
0000
0013
0000
0001
1000
0001
0000
0010
0000
,
0011
0000
0000
0100
2000
0000
0010
0000
3010
0000
0100
0010
1000
0000
0001
0000
,
1001
0000
0000
0000
0000
0000
0000
0000
0000
0001
0000
0000
0200
0000
0000
0000
0000
0000
0010
0000
0000
0000
0000
0000
0310
0000
0000
0000
0000
0000
0100
0000
0001
0000
0100
0000
0001
0000
0000
0000
0000
0000
0010
0000
0000
0000
0000
0000
,
0001
0000
1001
0000
1001
0000
1000
0000
0100
0010
0001
0000
0010
0100
1000
0000
,
0200
0000
0000
1000
0000
1300
0001
0000
0020
0000
0000
0001
0000
0031
1000
0000
,
0002
0000
0000
0100
0000
0103
0001
0000
0010
0001
0010
0001
1000
0100
1000
0000
,
0020
1000
0000
0100
0000
1030
0001
0000
0200
0010
0000
0001
0000
0310
1000
0100
,
2000
0100
0000
0100
0000
3001
1000
0010
1000
0100
0010
0001
0010
0001
0100
0000
,
0001
0010
0000
0000
0001
0010
0000
0000
0001
0010
0000
0000
0001
0010
0000
0000
0001
0200
0000
0000
0000
0000
0300
0000
0010
2000
0000
0000
0000
0000
3000
0000
,
1000
0100
0000
0000
1000
0100
0000
0000
1000
0100
0000
0000
1000
0100
0000
0000
0010
0100
0000
0000
0010
0100
0000
0000
0010
0100
0000
0000
0010
0100
0000
0000
,
1000
0010
0000
0000
1000
0010
0000
0000
1000
0010
0000
0000
1000
0010
0000
0000
1000
0200
0000
0000
0000
0000
0300
0000
0010
0002
0000
0000
0000
0000
0003
0000
,
0011
0000
0000
0101
0000
0000
1010
0000
0000
1100
0000
0000
1001
0000
0000
0010
0000
1000
0000
0000
0010
1000
0000
0010
,
1000
0100
1000
0001
1000
0000
0010
0000
0100
0001
0100
0000
0001
0010
0001
0000
,
0010
0000
0011
0000
0001
0000
1001
0000
1000
0100
1000
0000
0010
0100
0010
0000
,
0100
0000
0100
0002
0000
0003
1000
0001
1000
0010
1000
0000
0001
0100
0001
0000
,
0102
0000
0000
1003
0000
0000
2100
0000
0000
3001
0000
0000
1001
0000
0000
0010
0000
0001
0000
0000
1000
0001
0000
1000
,
0200
0000
0000
0000
0000
0000
1300
0000
0000
0100
0000
0000
1000
0000
0000
0000
0000
0000
0010
0000
1000
0000
0010
0000
1000
0000
0000
0000
0000
0000
0001
0000
0000
0100
0000
0000
0001
0000
0000
0000
0000
0000
1001
0000
0000
0000
0000
0000
,
1000
0000
1010
0000
0000
0000
0110
0000
0100
0001
0010
0100
0000
1000
0001
0000
,
0100
0000
0000
0000
0000
0000
0001
0000
0000
0010
0000
0000
0000
0000
0000
0010
0000
0000
0001
0000
1000
0000
0001
0000
1000
0000
0000
0100
0000
0000
0000
0000
0000
1000
0000
0000
0001
0000
0000
0100
0000
0000
0001
0000
0000
0000
0000
0000
,
0022
0000
0033
0000
0220
0000
0330
0000
2200
0000
3300
0000
2002
0000
3003
0000
0001
0010
0000
0000
0100
1000
0000
0000
1000
0010
0000
0000
0100
0001
0000
0000
,
0100
0001
0010
0020
0001
0000
0130
0000
0010
0001
1000
0100
1000
0000
1100
0000
,
0100
1000
0010
0020
1000
0000
0130
0000
0001
0010
0100
1000
0010
0000
0110
0000
,
1000
0000
0000
0010
0000
0000
1000
0000
0001
0000
1000
0000
0001
0000
0000
0000
0000
0000
0100
0000
0000
0000
0000
0000
0001
0000
0000
0100
0000
0000
0001
0000
1000
0000
0001
0000
1000
0000
0000
0010
0000
0000
0100
0000
0000
0000
0000
0000
,
0001
0000
0000
1000
0000
0000
0100
0000
0010
0000
0100
0000
0010
0000
0000
0100
0000
0000
1000
0000
0000
0010
0000
0000
0100
0000
0000
0001
0000
0000
0100
0000
0000
0001
0000
0000
1000
0000
0000
0000
0000
0000
1001
0000
0000
0000
0000
0000
,
0010
1000
0100
2000
0010
0000
3001
0000
0100
0001
0010
0002
0100
0000
1003
0000
,
0010
1000
0001
0010
0200
0000
0310
0000
0001
0010
0100
0000
1000
0100
0010
0000
,
0001
0010
0002
0000
0100
0000
1003
0000
0010
1000
0100
1000
0010
0000
0110
0000
,
1000
0010
2000
0000
0100
0000
3001
0000
0010
0100
1000
0001
0010
0100
1000
0000
,
0010
1000
0001
0100
0001
0000
0101
0000
0010
0001
1000
0100
1000
0000
1100
0000
,
1000
0001
0100
0010
0100
0000
0110
0000
1000
0010
1000
0010
0100
0001
0100
0000
,
0010
1000
0100
0000
1100
0000
1001
0000
0010
0001
0100
0000
0101
0000
1001
0000
,
0100
0010
1000
0001
0010
0100
0010
0000
0100
0010
0001
1000
0010
0100
0010
0000
,
0100
0001
0100
0001
0200
0000
0010
0000
0310
1000
0010
1000
0020
0000
0100
0000
,
0130
0001
1000
0100
0010
0000
0110
0000
0010
0001
1000
0010
0100
0100
0001
0000
,
0011
0000
1000
0100
1000
0000
0010
0000
1010
0000
0100
0000
0001
0000
1000
0000
,
0010
1000
0001
0010
0100
0000
0110
0000
0010
0001
1000
0001
0100
0010
1000
0000
,
2020
0000
3030
0000
0000
0000
0000
0000
0022
0000
0033
0000
0000
0000
0000
0000
1001
0000
0000
0220
0000
0000
0000
0000
0000
0000
0000
0000
0000
0000
0000
0000
,
0330
0000
0000
0000
;
