#TITLE:PULSE;
#SUBTITLE:;
#ARTIST:319;
#TITLETRANSLIT:;
#SUBTITLETRANSLIT:;
#ARTISTTRANSLIT:;
#GENRE:Funny;
#CREDIT:8Chasey;
#MUSIC:PULSE.ogg;
#BANNER:PULSE-bn.png;
#BACKGROUND:PULSE-bg.png;
#CDTITLE:VivaldiCD.png;
#SAMPLESTART:61.320;
#SAMPLELENGTH:12.000;
#SELECTABLE:YES;
#OFFSET:-0.421;
#BPMS:0.000=130.030;
#STOPS:;
#BGCHANGES:;
#FGCHANGES:;

//--------------- dance-single - 8Chasey ----------------
#NOTES:
     dance-single:
     8Chasey:
     Beginner:
     2:
     0,0,0,0,0:
0000
0000
0000
0000
,
0000
0000
0000
0000
,
0000
0000
0000
0000
,
0000
0000
0000
0000
,
0001
0000
0001
0000
,
1000
0000
1000
0000
,
0001
0000
1000
0000
,
1001
0000
0000
0100
,
0100
0000
0010
0000
,
1000
1000
1000
0000
,
0100
0000
0010
0000
,
0001
0001
0001
0000
,
1000
0000
0010
0000
,
1000
0000
1001
0000
,
0001
0000
0100
0000
,
0001
0000
0110
0000
,
0001
0001
0001
0000
,
1000
1000
1000
0000
,
0010
0010
0010
0000
,
0100
0100
0100
0000
,
2002
0000
0000
0000
,
3003
0000
0000
0000
,
1001
0000
0000
0000
,
0001
0000
0000
0000
,
1001
0000
0000
0000
,
1000
0000
0110
0000
,
0010
0010
0010
0000
,
0010
0000
0100
0000
,
0100
0100
0100
0000
,
0010
0000
1001
0000
,
0001
0000
1000
0000
,
0100
0100
0100
0000
,
1000
0000
0001
0000
,
0010
0010
0010
0000
,
0110
0000
0000
0000
,
0100
0100
0100
0000
,
0001
0000
0100
0000
,
0010
0010
0010
0000
,
1000
0000
0100
0000
,
1001
0000
0001
0000
,
1000
1000
1000
0000
,
0010
0000
1000
0000
,
0001
0001
0001
0000
,
1000
1000
1000
0000
,
0010
0010
0010
0000
,
0100
0100
0100
0000
,
0001
0001
0001
0000
,
2002
0000
0000
0000
,
3003
0000
0000
0000
;

//--------------- dance-single - 8Chasey ----------------
#NOTES:
     dance-single:
     8Chasey:
     Easy:
     4:
     0,0,0,0,0:
0000
0000
0000
0000
,
0000
0000
0000
0000
,
0000
0000
0000
0000
,
0000
0000
0000
0000
,
0001
0100
0001
0001
,
1000
0100
0010
0001
,
1000
0100
1000
1000
,
2002
0000
0000
3003
,
0001
0100
0001
0010
,
0100
0100
1000
0001
,
1000
0100
1000
0010
,
0110
0000
1001
0000
,
0001
0010
0001
0001
,
1000
1000
0001
0001
,
1000
0010
1000
1000
,
0020
0000
0230
0000
,
0301
0000
0100
0101
,
1000
0000
0100
1100
,
0010
0000
0000
0010
0000
0000
0010
0000
0000
0010
0000
0000
0010
0000
0000
0000
,
0100
0000
0000
0100
0000
0000
0100
0000
0000
0100
0000
0000
0100
0000
0000
0000
,
2002
0000
0000
0000
,
3003
0000
0000
0000
,
0002
0000
0003
0001
,
2000
0000
3000
1000
,
0200
0000
0300
0010
,
0020
0000
0130
1001
,
0100
0001
0010
0010
,
0100
1000
0010
0010
,
1000
0001
0100
0010
,
1001
0000
0001
1000
,
0010
0010
1000
0001
,
0100
0100
0010
1001
,
1000
0100
0010
0001
,
1000
0100
0010
0001
,
0220
0000
0000
0330
,
1000
0001
0100
0110
,
1000
0001
1000
1001
,
0001
1000
0100
0010
,
1001
0000
0110
0000
,
0001
0100
0010
0010
,
1000
1000
0001
0001
,
1000
0100
0010
0010
,
0100
1000
0100
0001
,
0100
0000
0010
0011
,
0100
0000
0010
1010
,
0100
0000
0000
0100
0000
0000
0100
0000
0000
0100
0000
0000
0100
0000
0000
0000
,
0010
0000
0000
0010
0000
0000
0010
0000
0000
0010
0000
0000
0010
0000
0000
0000
,
2002
0000
0000
0000
,
3003
0000
0000
0000
;

//--------------- dance-single - 8Chasey ----------------
#NOTES:
     dance-single:
     8Chasey:
     Medium:
     5:
     0,0,0,0,0:
0000
0000
0000
0000
,
0000
0000
0000
0000
,
0000
0000
0000
0000
,
0000
0000
0000
0000
,
0001
0000
0000
1000
0000
0000
0100
0000
0000
1000
0000
0000
0001
0000
0000
0000
,
1000
0000
0000
0001
0000
0000
0010
0000
0000
0001
0000
0000
1000
0000
0000
0000
,
0010
0000
0000
0100
0000
0000
0010
0000
0000
0100
0000
0000
0010
0000
0000
0000
,
2002
0000
3003
1001
,
0001
0000
0001
0000
0010
0001
0010
0000
,
0100
1000
0010
0000
0100
0000
0001
0000
,
1000
0000
1000
0000
0010
1000
0010
0000
,
0100
0001
1000
0010
,
1000
0000
0100
0000
1000
0010
1000
0000
,
0001
1100
1000
0101
,
0001
0000
0100
0000
0001
0010
0001
0000
,
0200
0010
0010
0310
,
0100
0000
0000
0100
0000
0000
0100
0000
0000
0100
0000
0000
0100
0000
0000
0000
,
0010
0000
0000
0010
0000
0000
0010
0000
0000
0010
0000
0000
0010
0000
0000
0000
,
0001
0000
0000
0001
0000
0000
1000
0000
0000
1000
0000
0000
0100
0000
0000
0000
,
1000
0001
1000
0001
,
2002
0000
0000
0000
,
3003
0000
0000
0000
0000
0000
0010
0001
,
0020
0000
0000
0000
0031
0000
1000
0100
,
2000
0000
0000
0000
3010
0000
0100
0001
,
0200
0000
0000
0000
0301
0000
0010
0010
,
0002
0000
1003
0110
,
0001
0000
0000
1001
0000
0000
0001
0000
,
1000
0000
0000
1001
0000
0000
1000
0000
,
0010
0000
0000
0110
0000
0000
0100
0000
,
0001
0000
1000
0000
0001
1000
0001
1000
,
1100
1000
0001
0100
,
0101
0010
1000
0001
,
0100
0200
0310
0020
,
1030
0100
0010
0001
,
0220
0000
0000
0330
,
1000
0000
0001
0000
0100
0001
0010
0000
,
0001
1100
1000
0101
,
0001
0000
1000
0000
0100
1000
0010
0000
,
0100
0100
0010
0010
,
0100
0000
0001
0000
0010
0100
1000
0000
,
0010
1001
0100
0110
,
0100
0000
0001
0000
0010
0100
1000
0000
,
0001
1000
0010
1001
,
0010
0000
0000
0010
0000
0000
0010
0000
0000
0010
0000
0000
0010
0000
0000
0000
,
0100
0000
0000
0100
0000
0000
0100
0000
0000
0100
0000
0000
0100
0000
0000
0000
,
1000
0000
0000
1000
0000
0000
0001
0000
0000
0001
0000
0000
0100
0000
0000
0000
,
0001
1000
0001
1001
,
2002
0000
0000
0000
,
3003
0000
0000
0000
;

//--------------- dance-single - 8Chasey ----------------
#NOTES:
     dance-single:
     8Chasey:
     Hard:
     7:
     0,0,0,0,0:
0000
0000
0000
0000
,
0000
0000
0000
0000
,
0000
0000
0000
0000
,
0000
0000
0000
0000
,
0001
0000
0000
0010
0000
0000
0010
0000
0000
0001
0000
0000
1000
0000
0001
0000
,
1000
0000
0000
0010
0000
0000
0010
0000
0000
1000
0000
0000
0001
0000
1000
0000
,
0100
0000
0000
1000
0000
0000
0001
0000
0000
0100
0000
0000
0010
0000
0100
0000
,
2002
3003
0001
1000
,
0100
0000
0000
1000
0000
0000
0100
0000
0000
1000
0000
0000
0010
0000
0000
0000
,
0101
1100
0011
1010
,
0100
0000
0000
0001
0000
0000
0100
0000
0000
0001
0000
0000
0010
0000
0000
0000
,
0001
0100
0002
0000
1003
0010
2000
0000
,
3100
0000
1010
0000
1000
0001
0010
0000
,
0011
1010
0101
1100
,
0100
0000
0011
0000
0001
1000
0010
0000
,
0100
0001
0200
0000
0310
1000
0020
0000
,
0130
0000
0000
0100
0000
0000
0100
0000
0000
0100
0000
0000
0100
0000
0000
0000
,
0010
0000
0000
0010
0000
0000
0010
0000
0000
0010
0000
0000
0010
0000
0000
0000
,
1000
0000
0000
0100
0000
0000
0001
0000
0000
0100
0000
0000
0010
0000
0000
0000
,
0001
0000
0000
0101
0000
0000
1000
0000
0000
1100
0000
0000
0010
0000
0100
0000
,
2002
0000
0000
0000
,
3003
0000
0000
0000
0000
0000
0001
1000
,
0002
0000
0000
0000
0003
0000
1000
0001
,
2000
0000
0000
0000
3000
0000
0010
1000
,
0020
0000
0000
0000
0030
0000
0100
0001
,
0200
0000
0310
0110
,
1000
0000
0000
1000
0000
0000
1001
0000
0000
0000
0001
0000
0100
0000
0100
0000
,
0001
0000
0000
0001
0000
0000
1001
0000
0000
0000
1000
0000
0010
0000
0010
0000
,
0100
0000
0000
0100
0000
0000
0001
0000
0000
0000
1000
0000
0010
0000
1000
0000
,
0100
0000
0000
0100
0000
0000
0100
0000
0000
0100
0000
0000
1000
0000
0001
0000
,
0020
0000
0031
1000
0200
0000
0310
0000
,
0110
0000
0001
1000
0100
1000
0001
0000
,
0100
0000
0000
0100
0000
0000
0001
0000
0000
0001
0000
0000
1000
0000
1000
0000
,
1100
1010
0101
0011
,
0220
0000
0000
0330
,
0100
0000
0000
1000
0000
0000
0010
0000
0000
0100
0000
0000
0010
0000
0000
0000
,
0101
1010
1100
0011
,
0100
0000
0000
0001
0000
0000
0010
0000
0000
0100
0000
0000
0010
0000
0000
0000
,
0001
0100
0001
0001
1000
0010
1000
1000
,
0100
0000
0000
1000
0000
0000
1010
0000
0000
0100
0000
0000
0001
0000
0010
0000
,
0011
1010
1100
0101
,
0100
0000
0000
0001
0000
0000
0011
0000
0000
0100
0000
0000
1000
0000
0010
0000
,
0100
0001
0010
0010
0100
1000
0010
0010
,
0001
0000
0000
0001
0000
0000
0001
0000
0000
0001
0000
0000
0001
0000
0000
0000
,
1000
0000
0000
1000
0000
0000
1000
0000
0000
1000
0000
0000
1000
0000
0000
0000
,
0001
0000
0000
0100
0000
0000
1000
0000
0000
0100
0000
0000
0010
0000
0000
0000
,
1000
0000
0000
1100
0000
0000
0001
0000
0000
0101
0000
0000
0010
0000
0100
0000
,
2002
0000
0000
0000
,
3003
0000
0000
0000
;

//--------------- dance-single - Vivaldi ----------------
#NOTES:
     dance-single:
     Vivaldi:
     Challenge:
     10:
     0,0,0,0,0:
0000
0000
0000
0000
,
0000
0000
0000
0000
,
0000
0000
0000
0000
,
1000
0000
0100
0000
0010
0000
1001
0101
,
1000
0000
0000
0010
0000
0000
1000
0000
0000
0100
0000
0000
1000
0000
0001
0000
,
1000
0000
1000
0001
0000
1000
0010
0000
1000
0100
0000
1000
0001
0000
1000
0000
,
0001
0000
0000
1000
0000
0000
0100
0000
0000
0001
0000
0000
0100
0000
0010
0000
,
2010
0000
0001
0000
0100
0000
3200
0010
,
0301
0000
0000
1000
0000
0000
0100
0000
0000
1000
0000
0000
0100
0000
1000
0000
,
0001
1000
0100
1000
0001
1000
0010
1000
0001
1000
0100
1000
0001
1000
0010
1000
,
0001
0000
1000
0001
0000
1000
0001
0000
1000
0001
1000
0000
0001
0000
0001
0000
,
0010
0001
1000
0010
1010
0001
1001
0100
,
1000
0000
0000
0001
0000
0000
1000
0000
0000
0100
0000
0000
0010
0000
0001
0000
,
1000
0001
0010
0001
1000
0001
0100
0001
1000
0001
0010
0001
1000
0001
0100
0001
,
1000
0000
0001
1000
0000
0001
1000
0000
0001
1000
0001
0000
0100
0000
0010
0000
,
0001
0010
0100
1000
0100
0010
0001
1000
,
0001
0000
0000
1001
0000
0000
0100
0000
0000
0110
0000
0000
1001
0000
0000
0000
,
1001
0000
0000
1010
0000
0000
1100
0000
0000
1001
0000
0000
1001
0000
0000
0000
,
0002
0000
0000
0023
0000
0000
0230
0000
0000
2300
0000
0000
3200
0000
0000
0300
,
1000
0000
0100
1000
0000
0000
1100
0000
0100
1000
0000
0000
0001
0000
1000
0000
,
0020
0000
0000
0000
0031
0010
0100
1000
0100
0000
1001
0000
0100
1000
0100
0010
,
0001
0000
0000
1001
0000
0000
0001
1000
,
1000
0000
1000
0001
0001
0000
0001
1000
,
0010
0000
0010
0001
1000
0000
0001
1000
,
0010
0000
1000
0001
0100
0000
0100
1000
,
1002
0000
1000
1000
0013
0100
1000
0100
,
1100
0001
1100
0001
1100
0001
0100
1000
,
0101
1000
0101
1000
0101
1000
0101
1000
,
1100
0001
1100
0001
1100
0001
1100
1000
,
0101
1000
0101
1000
0101
1000
0101
1000
,
1010
0000
0001
0000
0100
0000
0001
0000
1000
0001
1000
0000
0001
0000
1000
0000
,
0010
0000
1000
0000
0100
0000
1000
0000
0100
1000
0100
0000
1000
0000
0001
0000
,
0010
0100
1000
0000
0100
1000
0010
0000
,
0001
1000
0001
1000
0100
1000
0100
1000
0010
1000
0010
1000
0001
1000
0001
0000
,
1002
0000
0100
0000
0010
0000
1000
0000
0100
0000
0010
0000
2000
0000
0000
0003
,
3010
0000
0010
1000
0000
1000
0100
0000
0100
1000
0000
0000
1000
0000
0001
0000
,
0001
1000
0010
1000
0001
1000
0100
1000
0001
1000
0010
1000
0001
1000
0100
1000
,
0001
0000
1000
0100
0000
1000
0001
0000
1000
0100
1000
0000
1000
0000
0010
0000
,
1001
1100
1001
1010
,
0001
0000
1000
0001
0000
0001
1000
0000
1000
0100
0000
0000
1000
0000
0001
0000
,
1000
0001
0010
0001
1000
0001
0100
0001
1000
0001
0010
0001
1000
0001
0100
0001
,
1000
0000
0001
0100
0000
0001
1000
0000
0001
0100
0001
0000
1000
0000
0010
0000
,
0100
0001
1001
0001
0101
0000
1001
0000
,
0100
0000
0000
0010
0000
0000
0001
0000
0000
1100
0000
0000
1001
0000
0000
0000
,
0011
0000
0000
0110
0000
0000
1001
0000
0000
1001
0000
0000
1010
0000
0000
0000
,
1010
0000
0000
1100
0000
0000
1001
0000
0000
0110
0000
0000
0001
0000
0000
0000
,
0001
0010
0100
1000
0100
1000
0100
0010
0001
1000
0100
1000
0001
0100
0000
0000
,
2001
0001
0001
0001
0010
0010
0100
3100
,
2200
0000
0000
0000
0000
0000
0000
0000
0000
0000
0000
0000
0000
0000
0000
3300
;

//--------------- dance-double - 8Chasey ----------------
#NOTES:
     dance-double:
     8Chasey:
     Easy:
     3:
     0,0,0,0,0:
00000000
00000000
00000000
00000000
,
00000000
00000000
00000000
00000000
,
00000000
00000000
00000000
00000000
,
00000000
00000000
00000000
00000000
,
00010000
00001000
00010000
00000000
,
00000100
00000100
00000100
00000000
,
00000010
00000100
00000010
00000000
,
00002002
00000000
00000000
00003003
,
00000001
00001000
00000001
00001000
,
00000100
00000100
00000100
00000000
,
00010000
00001000
00010000
00001000
,
00100000
00100000
00100000
00000000
,
00010000
10000000
00010000
10000000
,
01000000
01000000
01000000
00000000
,
00100000
01000000
00100000
00000000
,
00001000
00010000
00001000
00000000
,
00010000
00000000
00001000
00011000
,
00001000
00000000
00010000
00011000
,
00100000
00000000
01000000
01100000
,
10000000
00000000
00010000
10010000
,
20020000
00000000
00000000
00000000
,
30030000
00000000
00000000
00000000
,
00200000
00000000
00300000
00000000
,
00002000
00000000
00003000
00000000
,
00020000
00000000
00030000
00000000
,
00000020
00000000
00000130
00000110
,
00001000
00001000
00001000
00000000
,
00000001
00000001
00000001
00000000
,
00000100
00000010
00000100
00000010
,
00001001
00000001
00001000
00000010
,
00000110
00000000
00010000
00001000
,
00010000
00000000
00001000
00010000
,
00002000
00000000
00103000
00000000
,
00010000
10000000
00010000
10000000
,
20020000
00000000
00000000
30030000
,
00100000
00001000
00100000
00001000
,
00010000
00010000
00010000
00000000
,
00000100
00001000
00000100
00001000
,
00000010
00001000
00000001
00000010
,
00000100
00000100
00000100
00000000
,
00010000
00001000
00010000
00001000
,
00100000
00100000
00100000
00000000
,
01000000
01000000
01000000
01000000
,
10000000
00000000
01000000
11000000
,
00010000
00000000
01000000
01010000
,
00100000
00000000
01000000
01100000
,
10000000
01000000
00100000
00001000
,
00022000
00000000
00000000
00000000
,
00033000
00000000
00000000
00000000
;

//--------------- dance-double - 8Chasey ----------------
#NOTES:
     dance-double:
     8Chasey:
     Medium:
     5:
     0,0,0,0,0:
00000000
00000000
00000000
00000000
,
00000000
00000000
00000000
00000000
,
00000000
00000000
00000000
00000000
,
00000000
00000000
00000000
00000000
,
00001000
00000000
00000000
00100000
00000000
00000000
00001000
00000000
00000000
00100000
00000000
00000000
00001000
00000000
00000000
00000000
,
00010000
00000000
00000000
00000010
00000000
00000000
00010000
00000000
00000000
00000010
00000000
00000000
00010000
00000000
00000000
00000000
,
00000001
00000000
00000000
00001000
00000000
00000000
00000001
00000000
00000000
00001000
00000000
00000000
00000001
00000000
00000000
00000000
,
00000200
00000010
00000310
00000110
,
00001000
00000000
00000010
00000000
00001000
00000100
00001000
00000000
,
00000010
00010000
00001000
00000000
00010000
00000000
00011000
00000000
,
00100000
00000000
00010000
00000000
10000000
00010000
10000000
00000000
,
00020000
01000000
10000000
01030000
,
00100000
00000000
10000000
00000000
00010000
10000000
00010000
00000000
,
00100000
00001000
00010000
00011000
,
00010000
00000000
00000100
00000000
00001000
00000010
00001000
00000000
,
00000020
00000100
00001000
00000130
,
00000001
00000000
00000000
00000001
00000000
00000000
00000001
00000000
00000000
00000001
00000000
00000000
00000001
00000000
00000000
00000000
,
00001000
00000000
00000000
00001000
00000000
00000000
00001000
00000000
00000000
00001000
00000000
00000000
00001000
00000000
00000000
00000000
,
00000010
00000000
00000000
00000010
00000000
00000000
00000010
00000000
00000000
00000010
00000000
00000000
00000010
00000000
00000000
00000000
,
00000100
00000000
00000000
00000100
00000000
00000000
00000001
00000000
00000000
00000100
00000000
00000000
00001000
00000000
00010000
00000000
,
00022000
00000000
00000000
00000000
,
00033000
00000000
00000000
00000000
00000000
00000000
00001000
00100000
,
00002000
00000000
00000000
00000000
00003000
00000000
01000000
00010000
,
02000000
00000000
00000000
00000000
03000000
00000000
00100000
10000000
,
00200000
00000000
00000000
00000000
00300000
00000000
10000000
01000000
,
20000000
00000000
30010000
10010000
,
00100000
00001000
00100000
00100000
,
00001000
00010000
00000100
00001000
,
00000010
00001000
00000010
00000010
,
00001000
00000000
00000001
00000000
00001000
00000001
00001000
00000001
,
00000101
00001000
00000100
00010000
,
00011000
00000000
00100000
00000000
00010000
10000000
01000000
00000000
,
11000000
00100000
00010000
01000000
,
00110000
10010000
10100000
01100000
,
20020000
00000000
00000000
30030000
,
00100000
00000000
00001000
00000000
00010000
00001000
00010000
00000000
,
00000100
00000000
00001000
00000001
00001000
00000000
00001001
00000000
,
00000010
00000000
00000001
00000000
00000100
00000001
00001000
00000000
,
00000100
00010000
00001000
00000000
00100000
00000000
00110000
00000000
,
10000000
00000000
00100000
00000000
10000000
00010000
01000000
00000000
,
00100000
01000000
00100000
00000000
01000000
00000000
10010000
00000000
,
00100000
00001000
00010000
00000000
00000100
00000000
00001000
00000000
,
00000001
00001000
00000010
00000110
,
00000100
00000000
00000000
00000100
00000000
00000000
00000100
00000000
00000000
00000100
00000000
00000000
00000100
00000000
00000000
00000000
,
00000010
00000000
00000000
00000010
00000000
00000000
00000010
00000000
00000000
00000010
00000000
00000000
00000010
00000000
00000000
00000000
,
00001000
00000000
00000000
00001000
00000000
00000000
00000001
00000000
00000000
00000001
00000000
00000000
00000100
00000000
00000000
00000000
,
00000010
00000000
00000000
00000010
00000000
00000000
00010000
00000000
00000000
00010000
00000000
00000000
00001000
00000000
00000000
00000000
,
00022000
00000000
00000000
00000000
,
00033000
00000000
00000000
00000000
;

//--------------- dance-double - 8Chasey ----------------
#NOTES:
     dance-double:
     8Chasey:
     Hard:
     8:
     0,0,0,0,0:
00000000
00000000
00000000
00000000
,
00000000
00000000
00000000
00000000
,
00000000
00000000
00000000
00000000
,
00000000
00000000
00000000
00000000
,
00001000
00000000
00000000
00000100
00000000
00000000
00001000
00000000
00000000
00000100
00000000
00000000
00010000
00000000
00001000
00000000
,
01000000
00000000
00000000
00010000
00000000
00000000
00100000
00000000
00000000
00010000
00000000
00000000
10000000
00000000
10000000
00000000
,
01000000
00000000
00000000
00100000
00000000
00000000
00001000
00000000
00000000
00010000
00000000
00000000
00001000
00000000
00010000
00000000
,
00022000
00033000
00010000
00000100
,
00001000
00000000
00000000
00000010
00000000
00000000
00001000
00000000
00000000
00000010
00000000
00000000
00001000
00000000
00000001
00000000
,
00000101
00001010
00010100
00101000
,
00010000
00000000
00000000
00001000
00000000
00000000
00100000
00000000
00000000
00010000
00000000
00000000
10000000
00000000
00010000
00000000
,
00100000
00001000
02000000
00010000
03010000
10000000
01000000
00100000
,
00010000
00000000
00000000
00100000
00000000
00000000
00010000
00000000
00000000
00100000
00000000
00000000
00010000
00000000
10000000
00000000
,
11000000
00110000
01100000
10010000
,
00100000
00000000
00000000
00001000
00000000
00000000
00010000
00000000
00000000
00000100
00000000
00000000
00001000
00000000
00000001
00000000
,
00000010
00000001
00000200
00000001
00000301
00001000
00000100
00000010
,
00000200
00000000
00000000
00010000
00000000
00000000
00010000
00000000
00000000
00010000
00000000
00000000
00010300
00000000
00001000
00000000
,
02000000
00000000
00000000
00001000
00000000
00000000
00001000
00000000
00000000
00001000
00000000
00000000
03001000
00000000
00100000
00000000
,
00010000
00000000
00000000
10010000
00000000
00000000
10000000
00000000
00000000
00100000
00000000
00000000
01100000
00000000
01000000
00000000
,
00010000
00100000
00000000
00010000
00100000
00000000
00001000
00010000
00000000
00001000
00010000
00000000
00000100
00000000
00001000
00000000
,
00002020
00000000
00000000
00000030
00000010
00000000
00000001
00000001
,
00003002
00000000
00000000
00001000
00000000
00000000
00001003
00000100
,
00020000
00000000
00000100
00000000
00031000
00000000
00100000
00100000
,
00002000
00000000
01000000
00000000
00013000
00000000
00000100
00000010
,
00000002
00000000
00000100
00000000
00001003
00000000
00000010
00010000
,
00002000
00103000
10010000
01100000
,
10000000
00000000
00000000
00010000
00100000
00000000
00110000
00000000
00000000
00000000
00100000
00000000
00001000
00000000
00010000
00000000
,
00000100
00000000
00000000
00001000
00000010
00000000
00001010
00000000
00000000
00000000
00000100
00000000
00000001
00000000
00001000
00000000
,
00001001
00000000
00000000
00001000
00000100
00000000
00000020
00000000
00000100
00000000
00000130
00000000
00000010
00000000
00000100
00000000
,
00010000
00000000
00000000
00001000
00000000
00000000
00100000
00000000
00000000
00010000
00000000
00000000
10000000
00000000
00100000
00000000
,
10100000
00000000
02000000
00000000
03010000
00100000
00010000
01000000
,
01010000
00000000
00200000
00000000
00301000
00010000
00000100
00000100
,
00001000
00000000
00000000
00001001
00000000
00000000
00000001
00000000
00000000
00000100
00000010
00000000
00000100
00000000
00000001
00000000
,
00001000
00000010
00001000
00000000
00000100
00010000
00000100
00000000
00010000
00001000
00010000
00000000
00001000
00000000
00100000
00000000
,
02000000
10000000
10000000
10000000
23000000
00000000
30010000
00000000
,
00100000
00000000
00000000
00101000
00000000
00000000
00001000
00000000
00000000
00010000
00000000
00000000
00000100
00000000
00001000
00000000
,
00000011
00001100
00011000
01100000
,
00100000
00000000
00000000
00001000
00000000
00000000
00100000
00000000
00000000
01000000
00000000
00000000
00010000
00000000
00001000
00000000
,
00020000
00000100
00030100
00001000
00000002
00000100
00000103
00000010
,
00001000
00000000
00000000
00001010
00000000
00000000
00000001
00000000
00000000
00000101
00000000
00000000
00000010
00000000
00000100
00000000
,
00010000
00001000
00100000
00001000
01000000
00010000
10000000
01000000
,
00100000
00000000
00000000
00001000
00000000
00000000
00101000
00000000
00000000
00010000
00000000
00000000
00000100
00000000
00001000
00000000
,
00000001
00000002
00001000
00001003
00000010
00002000
00000001
00003001
,
00000100
00000000
00000000
00000010
00000000
00000000
00010000
00000000
00000000
00001000
00000000
00000000
00011000
00000000
00000000
00000000
,
00100000
00000000
00000000
01000000
00000000
00000000
00010000
00000000
00000000
00001000
00000000
00000000
00011000
00000000
00000000
00000000
,
00110000
00000000
00000000
00011000
00000000
00000000
00001010
00000000
00000000
00001001
00000000
00000000
00000101
00000000
00000000
00000000
,
00000100
00000001
00000000
00000100
00000001
00000000
00001000
00000010
00000000
00001000
00000010
00000000
00010000
00000000
00001000
00000000
,
00022000
00000000
00000000
00000000
,
00033000
00000000
00000000
00000000
;

//--------------- dance-double - 8Chasey (based on Single CHALLENGE) ----------------
#NOTES:
     dance-double:
     8Chasey (based on Single CHALLENGE):
     Challenge:
     10:
     0,0,0,0,0:
00000000
00000000
00000000
00000000
,
00000000
00000000
00000000
00000000
,
00001000
00000000
00100000
00001000
00000000
00000000
00010000
00000000
00000100
00010000
00000000
00000000
00000010
00000000
00000100
00000000
,
00000001
00000000
00000010
00000000
00000100
00000000
00001100
00001010
,
00000010
00000000
00000000
00001000
00000000
00000000
00000100
00000000
00000000
00010000
00000000
00000000
00001000
00000000
00100000
00000000
,
00010000
00000000
00010000
01000000
00000000
00010000
10000000
00000000
10000000
01000000
00000000
10000000
00100000
00000000
01000000
00000000
,
00010000
00000000
00000000
00100000
00000000
00000000
00001000
00000000
00000000
00010000
00000000
00000000
00000100
00000000
00000010
00000000
,
00000012
00000100
00001000
00000203
,
00001300
00000000
00010000
00001000
00000000
00000000
00100000
00000000
00001000
00100000
00000000
00000000
01000000
00000000
10000000
00000000
,
00010000
00100000
00010000
10000000
01000000
00100000
01000000
10000000
00010000
01000000
00010000
00100000
01000000
10000000
00100000
01000000
,
00010000
00000000
00100000
00001000
00000000
00010000
00001000
00000000
01000000
00001000
00010000
00000000
00000100
00000000
00000100
00000000
,
00001000
00000010
00000100
00000001
00000001
00000010
00000100
00010000
,
00011000
00000000
00000000
00100000
00000000
00000000
00010000
00000000
10000000
00010000
10000000
00000000
01000000
00000000
10000000
00000000
,
00100000
01000000
00010000
01000000
00100000
10000000
00010000
10000000
01000000
10000000
00010000
00100000
01000000
00100000
00010000
01000000
,
00001000
00000000
00010000
00000010
00000000
00001000
00000001
00000000
00000100
00000001
00000100
00000000
00001000
00000000
00010000
00000000
,
00002000
00100000
00103000
00010000
20000000
01000000
31000000
00100000
,
00002000
00000000
00000000
00100000
00000000
00000000
00010000
00000000
00000000
01000000
00000000
00000000
00013000
00000000
00000100
00000000
,
00020000
00000000
00000000
00000010
00000000
00000000
00001000
00000000
00000000
00000100
00000000
00000000
00031000
00000000
00100000
00000000
,
00110000
00000000
00000000
11000000
00000000
00000000
10100000
00000000
00000000
01010000
00000000
00000000
00011000
00000000
00010000
00000000
,
00000100
00001000
00000010
00000100
00000001
00000010
00000100
00001000
00000001
00001000
00000010
00010000
00001000
00100000
00010000
10000000
,
00200000
00000000
10000000
01000000
02300000
00010000
03010000
01000000
,
00002000
00000000
00000000
00020000
00003000
00000000
00030100
00001000
,
00001001
00000000
00000010
00000001
00002000
00000000
00003010
00001000
,
00001100
00000000
00001000
00001000
00000002
00000000
00000103
00000001
,
00000101
00000000
00001000
00000010
00000200
00000000
00001300
00010000
,
00012000
00000000
01000000
00000000
00103000
00010000
00110000
00100000
,
01001000
00010000
01001000
00010000
01001000
00010000
01000000
00001000
,
00010100
00001000
00010100
00001000
00010100
00001000
00010100
00011000
,
00010010
00001000
00010010
00000000
00101000
00010000
00101000
00000000
,
01020000
00000000
00000000
00130000
00000000
00000000
00021000
00000000
00000000
00030100
00000000
00000000
00001000
00000010
00001000
00000000
,
00001002
00000000
00000000
00000000
00000013
00000001
00001000
00000000
00000100
00000000
00010000
00000000
00001000
00000000
00100000
00000000
,
00110000
00000000
00000000
01000000
00010000
00000000
00100000
00000000
00001000
00000000
00010000
00000000
00000100
00000000
00001000
00000000
,
00001010
00000000
00000000
00000100
00000001
00000000
00000100
00000000
00000010
00001000
00000010
00000000
00010000
00000000
00001000
00000000
,
00100000
00001000
00100000
00001000
01000000
00001000
01000000
00001000
00010000
00001000
00010000
00001000
00010000
00000100
00010000
00000010
,
00002000
00000010
00000001
00000100
00003002
00000000
00001003
00000100
,
00010000
00000000
00010000
00001000
00000000
00100000
00001000
00000000
01000000
00010000
01000000
00000000
00010000
00000000
10000000
00000000
,
00100000
10000000
01000000
00100000
00010000
00100000
00001000
00100000
00001000
00010000
00000100
00001000
00000100
00000010
00000001
00001000
,
00000010
00000000
00001000
00000001
00000000
00000001
00000010
00000000
00000001
00000100
00000001
00000000
00001000
00000000
00000100
00000000
,
00020000
00000000
00001000
00000000
00000100
00000000
00031000
00010000
00002000
00000000
01000000
00000000
00010000
00000000
00103000
00000000
,
00010000
00000000
10000000
00100000
00000000
00100000
10000000
00000000
01000000
10000000
00010000
00000000
00100000
00000000
00001000
00000000
,
00010000
00000100
00010000
00001000
00100000
00010000
10000000
00100000
01000000
00010000
00100000
01000000
10000000
00100000
01000000
00010000
,
00100000
00000000
00001000
00010000
00000000
00000100
00010000
00000000
00001000
00010000
00000100
00000000
00000010
00000000
00000001
00000000
,
00000100
00000001
00001000
00000100
00000010
00000100
00010000
00001000
,
00020000
00000000
00000000
00000010
00000000
00000000
00001000
00000000
00000000
00000100
00000000
00000000
00031000
00000000
01000000
00000000
,
00002000
00000000
00000000
00100000
00000000
00000000
00010000
00000000
00000000
01000000
00000000
00000000
00013000
00000000
00000010
00000000
,
00001010
00000000
00000000
00000101
00000000
00000000
00000011
00000000
00000000
00001100
00000000
00000000
00011000
00000000
00001000
00000000
,
01000000
00010000
00100000
01000000
10000000
00100000
01000000
00010000
10000000
00010000
00100000
00001000
00010000
00000010
00001000
00000001
,
00000010
00000000
00000100
00001000
00000100
00000000
00001001
00000000
00000100
00000001
00000100
00000000
00001000
00000000
00010000
00000000
,
00022000
00000000
00000000
00000000
00000000
00000000
00000000
00000000
00000000
00000000
00000000
00000000
00000000
00000000
00000000
00033000
;

//--------------- pump-single - pop'n music 5-Buttons chart ----------------
#NOTES:
     pump-single:
     pop'n music 5-Buttons chart:
     Easy:
     1:
     0,0,0,0,0:
00000
00000
00000
00000
,
00000
00000
00000
00000
,
00000
00000
00000
00000
,
00000
00000
00000
00000
,
00000
00000
00100
00000
00000
00100
00000
00000
,
00000
00100
00000
00100
,
00000
00000
00100
00000
00000
00100
00000
00000
,
00000
00000
00000
10000
,
00001
00000
00000
00100
00000
00000
10000
00000
,
00000
00000
00000
00000
,
00000
00000
00000
00000
,
10000
00000
00001
10000
,
00001
00000
00000
00100
00000
00000
10000
00000
,
00000
00000
00000
00000
,
00000
00000
00000
00000
,
00100
00000
00001
10000
,
00000
00000
00000
00000
,
10000
00000
00000
01000
00000
00000
00100
00000
00000
00010
00000
00000
00001
00000
00000
00000
,
00000
00000
00000
00000
,
10000
00000
00000
00000
,
00100
00000
00000
00000
,
00000
00000
00000
00001
,
00010
00000
00000
01000
,
10000
00000
00000
01000
,
00100
00000
00000
00100
,
00001
00000
00010
00000
,
00000
00000
00000
00000
,
10000
00100
00010
00001
,
00000
00000
00000
00000
,
10000
00100
00010
00001
,
00000
00000
00000
00000
,
10000
00100
00010
00001
,
00000
00000
00000
00000
,
10000
00001
10000
00001
,
00100
00000
00000
00000
,
00001
00000
00000
00100
00000
00000
10000
00000
,
00000
00000
00000
00000
,
00000
00000
00000
00000
,
00100
00000
00001
10000
,
00001
00000
00000
00100
00000
00000
10000
00000
,
00000
00000
00000
00000
,
00000
00000
00000
00000
,
00100
00000
00001
10000
,
00000
00000
00000
00000
,
10000
00000
00000
01000
00000
00000
00100
00000
00000
00010
00000
00000
00001
00000
00000
00000
,
00000
00000
00000
00000
,
10000
00000
00000
00000
,
00100
00000
00000
00000
;

//--------------- pump-single - pop'n music Wii Normal ----------------
#NOTES:
     pump-single:
     pop'n music Wii Normal:
     Medium:
     1:
     0,0,0,0,0:
00001
00000
00000
00000
,
10000
00000
00000
00000
,
00001
00000
00000
00000
,
00010
01000
00001
00000
,
00010
00000
00000
01000
00000
00000
00000
00000
,
00100
00000
00100
00000
,
00001
00000
00000
10000
00000
00000
00010
00000
,
01000
00001
00000
00010
,
00000
01000
00000
00000
,
00001
01000
00010
00000
,
00000
00000
00010
00000
00000
01000
00000
00000
,
00010
01000
00001
00000
,
00010
00000
00000
01000
00000
00000
00000
00000
,
00001
01000
00100
00000
,
00000
00000
00010
00000
00000
01000
00000
00000
,
10001
00000
00000
00000
,
10000
00000
00000
00100
00000
00000
00001
00000
,
01000
00000
00000
00010
00000
00000
00100
00000
,
10000
00000
00000
00100
00000
00000
00001
00000
,
01000
00000
00000
00010
00000
00000
00100
00000
,
10001
00000
00000
00000
,
00000
00000
00000
01000
,
00001
00000
00000
00010
,
10000
00000
00000
01000
,
00100
00000
00000
00010
,
00100
00000
01010
00000
,
10000
00010
01000
00000
,
00100
01000
00001
00000
,
10000
00001
00100
00000
,
00010
00000
00000
01000
00000
00000
00010
00000
,
10000
00010
01000
00000
,
00100
01000
00001
00000
,
10000
00001
00100
00000
,
10000
00001
01000
00010
,
00100
00000
00000
00000
,
00010
00000
00000
01000
00000
00000
00000
00000
,
00001
01000
00010
00000
,
00000
00000
00010
00000
00000
01000
00000
00000
,
10001
00000
00000
00000
,
00010
00000
00000
01000
00000
00000
00000
00000
,
00001
01000
00010
00000
,
00000
00000
00010
00000
00000
01000
00000
00000
,
10001
00000
00000
00000
,
10000
00000
00000
00010
00000
00000
00100
00000
,
00001
00000
00000
01000
00000
00000
00100
00000
,
10000
00000
00000
00001
00000
00000
00100
00000
,
10000
00000
00000
00001
00000
00000
00100
00000
,
01010
00000
00000
00000
;

//--------------- pump-single - pop'n music Wii Challenge ----------------
#NOTES:
     pump-single:
     pop'n music Wii Challenge:
     Hard:
     2:
     0,0,0,0,0:
00001
00000
00000
00100
00000
00000
01000
00000
,
10000
00000
00000
00100
00000
00000
00010
00000
,
00001
00000
00000
10000
00000
00000
00100
00000
,
00001
00000
10000
00000
00100
00000
01010
01010
,
00000
00000
00010
00000
00000
01000
00000
00000
,
00001
00010
10000
00100
,
00000
00000
00001
00000
00000
10000
00000
00000
,
00010
01000
00001
10000
,
00010
00000
00000
01000
00000
00000
00100
00000
00000
10000
00000
00000
00100
00000
00000
00000
,
00001
01000
00010
10000
,
00001
00000
00000
00100
00000
00000
00010
00000
00000
01000
00000
00000
00100
00000
00000
00000
,
00010
01000
00010
01000
00010
00000
10000
00000
,
00010
00000
00000
01000
00000
00000
00100
00000
00000
10000
00000
00000
00100
00000
00000
00000
,
00001
01000
00100
10000
,
00001
00000
00000
00100
00000
00000
00010
00000
00000
10000
00000
00000
00100
00000
00000
00000
,
10001
00000
00000
00100
,
10000
00000
00000
00100
00000
00000
01000
00000
00000
00100
00000
00000
00001
00000
00000
00000
,
01000
00000
00000
00010
00000
00000
01000
00000
00000
00001
00000
00000
00100
00000
00000
00000
,
10000
00000
00000
00100
00000
00000
10000
00000
00000
00100
00000
00000
00001
00000
00000
00000
,
01000
00000
00000
00010
00000
00000
01000
00000
00000
00010
00000
00000
01000
00000
00000
00000
,
10001
00000
00000
00000
,
01010
00000
00000
00100
00000
00000
00010
01000
,
00001
00000
00000
00000
00000
00000
01000
00010
,
10000
00000
00000
00000
00000
00000
00010
01000
,
00100
00000
00000
00000
00000
00000
01000
00010
,
00100
00000
01010
00100
,
10000
00010
01000
00001
,
00100
01000
00001
00100
,
10000
00001
00100
10000
,
00010
00000
00000
01000
00000
00000
00010
00000
00000
01000
00000
00000
00010
00000
00000
00000
,
10000
00010
01000
00001
,
00100
01000
00001
00100
,
10000
00001
00100
00000
,
10000
00001
01000
00010
,
10001
00000
00000
00000
,
00010
00000
00000
01000
00000
00000
00100
00000
00000
10000
00000
00000
00100
00000
00000
00000
,
00001
01000
00010
10000
,
00001
00000
00000
00100
00000
00000
00010
00000
00000
01000
00000
00000
00100
00000
00000
00000
,
10001
00000
00000
00100
,
00010
00000
00000
01000
00000
00000
00100
00000
00000
10000
00000
00000
00100
00000
00000
00000
,
00001
01000
00010
10000
,
00001
00000
00000
00100
00000
00000
00010
00000
00000
01000
00000
00000
00100
00000
00000
00000
,
10001
00000
00000
00100
,
10000
00000
00000
00100
00000
00000
01000
00000
00000
00010
00000
00000
00100
00000
00000
00000
,
00001
00000
00000
00100
00000
00000
00010
00000
00000
01000
00000
00000
00100
00000
00000
00000
,
10000
00000
00000
00001
00000
00000
00100
00000
00000
10000
00000
00000
00100
00000
00000
00000
,
10000
00000
00000
00001
00000
00000
01000
00000
00000
00010
00000
00000
00100
00000
00000
00000
,
01010
00000
00000
00000
;
