#TITLE:PARANOiA Rebirth;
#SUBTITLE:(8Chasey Chart);
#ARTIST:190ยด;
#TITLETRANSLIT:;
#SUBTITLETRANSLIT:;
#ARTISTTRANSLIT:;
#GENRE:;
#CREDIT:;
#MUSIC:PARANOiA Rebirth (8Chasey Chart).mp3;
#BANNER:PARANOiA Rebirth (8Chasey Chart)-bn.png;
#BACKGROUND:PARANOiA Rebirth (8Chasey Chart)-bg.png;
#CDTITLE:cdtitle;
#SAMPLESTART:0.01;
#SAMPLELENGTH:12;
#SELECTABLE:YES;
#OFFSET:-5.100;
#BPMS:0.000=190.000;
#STOPS:;
#BGCHANGES:;
#FGCHANGES:;

//--------------- dance-single - 8Chasey ----------------
#NOTES:
     dance-single:
     8Chasey:
     Beginner:
     2:
     0,0,0,0,0:
0000
0000
0000
0000
,
0000
0000
0000
0000
,
0010
0000
0000
0000
,
0100
0000
0000
0000
,
0001
0000
0100
0000
,
0001
0000
0001
0000
,
1000
0000
0010
0000
,
1000
0000
1000
0000
,
0100
0000
0000
0000
,
0010
0000
0000
0000
,
0100
0000
0100
0000
,
0100
0000
0000
0000
,
0100
0000
0000
0000
,
0010
0000
0000
0000
,
1000
0000
0000
0000
,
0010
0000
0000
0000
,
0010
0000
0000
0000
,
1000
0000
0010
0000
,
1000
0000
0000
0000
,
0001
0000
0000
0000
,
1001
0000
0001
0000
,
1000
0000
0000
0000
,
0010
0000
1000
0000
,
0001
0000
0000
0000
,
0000
1000
0000
1000
,
0000
0001
0000
0001
,
0000
1000
0000
1000
,
1000
0000
0010
0000
,
0001
0000
0000
0000
,
0100
0000
0000
0000
,
1000
0000
0000
0000
,
0100
0000
0100
0000
,
0100
0000
0100
0000
,
0100
0000
0100
0000
,
0010
0000
0010
0000
,
0010
0000
0010
0000
,
1001
0000
0000
0000
,
1000
0000
0001
0000
,
1000
0000
0000
0000
,
0010
0000
0000
0000
,
1000
0000
1000
0000
,
0001
0000
1000
0000
,
0001
0000
0001
0000
,
1000
0000
0001
0000
,
0110
0000
0000
0010
,
0000
0010
0000
0010
,
0000
0000
0000
0100
,
0000
0100
0000
0100
,
0000
0000
0000
0000
,
1000
0000
0000
0000
,
1000
0000
0000
0000
,
0001
0000
0000
0000
,
1000
0000
0001
0000
,
0100
0000
0000
0000
,
0100
0000
0000
0000
,
0010
0000
0000
0000
,
0010
0000
0000
0000
,
1000
0000
0000
0000
,
0001
0000
0000
0000
,
1000
0000
0001
0000
,
1000
0000
0001
0001
,
0001
0000
0100
0000
,
0001
0001
0000
1000
,
1000
0000
0010
0000
,
0100
0100
0000
0010
,
0010
0000
0000
0000
,
0100
0000
0000
0000
,
0010
0000
0010
0000
,
0010
0000
0000
0000
,
0000
0000
0100
0000
,
0000
0000
0100
0000
,
0000
0000
0010
0000
,
0000
0000
0010
0000
;

//--------------- dance-single - 8Chasey ----------------
#NOTES:
     dance-single:
     8Chasey:
     Easy:
     4:
     0,0,0,0,0:
0000
0000
0000
0000
,
0000
0000
0000
0000
,
0100
0000
0010
0000
,
0200
0000
0300
0000
,
0100
0001
0100
0000
,
0001
0000
1000
0000
,
0100
1000
0100
0000
,
1000
0000
0001
0000
,
0010
0000
0100
0000
,
0010
0100
0010
0000
,
1000
0000
0001
0000
,
0100
0000
0010
0000
,
0000
0100
0010
0100
,
0020
0000
0000
0000
0000
0000
0000
0000
0000
0000
0000
0000
0000
0000
0000
0000
0000
0000
0000
0000
0000
0000
0000
0000
0000
0000
0000
0000
0000
0000
0000
0000
0000
0000
0000
0000
0000
0000
0000
0000
0000
0000
0000
0000
0000
0000
0000
0000
0000
0000
0000
0000
0000
0000
0000
0000
0000
0000
0000
0000
0000
0000
0000
0000
0000
0000
0000
0000
0000
0000
0000
0000
0000
0000
0000
0000
0000
0000
0000
0000
0000
0000
0000
0000
0000
0000
0000
0000
0000
0000
0000
0000
0000
0000
0000
0000
0000
0000
0000
0000
0000
0030
0000
0000
0000
0000
0000
0000
0000
0000
0000
0000
0000
0000
0000
0000
0000
0000
0000
0000
0000
0000
0000
0000
0000
0000
0000
0000
0000
0000
0000
0000
0000
0000
0000
0000
0000
0000
0000
0000
0000
0000
0000
0000
0000
0000
0000
0000
0000
0000
0000
0000
0000
0000
0000
0000
0000
0000
0000
0000
0000
0000
0000
0000
0000
0000
0000
0000
0000
0000
0000
0000
0000
0000
0000
0000
0000
0000
0000
0000
0000
0000
0000
0000
0000
0000
0000
0000
0000
0000
0000
0000
,
0000
0010
0100
0010
,
0200
0000
0310
0000
,
0010
0000
0001
1000
,
0001
0000
0100
0000
,
0002
0000
0000
0003
,
1000
0100
1000
0000
,
0001
0010
0001
0000
,
0100
0001
0100
0000
,
0010
1000
0010
0100
,
0001
0010
0100
0000
,
0001
0000
1000
1000
,
0010
0000
0100
0100
,
0001
0000
1000
0000
,
0002
0000
0003
0000
,
1001
0000
1000
0000
,
0100
1000
0010
0000
,
1000
0000
0010
0000
,
0100
0001
0010
0000
,
0001
0100
0001
0000
,
0100
0001
0100
0000
,
0001
1000
0001
0000
,
1000
1000
0001
0000
,
1001
0000
0001
1000
,
0000
0000
0010
0000
0000
0010
0000
0000
,
0020
0000
0000
0030
,
0100
0010
0100
0000
,
0001
1000
0001
0000
,
1000
0001
1000
1000
,
0010
0100
0010
0000
,
0100
0010
0100
0100
,
0110
0000
0100
0001
,
0000
1000
0001
1000
,
0000
0000
0010
1000
,
0000
0001
1000
0001
,
0000
0000
0000
0000
,
1000
0000
0001
1000
,
0001
0000
0000
1000
,
0001
0000
1000
0100
,
1000
0000
0001
0000
,
1000
0000
0010
0000
,
0100
0000
0001
0000
,
0100
0000
0001
0010
,
0001
1000
0010
0000
,
1001
0000
0001
0000
,
1000
0000
0100
0000
,
0010
0010
0100
0100
,
1000
0001
1000
0001
,
0001
0000
0000
0001
0010
0000
0000
0000
,
0001
1000
0000
0001
,
1000
0000
0100
1000
,
0010
0100
0000
0001
,
0210
0000
0310
0000
,
2010
0000
3001
0100
,
0010
0000
0100
0010
,
2000
0000
3001
0000
,
0010
0000
0000
0010
,
0000
0100
0010
0000
,
1000
0000
0001
0000
,
0010
0000
0100
0000
;

//--------------- dance-single - 8Chasey ----------------
#NOTES:
     dance-single:
     8Chasey:
     Medium:
     7:
     0,0,0,0,0:
0000
0000
0000
0000
,
0000
0000
0000
0000
,
0200
1000
0010
1300
,
0002
0000
0000
0103
,
0001
0100
0001
1001
,
1000
0010
1000
0100
,
0110
0000
0010
0000
0001
0000
0010
0100
,
0010
0100
1000
0100
,
0100
0000
1000
0000
0010
1000
0001
0000
,
0101
0000
0001
0000
1000
0000
0010
0010
,
0100
0000
0001
0000
0010
0001
1000
0000
,
1100
0000
0010
0000
0001
0000
1000
0001
,
1000
0000
0010
1000
0000
0000
0001
0000
,
0100
0000
0001
1000
0000
0001
1000
0000
,
0010
0000
0100
0001
0000
0100
0010
0000
,
1000
0100
1000
0001
,
0010
0100
0100
0010
,
0010
0000
0000
0100
0000
0000
0100
0000
,
1000
0001
0001
1000
,
0001
0000
0000
1000
0000
0000
0001
0000
,
1000
0010
0000
1000
0010
0000
1000
0000
,
0100
0000
0010
0000
0001
1000
0001
0000
,
0100
0001
1000
0100
,
0010
0100
0010
0000
0100
0000
0010
0000
,
1001
0100
0020
0030
,
1000
0001
1000
0010
0200
0000
0300
0000
,
1001
0110
2002
3003
,
0001
1000
0010
0200
0000
0000
0310
0000
,
0001
0101
1000
1010
,
1000
0100
0010
0000
0001
0000
0011
0000
,
0020
0100
0032
0100
,
2003
0010
3200
0310
,
0020
0000
0000
0000
0130
0000
0001
0010
,
0000
0001
1001
1000
,
0100
0000
1000
0010
0000
1000
0000
0002
,
0000
0000
0103
0000
0001
0010
0001
0000
,
0100
0000
0001
0000
1000
1000
2000
0000
,
3000
0000
0001
0001
0002
0000
0003
0000
,
0100
0000
0010
0000
1001
0000
0001
0010
,
0001
0000
1000
0100
1000
0000
0001
0000
,
1000
0100
1000
0001
,
0000
0001
0000
0000
1001
0000
0000
0000
,
0001
0100
0001
1000
,
0000
1000
0000
0000
1001
0000
0000
0000
,
1000
0100
1000
0001
,
0100
0100
0000
0100
,
0001
0010
0001
1000
,
0100
0100
0000
0010
,
0000
0000
0000
0000
,
0001
0000
0100
0000
0010
0000
1000
0010
,
1000
0000
0100
0000
0010
0000
0100
0010
,
0000
0100
0010
0000
0100
0000
1000
0000
,
0001
0100
0010
0000
,
0010
1000
0000
0010
1000
0000
0000
0100
,
0000
0010
0001
0000
,
0100
0001
0100
0000
0001
0000
1000
0000
,
1001
0000
0001
0010
,
1010
1000
0011
0001
,
0100
0010
0100
0000
0001
1000
0001
0000
,
1100
1000
0101
0001
,
1000
0001
1000
0000
1001
0000
0000
0000
,
0010
1000
0010
0000
0100
0000
0001
0000
,
0010
0001
0010
0000
0100
0000
1000
0000
,
0010
0100
0010
0000
0100
0010
0100
0000
,
0001
1000
0010
0100
,
1001
0000
0100
0100
,
0010
0000
1000
0000
0001
1000
0001
0000
,
1000
0010
0010
0100
,
0001
0000
1000
0000
0010
0100
0010
0000
,
0100
0000
0001
0010
0001
0000
1001
0000
,
1000
0000
0010
0100
0010
0000
0110
0000
,
0100
0000
0001
0010
0001
0000
1100
0000
,
2000
0000
0002
3003
1001
0000
0000
0000
;

//--------------- dance-single - 8Chasey ----------------
#NOTES:
     dance-single:
     8Chasey:
     Hard:
     9:
     0,0,0,0,0:
0000
0000
0000
0000
,
0000
0000
0000
0000
,
0010
0001
1000
0100
,
0020
0000
0130
0100
0010
0001
1000
0000
,
1001
0000
1000
0100
0010
0000
0001
0100
,
0001
1000
0001
0010
0001
0000
1000
0000
,
0010
1000
0001
1000
0010
0000
1000
0100
,
0001
0000
0001
0100
1000
0000
0010
1000
,
0001
0000
0100
0010
1000
0000
0100
0000
,
1000
0100
0010
0000
0011
0000
0001
0000
,
0100
0001
0100
0001
1000
0000
0100
0000
,
2000
0100
0100
3001
,
1000
0000
0100
1000
0001
0000
0101
0000
,
1100
0000
1000
0001
0100
0000
0010
0000
,
1010
0000
1000
0000
0100
0000
0010
0001
,
0010
0001
0100
0110
,
1000
0001
0000
0010
0000
0001
1000
0000
,
0010
0100
0010
1000
0000
0010
1000
0000
,
0100
1000
0010
0000
0100
0001
0010
0000
,
0001
0010
0001
0000
1000
0100
1000
0001
,
0000
0100
0001
0100
0010
1000
0000
0100
,
0000
0100
1000
0001
0100
0000
0100
0010
,
0000
0100
0001
1000
0100
0010
0000
0100
,
0000
1000
0001
0100
0000
0100
0001
0000
,
1001
0000
0001
0100
0001
0000
1000
0010
,
1000
0000
0100
0010
0011
0000
1010
1000
,
0001
0000
0100
0001
0100
0010
1000
0000
,
0100
0010
0100
0000
0110
0000
1001
0000
,
0001
0010
0001
1000
0000
0010
1000
0010
,
1000
0100
1000
0001
0000
0100
0001
0100
,
0010
1000
0100
0010
0000
0110
0000
0100
,
1000
0001
0000
2002
0000
0000
3003
0000
,
0001
0000
0010
0001
0100
0000
0001
0000
,
1000
0010
1000
0000
0100
0000
0010
0000
,
0001
0100
0001
0100
0000
0000
1000
0100
,
1000
0100
0000
0000
0010
0000
0110
0000
,
0110
0000
1001
0001
,
0000
1000
0100
1000
0000
0001
0100
0001
,
0000
1000
0100
1000
0010
0000
0110
0000
,
0000
0100
0010
0100
0000
0001
0100
0010
,
0100
0001
0100
0010
0000
1010
0000
1000
,
0100
0100
1000
0002
0000
0000
0003
0000
,
0010
0001
1000
0010
0000
1010
0000
0100
,
0101
0000
0000
1100
0000
0000
1001
0000
,
0000
0000
0001
0000
0010
0001
0100
0000
,
0010
1000
0010
0000
0100
0001
1000
0001
,
0000
1000
1000
0010
0000
0000
1000
0200
,
0000
0000
1300
0000
0001
0000
0100
0020
,
0000
0000
0000
0030
,
0100
0000
0001
0100
0002
0000
0013
0100
,
1000
0000
0100
2000
0000
0010
3010
1000
,
0100
0000
0010
0001
0010
0000
0001
0020
,
0100
0000
0001
0000
0130
1000
1001
0000
,
0010
0010
0100
0100
1000
0001
1000
0001
,
0100
0010
0100
0010
0200
0001
0001
0301
,
0100
0001
0020
0000
0031
0000
1000
0100
,
1000
1000
0002
0000
2000
0000
3003
0000
,
1000
0000
1000
0100
0010
0100
1000
0000
,
0001
0000
0001
0010
0100
0010
0001
0000
,
0100
0000
0100
0010
1000
0010
0100
0000
,
0001
0001
1000
1000
0100
0010
0200
0000
,
0310
0000
0001
0010
0100
1000
0010
0000
,
0010
0000
1000
0100
0010
0001
0100
0000
,
0101
1010
0101
1100
,
0011
0000
1100
0000
1001
0001
0020
0000
,
0130
0000
0010
0001
1000
0000
0100
0000
,
1000
0000
0010
0100
0010
0000
0100
0000
,
0001
0000
1000
0100
0010
0000
0001
0000
,
1000
0000
0001
0010
0000
0001
0010
0000
,
0010
0001
1000
0010
1000
0000
1010
0000
,
0101
0000
0001
1000
0100
0000
1100
0000
,
0011
0000
0010
0000
0001
0100
0001
0000
,
1000
0010
1000
0001
0010
0000
0000
0000
;

//--------------- dance-single - 8Chasey ----------------
#NOTES:
     dance-single:
     8Chasey:
     Challenge:
     10:
     0,0,0,0,0:
0000
0000
0000
0000
,
0000
0000
0000
0000
,
1000
0100
0010
0001
0100
0001
0001
0100
,
0110
0000
0010
0000
1000
0000
0100
0000
0010
0001
0000
0000
1001
0000
0000
0000
,
1000
0000
1010
0000
0010
0100
0001
0000
,
1000
0100
1000
0001
0100
0001
0010
0000
,
0011
0000
0001
0100
0010
0000
1000
0000
,
0100
1000
0001
0100
0001
1000
0010
0000
,
0010
0100
0101
0001
2000
0000
3010
0000
,
0210
0001
0010
1000
0310
0100
0001
0000
,
1000
0010
0000
0000
0100
0001
0000
0000
0020
0000
0100
0000
0130
0000
0010
0000
,
0012
0000
1000
0000
0203
0000
0310
0100
,
0000
0000
0001
0000
0010
0000
0001
0000
1000
0000
0100
1000
0100
0000
0010
0000
,
0200
0000
0000
0000
1000
1000
1300
0000
,
0010
0000
0001
0000
0011
0000
0000
0000
0001
1000
0010
0000
1010
0000
0000
0000
,
1000
0000
0100
0000
0110
0000
0000
0000
0010
0001
1000
0000
1001
0000
0000
0000
,
0100
1000
1000
0001
0010
0010
0001
0100
,
0100
0010
1000
0100
0010
0100
0020
0000
,
0031
0100
0001
0001
1000
0010
1000
1000
,
0100
1000
0001
0100
0010
1000
1000
0020
,
0000
1030
0010
1000
0100
1000
0001
0020
,
0000
0031
0100
0001
1000
0100
0010
0200
,
0000
1300
0100
1000
0001
0010
0001
0200
,
0000
0000
0310
0000
1000
0000
1000
0000
0001
0100
0001
0100
0001
0000
0000
0000
,
0102
0000
0013
0001
2000
0100
0000
3100
,
1000
0000
0001
0000
0100
0000
0001
0100
0001
0000
0010
0000
0010
0000
0100
0000
,
0020
0000
0031
1000
0200
0010
0000
0310
,
0001
0000
0100
0000
1000
0000
0100
0010
0100
0000
0001
0000
0010
0000
0001
0100
,
0001
0000
1000
0000
0001
0000
0100
0000
0001
0000
0000
0000
1000
0010
0000
0000
,
0010
1000
0000
0000
1000
0100
0000
0000
0100
1000
0000
0000
1000
0000
0100
0000
,
1000
0000
0001
0000
1000
0000
0010
0000
1000
0000
0000
0000
0010
0100
0000
0000
,
0100
0001
0000
0000
0001
1000
0000
0000
1000
0100
0000
0000
0100
0010
0000
0000
,
1001
1000
0100
1000
0100
1000
0100
1000
,
1001
0000
1010
0000
1000
0100
0010
0001
,
0101
0001
0010
0001
0010
0001
0010
0100
,
1100
1000
1001
0001
0101
0100
0020
0000
,
0130
0000
1001
1001
,
0000
0000
0002
0000
0103
0010
0000
1000
,
1100
0000
2000
0000
3010
0100
0000
0001
,
0011
0000
0000
0000
0010
0000
0100
0000
1000
0000
0010
1000
0010
0000
0100
0000
,
0001
0000
0010
0000
0001
0000
1000
0000
0010
1000
0010
0000
1000
0000
0100
0000
,
0010
0100
0010
0100
0010
0000
0001
0000
1000
0000
0010
0000
0220
0000
0330
0000
,
0100
0000
0001
0000
1000
0000
0100
0000
0010
0001
0010
0000
0001
0000
1000
0000
,
0100
0010
0100
0010
0100
0000
0010
0000
0001
0000
1000
0000
2002
0000
3003
0000
,
0001
0010
0001
1000
0100
1000
0010
0100
,
0001
0010
0001
0000
0100
0000
0010
0100
0010
0000
1000
0100
1000
0000
0001
0000
,
0010
0000
0010
0000
0001
0000
0100
0000
0010
0000
1000
0000
0100
0000
0010
0100
,
0010
0010
0100
0100
1000
0001
1000
0001
,
0000
0000
0000
0000
,
0002
0000
0000
0000
1003
0010
1000
0010
2000
0000
3000
0000
2002
0000
3003
0000
,
0220
0000
0330
0000
0100
0001
0100
0001
0200
0000
0000
0000
0301
0010
0001
0010
,
0002
0000
0000
0003
0000
0000
2200
0000
0000
3300
0000
0000
1002
0000
0000
0000
0100
0000
0000
0000
0100
0000
0000
0000
,
1003
0000
0010
1000
2001
0000
3001
0000
,
0021
0000
0000
0000
0130
0010
0100
0010
0200
0000
0300
0000
2200
0000
3300
0000
,
2020
0000
3030
0000
0010
0100
0010
0100
0020
0000
0000
0000
0130
0001
0100
0001
,
0200
0000
0000
0300
0000
0000
0202
0000
0000
0303
0000
0000
0012
0000
0000
0000
1000
0000
0000
0000
1000
0000
0000
0000
,
0103
0000
0010
1000
0010
0001
0010
0000
,
0002
0000
0010
0000
0013
0000
0001
1000
,
0001
0000
0001
0200
0000
0000
0310
0000
,
1000
0100
1000
0000
0001
0000
1001
0000
,
0001
0100
0001
0000
0010
0000
0110
0000
,
0010
0000
0001
0100
0001
0100
0000
0010
,
0000
1000
0100
0000
1000
0001
0000
1000
,
0100
0000
0010
0100
0010
0100
0000
0010
,
0000
0001
0000
1000
0000
0001
1000
0001
,
1000
0001
1000
0000
0100
0000
0010
0001
0010
0000
0100
0000
1000
0001
1000
0000
,
0010
0000
0100
0001
0100
0000
0010
0000
1000
0100
1000
0000
0001
0000
0100
0000
,
0110
0000
0100
0000
0001
0010
0001
0000
1000
0100
1000
0000
0010
0000
0100
0000
,
0001
0100
0001
0000
0010
0000
0100
1000
0100
0000
0010
0000
0001
0000
0100
0001
,
0100
0000
0001
0010
0001
1000
0100
0000
1000
0010
1000
0001
0100
0000
0110
0000
,
0010
1000
0010
0000
0100
0010
0100
0000
0001
0010
0000
0010
0100
0000
1000
0000
,
0010
0000
1000
0010
0100
0000
0001
0000
0010
0001
0010
0000
0100
0000
1000
0000
,
1001
0000
0001
0100
0001
0000
1000
0000
1010
0000
0000
0000
0000
0000
0000
0000
;
