#TITLE:PARANOiA MAX;
#SUBTITLE:(8Chasey Chart);
#ARTIST:190;
#TITLETRANSLIT:;
#SUBTITLETRANSLIT:;
#ARTISTTRANSLIT:;
#GENRE:;
#CREDIT:8Chasey 2025;
#MUSIC:PARANOiA MAX (8Chasey Chart).mp3;
#BANNER:PARANOiA MAX (8Chasey Chart).png;
#BACKGROUND:PARANOiA MAX (8Chasey Chart)-bg.png;
#CDTITLE:;
#SAMPLESTART:0.02;
#SAMPLELENGTH:12.000;
#SELECTABLE:YES;
#OFFSET:-0.031;
#BPMS:0.000=190.150;
#STOPS:;
#DISPLAYBPM:190.000;
#BGCHANGES:;
#FGCHANGES:;

//--------------- dance-single - 8Chasey ----------------
#NOTES:
     dance-single:
     8Chasey:
     Beginner:
     2:
     0,0,0,0,0:
0000
0000
0000
0000
,
0000
0000
0000
0000
,
0000
0000
0000
0000
,
0000
0000
0000
0000
,
0000
0000
0000
0000
,
0000
0000
0000
0000
,
1000
0000
1000
0000
,
1000
0000
0000
0000
,
0001
0000
0100
0000
,
0001
0000
0000
0000
,
1000
0000
0100
0000
,
1000
0000
0000
0000
,
0001
0000
0001
0000
,
0010
0000
0001
0000
,
1000
0000
1000
0000
,
0100
0000
1000
0000
,
0010
0000
0000
0000
,
0100
0000
0000
0000
,
0010
0000
0100
0000
,
0010
0000
0000
0000
,
1000
0000
0000
0000
,
0001
0000
0000
0000
,
1000
0000
0001
0000
,
0110
0000
0000
0000
,
1000
0000
0000
0000
,
1000
0000
0000
0000
,
0100
0000
0000
0000
,
0000
0000
0000
0000
,
0001
0000
0000
0000
,
0001
0000
0000
0000
,
0100
0000
0000
0000
,
0000
0000
0000
0000
,
1001
0000
0000
0000
,
0001
0000
0000
0000
,
0010
0000
0000
0000
,
0001
0001
0000
0000
,
1001
0000
0000
0000
,
1000
0000
0000
0000
,
0010
0000
0000
0000
,
1000
1000
0000
0000
,
0001
0000
0100
0100
,
0000
0100
0000
0000
,
0001
0000
0010
0000
,
0001
0001
0001
0000
,
1000
0000
0010
0000
,
1000
1000
1000
0000
,
0100
0000
0010
0000
,
0100
0100
0100
0000
,
0010
0000
0010
0010
,
0010
0000
0000
0000
,
0010
0000
1000
0000
,
1000
0000
0010
0000
,
0100
0000
0001
0000
,
0001
0000
0100
0000
,
0001
0000
1000
0000
,
0001
0000
1000
0000
,
0001
0000
0000
0000
,
1000
1000
1000
0000
,
0001
0000
0001
0000
,
0001
0000
0000
0000
,
1000
0000
1000
0000
,
1000
0000
0000
0000
,
1000
0000
0001
0000
,
0010
0000
0000
0000
,
0001
0000
1000
0000
,
0100
0000
0000
0000
,
1001
0000
0000
0000
,
1001
0000
0000
0000
,
1001
0000
0000
0000
,
0110
0000
0110
0000
,
1001
0000
0000
0000
,
0110
0000
0000
0000
,
0110
0000
0000
0000
,
0110
0000
0110
0000
;

//--------------- dance-single - 8Chasey ----------------
#NOTES:
     dance-single:
     8Chasey:
     Easy:
     6:
     0,0,0,0,0:
0000
0000
0000
0000
,
0000
0000
0000
0000
,
0000
0000
0000
0000
,
0000
0000
0000
0000
,
0000
0000
0000
0000
,
0000
0000
0000
0000
,
1000
0001
1000
0000
,
0001
1000
0001
0000
,
0001
0010
0002
0003
,
1000
0010
2000
3000
,
0001
0100
0002
0003
,
1000
0100
2000
3000
,
0001
0001
2000
3000
,
0001
1000
0002
0003
,
1000
1000
0002
0003
,
1000
0001
2000
3000
,
1000
0100
0000
1100
,
0000
0110
0000
0000
,
0001
0100
0000
0101
,
0000
0110
0000
0000
,
0001
0010
0001
0000
,
1000
0001
1000
0000
,
0100
0010
0100
0000
,
1000
0010
1000
0000
,
1000
0000
0000
0001
0000
0000
0010
0000
,
0001
1000
1000
0010
,
0100
0000
0100
0001
,
1000
0100
0000
1000
,
0001
0000
0000
1000
0000
0001
0100
0000
,
0001
0001
1000
0100
,
2000
0001
0000
3001
,
0002
1000
0000
0013
,
0001
0000
0001
0000
,
1000
0000
1000
0000
,
0001
1000
0001
0000
,
1000
2000
0000
3000
,
0010
1000
0010
0000
,
0100
0001
0100
0000
,
0001
0000
1000
0000
,
2002
0000
0000
3003
,
0100
0000
1000
0001
,
0000
0200
0000
0000
,
0301
0010
0001
0000
,
1000
0100
1000
0000
,
0001
0100
0001
0000
,
1000
0010
1000
0000
,
0100
0001
0001
0000
,
0010
1000
1000
0000
,
0002
0003
2000
3000
,
0020
0000
0030
0000
,
1001
0000
1000
0001
,
0010
0100
0010
0000
,
1000
1000
0010
0010
,
0001
0001
0100
0100
,
0110
0000
1000
0010
,
1000
0100
0001
0000
,
0001
0010
0001
0000
,
1000
0001
1000
0001
,
0010
0001
0100
0000
,
0002
0000
0103
0000
,
0010
1000
0100
0000
,
2000
0000
3100
0000
,
1000
1000
0001
0000
,
0020
0000
0031
0000
,
0100
0001
0010
0000
,
0200
0000
1300
0000
,
0001
0100
0101
0000
,
1000
0000
0010
0000
,
1000
0100
1100
0000
,
0110
0000
1001
0000
,
0001
0010
0100
1000
,
0001
0010
0100
1000
,
0001
0001
1000
1000
,
1001
0110
1001
0000
;

//--------------- dance-single - 8Chasey ----------------
#NOTES:
     dance-single:
     8Chasey:
     Medium:
     8:
     0,0,0,0,0:
0000
0000
0000
0000
,
0000
0000
0000
0000
,
0000
0000
0000
0000
,
0000
0000
0000
0000
,
0000
0000
0000
0000
,
0000
0000
0000
0000
,
0010
0010
0000
2000
0000
0000
3001
0000
,
1000
0000
1001
0000
0001
0100
0001
0100
,
0020
0000
1030
0000
0001
0100
0010
0000
,
0001
0010
1000
0000
0001
0000
1000
0001
,
0020
0000
0031
0000
0100
0001
1000
0000
,
0010
0000
1000
0000
0001
0000
0100
0002
,
1000
0000
1003
0000
0100
1000
0100
0000
,
1000
0000
0010
0000
0100
0001
0010
0000
,
0002
0000
1000
0000
1003
0000
0100
1000
,
0001
0010
0001
0000
1000
0001
1000
0000
,
0010
0000
0010
0000
1000
0001
1000
0000
,
0100
0000
0100
0000
1000
0001
0100
0010
,
0100
0010
0100
0000
0001
0010
0100
1000
,
0001
0000
1000
0000
0010
1000
0001
0000
,
0100
0000
0100
0000
0001
0100
0010
1000
,
0000
1000
0001
0000
1000
0100
0010
0000
,
0100
0010
0001
0000
0100
0010
0100
0000
,
1001
1001
0110
1001
,
0010
1100
0000
2000
,
3020
0100
0130
0000
,
0010
0101
0000
0001
,
0020
0000
0100
0000
0130
0000
1000
0010
,
1000
0000
0001
0000
0100
0000
0001
0010
,
0001
1000
0100
0110
,
0011
0000
1010
0000
,
1000
0100
0001
0100
0010
0001
1000
0000
,
0001
0000
1000
0001
0000
0000
1000
0000
,
0100
1000
0010
0100
,
0000
0010
1000
0000
0001
0000
1000
0000
,
0100
0010
0001
1000
,
1000
0000
0010
1000
0000
0001
1000
0000
,
0001
0000
0100
0001
0000
0010
0001
0000
,
1000
0100
1000
0010
,
0100
0001
0010
0100
,
2002
3003
0001
1000
,
0000
0200
1300
0010
,
0020
1000
0130
0001
,
0020
0001
0130
1000
,
0001
0001
1000
1000
,
0010
0000
0100
0020
0000
0000
0030
0000
,
0100
0000
0100
0002
0000
0000
1003
0000
,
0100
0000
0100
2000
0000
0000
3001
0000
,
0010
0001
1000
0010
,
0100
0100
0010
0110
,
0001
1000
0001
0000
2000
0000
3100
0000
,
0010
0000
0100
0010
0002
0000
1003
0000
,
0010
0000
0100
0000
0100
0001
1000
1000
,
0100
0000
1000
0001
0010
0000
1001
0000
,
0200
0000
0301
0000
0001
1000
0001
0000
,
1000
0010
1000
1001
,
0110
0000
1001
0000
0120
0000
0130
0100
,
0001
0000
1000
0000
0200
0000
0020
0330
,
2000
0000
3100
0000
0100
0010
0100
0000
,
1000
0000
0001
0000
0010
0100
0001
0100
,
0002
0000
1003
0000
0001
0100
0001
0000
,
1000
0000
0010
0000
0100
0001
1000
0100
,
0020
0000
0130
0000
1000
0010
1000
0000
,
0001
0000
0010
0000
0100
0000
0001
1000
,
0200
0310
0100
0100
,
1001
0000
1001
0000
0010
1000
0001
0100
,
0002
0000
0103
0010
,
1000
0100
0010
0100
,
2000
0010
3000
0010
,
0100
0101
1100
0000
,
1000
0010
1000
0000
0001
0000
0010
0000
,
0001
0000
1000
0000
0001
0100
0001
0000
,
0010
0001
0010
1000
,
0010
0100
1001
0000
;

//--------------- dance-single - 8Chasey ----------------
#NOTES:
     dance-single:
     8Chasey:
     Hard:
     9:
     0,0,0,0,0:
0000
0000
0000
0000
,
0000
0000
0000
0000
,
0000
0000
0000
0000
,
0000
0000
0000
0000
,
0000
0000
0000
0000
,
0000
0000
0000
0000
,
0010
0010
0010
0010
,
2002
0000
0000
3003
,
0001
0000
1010
0000
0101
0000
1000
0100
,
0000
1000
0010
0100
0001
0000
0010
0000
,
0011
0000
0110
0000
1000
0100
1000
0010
,
0000
0100
0001
0000
1010
0000
1001
0000
,
0100
0001
0010
0000
0001
0000
1000
0100
,
0000
1000
0010
0100
0010
0000
0101
0000
,
1010
1001
1000
0110
,
0100
0001
1000
0100
0010
0100
0010
0100
,
0010
0000
0100
0001
0010
0000
0001
1000
,
0100
0000
1000
0010
0000
0010
0100
0000
,
0011
0000
0010
0001
1000
0000
0010
0100
,
0000
0010
1000
0100
1000
0001
0100
0000
,
1010
0000
1000
0010
0100
0001
0010
0000
,
0101
0000
0001
1000
0100
0010
0100
0000
,
1100
0000
1000
0010
0100
0000
0001
0000
,
2001
3010
0200
0301
,
0001
1000
0001
1000
0100
0000
1000
0000
,
0010
1000
0001
0000
0200
0000
0301
0000
,
1001
0000
1000
0010
1000
0000
0100
0010
,
0001
0010
0001
1000
0200
0000
0300
0000
,
1001
0000
1000
0000
0001
0010
0001
0000
,
0200
0302
1003
0100
,
1000
0010
1000
0000
0001
0010
0001
0010
,
0200
2300
3001
0001
,
1000
0010
1000
0100
0000
0100
0010
0001
,
0000
1000
0001
0200
0000
0000
0310
0000
,
1000
0010
0100
0010
0000
1000
0001
0010
,
0100
0000
2002
0000
0000
0000
3003
1000
,
0001
0010
0001
0100
0000
0010
0100
0001
,
0000
1000
0100
0001
0000
0100
1000
0000
,
0010
1000
0010
0100
0001
0100
0010
0000
,
1000
0001
1000
0001
,
0011
0000
1000
0010
1000
0000
1100
0000
,
0002
0000
0013
0001
2000
0000
3100
0000
,
0101
1001
1100
1001
,
0010
1000
0100
0000
0010
0001
0100
0000
,
1010
0011
2002
3003
,
0100
0000
1000
0010
1000
0000
0001
0000
,
1001
0000
0010
0000
0001
1000
0200
0000
,
0320
0000
0130
0000
1000
0010
1000
0000
,
0001
1100
0000
1000
,
0001
0000
1000
0010
0000
0010
1000
0000
,
1002
0000
0103
0010
1000
0100
1000
0001
,
0000
0010
0001
0200
0000
0301
1000
0100
,
0010
0000
0021
0000
0130
1000
0001
2000
,
0000
3100
1000
0002
0000
0013
0100
0020
,
0000
0030
0110
0200
0000
1300
0001
0100
,
0000
1010
0000
0011
0000
1000
0001
0000
,
0101
0000
1000
0100
0010
0100
0100
0010
,
0000
0010
0001
0000
1000
0010
1000
0000
,
0100
1000
0001
1000
0010
0000
1000
0002
,
0000
0013
0001
0001
2000
0000
3100
0000
,
1000
0010
1000
0010
0000
1000
0100
0000
,
0001
0010
0001
0010
0000
0001
0100
0000
,
0010
0000
0100
0000
0010
1000
0001
0000
,
1000
0000
0001
1000
0001
0010
0000
0011
,
0000
0000
0010
0001
0000
1000
0001
1000
,
0100
0001
1000
0100
,
1000
0010
0200
0000
0301
0100
0001
1000
,
0001
0000
0100
0000
0020
0000
0000
0000
1030
0000
0100
0000
1000
0001
0000
1000
,
0001
0000
0010
0000
0020
0000
0000
0000
0031
0000
0100
0000
0001
1000
0000
0001
,
1000
0010
0020
0000
1030
0100
1000
0010
,
0010
1000
2000
0000
3100
0000
0100
1000
,
0010
0100
0002
0000
0013
0010
0100
1000
,
0001
0100
0101
0000
1010
0000
1000
0001
,
0010
0100
2000
0000
0002
0000
0000
3003
;

//--------------- dance-single - 8Chasey ----------------
#NOTES:
     dance-single:
     8Chasey:
     Challenge:
     10:
     0,0,0,0,0:
0000
0000
0000
0000
,
0000
0000
0000
0000
,
0000
0000
0000
0000
,
0000
0000
0000
0000
,
0000
0000
0000
0000
,
0000
0000
0000
0000
,
0001
0000
0000
1000
0001
0000
0000
1000
,
0001
1000
0100
1000
0010
0100
0001
0010
,
1100
0000
0101
0000
1000
0100
0010
0000
,
0110
0000
1100
0000
0001
0010
0001
0000
,
1010
0000
0011
0000
0100
0001
1000
0000
,
0010
0100
0010
0000
1001
0000
0001
0000
,
0010
0001
0100
0000
0001
1000
0001
1000
,
0010
1000
0100
0000
1000
0001
1000
0001
,
0100
0000
1010
0000
1000
0100
0010
0000
,
0011
0000
1001
0000
0001
1000
0100
0000
,
0100
0000
1000
0000
0010
0000
0100
0000
0001
0000
0001
0000
0100
0001
0100
0000
,
0010
0000
0010
0000
1000
0010
1000
0000
0100
0000
0010
0000
0100
1000
0100
0000
,
1000
0001
0100
0010
0110
0100
0001
1000
,
1001
0000
0010
0000
0100
0000
0001
0000
1000
0100
1000
0010
0100
0001
0010
0100
,
1000
0010
1000
0010
1000
0000
0001
0100
0001
0010
0100
0000
1000
0100
0010
0000
,
0001
0100
0001
0010
0100
0000
1000
0010
1000
0001
0100
0000
0010
0100
0010
0000
,
1000
0000
0100
0000
0110
0000
0010
0001
0010
0000
0001
0000
1001
0000
1000
0010
,
0100
0001
1000
0100
0020
0032
2003
3020
,
1030
0000
0100
0000
0010
0000
0100
0000
1000
0000
0001
0100
0001
0000
0100
0000
,
0020
0000
1030
0000
0100
1000
0001
0000
,
0202
0000
0000
0000
0303
0000
0001
0000
0010
0000
0100
1000
0100
0000
0000
0000
,
2200
0000
3300
1000
0010
0100
0010
0000
,
0110
0000
0000
0000
0100
0001
0100
0000
0001
0000
0010
0000
0100
0000
0000
0000
,
2000
0000
3100
1000
0001
0100
0020
0000
,
1030
0100
1000
0100
1000
0000
0010
0000
0100
0000
0000
0000
0001
0100
0001
0000
,
0010
0000
0011
0000
0200
1000
1300
0000
,
1000
0000
0010
0000
0100
0000
0001
0100
0001
0000
0010
0000
0002
0000
0000
0000
,
1003
0100
1000
0000
0010
0000
0100
0010
1000
0000
0100
0000
2000
0000
0000
0000
,
3010
0000
0100
0000
0001
0000
0010
0001
1000
0000
0010
0000
0200
0000
0000
0000
,
0301
1000
0100
0010
0001
1000
0020
0000
,
1030
0000
0100
0010
0100
0000
0010
0001
1000
0000
0010
0000
0200
0000
0000
0000
,
0301
0000
1000
0100
0010
0000
0001
0100
0010
0000
1000
0000
0002
0000
0000
0000
,
0013
0000
0100
0010
0001
0000
1000
0010
0100
0000
0010
0000
2000
0000
0000
0000
,
3010
0000
0100
0001
0010
0000
0001
1000
0010
0000
0100
0000
0001
0000
1000
0000
,
0100
1000
0001
0010
,
0001
0010
0001
1000
0020
0000
1030
0000
,
0001
0001
0100
0001
0000
1000
0010
0000
,
1000
1000
0100
1000
0000
0001
0010
0000
,
0100
0100
0000
0010
0001
1000
0010
0000
,
0220
0000
0330
0010
0020
0000
0130
0000
,
0001
0100
0001
0010
0000
0010
0001
0000
,
1000
0100
1000
0010
0000
0010
1000
0000
,
0100
0100
0000
0010
0001
1000
0010
0000
,
0220
0000
0330
1001
1001
0000
1000
0001
,
0001
0000
0010
0000
0001
0000
0000
0000
1000
0000
0010
0100
0000
0001
0100
0000
,
0001
0010
1000
0000
0001
0100
1001
0000
,
0010
0100
1000
0100
0001
1000
0001
0000
,
1000
0001
0001
0010
0000
0100
0010
0000
,
0001
0000
1000
0000
0010
0000
0000
0000
0010
0000
1000
0001
0000
0100
0001
0000
,
0010
0001
0100
0000
0010
1000
1001
0000
,
1000
0010
0000
0010
0100
0001
1000
0100
,
0011
0001
0000
1010
0000
0000
0001
1000
,
1001
0000
0001
0000
0010
0000
0001
0000
1000
0000
0010
0000
0100
0010
0100
0000
,
0001
0000
1000
0000
0010
0000
1000
0000
0001
0000
0010
0000
0100
0010
0100
0000
,
1000
0000
0010
0000
1000
0000
0001
0000
0100
0000
0010
0000
1000
0001
1000
0000
,
0001
0000
0100
0000
0001
0000
1000
0000
0100
0000
0010
0000
0001
1000
0001
0000
,
1100
1000
0010
1000
0001
0010
0001
1000
,
0101
0001
0010
0001
1000
0010
1000
0001
,
0010
0010
0011
0000
0100
0100
1100
0000
,
1000
0000
0100
0000
0010
0000
0001
0000
0100
0010
0100
0010
0100
0000
0010
0100
,
0010
0000
1000
0000
0100
0000
0010
0000
0001
1000
0000
0000
1000
0100
0010
0000
,
0002
0000
0010
0000
2003
0000
0100
0000
3020
0000
0000
0000
0130
0001
0010
0000
,
0001
0000
0100
0001
0100
0000
0010
0000
1000
0000
0100
1000
0100
0000
0010
0000
,
0100
1000
0010
0000
1000
0000
0100
0000
2200
0000
0000
0000
3300
0000
0010
1000
,
0010
0000
0000
0000
0100
0000
0001
0010
0001
0000
1000
0000
0100
0000
0010
0000
,
0002
0000
0010
0000
2003
0000
0010
0000
3200
0000
0000
0000
0310
0000
0001
0010
,
0001
0000
1000
0010
1000
0000
0100
0000
0010
0000
0001
0000
0100
0000
0010
0000
,
1000
0100
0010
0001
2020
0000
3030
0000
;
