#TITLE:PARANOiA;
#SUBTITLE:(8Chasey Chart);
#ARTIST:180;
#TITLETRANSLIT:;
#SUBTITLETRANSLIT:;
#ARTISTTRANSLIT:;
#GENRE:;
#CREDIT:;
#MUSIC:PARANOiA (8Chasey Chart).mp3;
#BANNER:PARANOiA (8Chasey Chart).png;
#BACKGROUND:PARANOiA (8Chasey Chart)-bg.png;
#CDTITLE:cdtitle.png;
#SAMPLESTART:0.03;
#SAMPLELENGTH:12;
#SELECTABLE:YES;
#OFFSET:-0.042;
#BPMS:0.000=180.100;
#STOPS:;
#BGCHANGES:;
#FGCHANGES:;

//--------------- dance-single - ----------------
#NOTES:
     dance-single:
     :
     Beginner:
     2:
     0,0,0,0,0:
0000
0000
0000
0000
,
0000
0000
0000
0000
,
0000
0000
0000
0000
,
0000
0000
0000
0000
,
0000
0000
0000
0000
,
0000
0000
0000
0000
,
0001
0000
0000
0000
,
1000
0000
0000
0000
,
0001
0000
0000
0000
,
0001
0000
0000
0000
,
0001
0000
0000
0000
,
0001
0001
0001
0000
,
1000
0000
0000
0000
,
1000
0000
0000
0000
,
1000
0000
0000
0000
,
1000
1000
1000
0000
,
0001
0001
0001
0000
,
1000
1000
1000
0000
,
0010
0000
0100
0000
,
0010
0000
0000
0000
,
1000
1000
1000
0000
,
0001
0001
0001
0000
,
0010
0000
0100
0000
,
0010
0000
0000
0000
,
0001
0000
0001
0000
,
1000
0000
1000
0000
,
0010
0000
0010
0000
,
0100
0000
0100
0000
,
0001
0001
0001
0000
,
1000
1000
1000
0000
,
0001
0000
1000
0000
,
1001
0000
0000
0000
,
1001
0000
0000
0000
,
0000
0000
0000
0000
,
0001
0000
1000
0000
,
0001
0000
1000
0000
,
1001
0000
0000
0000
,
0000
0000
0000
0000
,
0010
0000
0100
0000
,
0110
0000
0000
0000
,
0001
0000
0000
0000
,
0000
0010
0010
0010
,
0010
0010
0000
0000
,
0010
0010
0000
0000
,
1000
0000
0001
0000
,
1000
0000
0000
0000
,
0100
0100
0000
0000
,
0100
0100
0000
0000
,
0001
0000
1000
0000
,
0001
0000
0000
0000
,
0001
0000
0000
0000
,
0001
0000
0000
0000
,
1000
0000
0000
0000
,
1000
0000
0000
0000
,
0010
0000
0010
0000
,
0010
0000
0000
0000
,
0100
0000
0100
0000
,
0100
0000
1001
0000
,
1000
0000
1000
0000
,
0001
0000
0001
0000
,
0010
0000
0010
0000
,
0100
0000
0100
0000
,
1000
0000
0001
0000
,
0010
0000
0100
0000
,
0010
0010
0010
0000
,
0100
0100
0100
0000
,
0000
0100
0000
0100
,
0000
0000
0100
0000
,
0000
0010
0000
0010
,
0000
0000
0010
0000
,
1000
0000
1000
0000
,
1000
1000
1000
0000
,
0001
0000
0001
0000
,
0001
0001
0001
0000
;

//--------------- dance-single - ----------------
#NOTES:
     dance-single:
     :
     Easy:
     4:
     0,0,0,0,0:
0000
0000
0000
0000
,
0000
0000
0000
0000
,
0000
0000
0000
0000
,
0000
0000
0000
0000
,
0000
0000
0000
0000
,
0000
0000
0000
0000
,
0020
0000
0030
0000
,
0010
0010
0010
0000
,
0001
0001
0002
0003
,
1000
1000
2000
3000
,
0010
0010
0020
0030
,
0110
0000
1001
0000
,
1000
1000
2000
3000
,
0001
0001
0002
0003
,
0100
0100
0200
0300
,
0110
0000
1001
0000
,
0001
0101
1000
1100
,
0010
0010
0010
0000
,
1000
0001
1000
0001
,
0010
0100
0110
0000
,
1000
0001
0100
0010
,
1000
1000
0001
0001
,
1000
0010
0100
0001
,
0010
0100
2002
3003
,
0001
0001
1000
0001
,
1000
1000
2000
3000
,
1000
1000
0001
1000
,
0001
0001
0002
0003
,
0010
0000
0100
0000
,
0010
0100
0010
0100
,
0001
0000
1000
0000
,
0001
1000
1001
0000
,
2002
0000
3003
0000
,
0010
0000
0100
0000
,
0001
0100
1000
0100
,
0001
0000
1001
0000
,
0001
0000
0000
0000
,
1000
0000
0000
0000
,
0010
1000
0001
0100
,
0110
0100
0010
1001
,
0010
0000
1100
0101
,
0000
0010
0010
0020
,
0031
0010
0000
0001
,
1000
0010
0000
1000
,
0100
0100
0010
0010
,
0110
0000
0000
0000
,
1000
0001
0000
0001
,
0001
1000
0000
1000
,
0001
0001
1000
1000
,
1001
0000
0000
0000
,
0010
0000
0010
0000
,
0100
0000
0100
0000
,
1000
0000
0001
0000
,
0010
0010
0110
0000
,
0001
1000
0001
1000
,
0100
0000
0010
0000
,
1000
0001
1000
0001
,
0100
0000
1001
0000
,
1000
1000
0001
0010
,
0100
0100
0010
1000
,
0001
0001
1000
1000
,
0110
0000
1001
0000
,
0001
0001
1000
0100
,
0010
0010
0100
0001
,
1000
1000
0001
0001
,
0110
0000
1001
0000
,
0000
1000
0000
1000
,
0000
0001
0000
0001
,
0000
0010
0000
0010
,
0000
0000
1001
0000
,
0002
0003
0002
0003
,
2000
0000
3001
0000
,
2000
3000
2000
3000
,
0002
0000
1003
0000
;

//--------------- dance-single - ----------------
#NOTES:
     dance-single:
     :
     Medium:
     6:
     0,0,0,0,0:
0000
0000
0000
0000
,
0000
0000
0000
0000
,
0000
0000
0000
0000
,
0000
0000
0000
0000
,
0000
0000
0000
0000
,
0000
0000
0000
0000
,
0200
0000
0310
0000
,
1000
0000
0001
0000
1000
0001
1000
0000
,
1001
0000
0000
0000
0010
0010
0010
0000
,
0100
0000
0001
1000
0001
0000
0010
0000
,
0010
0000
0000
1000
0000
0000
0001
0000
,
0100
0001
1000
0100
,
0010
0000
0000
0010
0000
0000
1000
0001
,
0000
1000
0002
0000
1000
0000
0103
0000
,
0020
0000
0030
0000
0001
1000
0001
0000
,
1000
0001
1000
0000
0010
0000
0010
0000
,
0100
1001
0000
1000
,
0001
1001
0010
0000
,
0100
0001
0100
0010
,
1000
0100
0010
0000
,
1001
0100
1000
0000
,
0010
0100
0001
0000
,
0001
0100
0000
0100
0010
0000
1000
0000
,
0100
0010
1001
0000
,
0001
0000
0001
0000
0100
0001
0100
0000
,
0010
0100
1000
0010
,
0200
0300
0001
0010
,
0010
0000
0100
0001
0100
0000
0000
0000
,
1000
0000
0100
1000
0000
0000
1000
0000
,
0001
0000
0100
0001
0000
0000
0001
0000
,
1000
0010
0100
0010
,
0000
1001
0000
0110
,
0010
0000
0010
0000
0100
0001
0010
0000
,
0100
1000
0001
0001
,
0100
0010
1000
0000
0001
0000
1000
0000
,
0001
1000
1001
0000
,
0010
0000
0100
0000
0010
0100
0001
0000
,
1000
0000
0100
0000
0010
0100
0010
0000
,
0001
0100
1000
0100
,
0001
1000
1001
0000
,
0010
0000
1100
0101
,
0000
0010
0010
0020
,
0031
0000
0010
0000
0001
0010
0001
0000
,
1000
0000
0010
0000
1000
0010
1000
0000
,
0100
0000
0010
0000
0100
0010
0100
0000
,
0110
0110
1001
1001
,
0001
0000
0100
0000
0001
0100
0001
0000
,
1000
0000
0100
0000
1000
0100
1000
0000
,
0010
0000
0100
0000
0010
0100
0010
0000
,
2002
0000
0000
3003
,
0001
0000
0010
0000
0001
0010
1000
0000
,
0010
0100
2000
3001
,
0001
0010
0001
1000
,
0010
1000
2002
3003
,
0001
0100
1000
0100
,
0001
1000
0001
0000
2000
0000
3000
0000
,
0010
0010
0100
0100
,
0001
1000
2002
3003
,
0001
1000
0002
0000
,
0103
0000
0000
0000
0001
1000
0001
0000
,
1000
0001
2000
0000
,
3100
0000
0000
0000
1000
0001
1000
0000
,
0010
0100
0010
0100
,
0110
0000
0001
1000
,
0002
0000
0013
0100
,
2000
0000
3010
0100
,
0010
0100
0010
0100
,
2002
0000
3003
1001
,
0001
0010
0000
0010
0000
0010
0000
0010
,
0100
0100
1001
0000
,
1000
0010
0000
0010
0000
0010
0000
0010
,
0100
0100
1001
0000
,
0001
1000
0001
0000
1000
0001
1000
0000
,
0020
0000
0200
0330
;

//--------------- dance-single - ----------------
#NOTES:
     dance-single:
     :
     Hard:
     9:
     0,0,0,0,0:
0000
0000
0000
0000
,
0000
0000
0000
0000
,
0000
0000
0000
0000
,
0000
0000
0000
0000
,
0000
0000
0000
0000
,
0000
0000
0000
0000
,
0001
1000
0100
0010
,
2002
0000
0000
3003
,
1000
0100
1000
0000
0001
0010
0001
0100
,
0010
1000
0100
1000
0001
0000
1001
0000
,
0100
0001
0100
0010
1000
0100
1000
0000
,
1002
0000
0010
0000
1003
0100
1100
0000
,
0010
0100
0001
0100
0010
1000
1001
0000
,
0100
0001
0010
0001
1000
0000
1001
0000
,
0100
0001
0100
1000
0100
0001
1000
0000
,
0010
0100
0001
1000
1001
0100
0101
0000
,
1000
0100
0010
1000
0000
0010
0001
0000
,
0100
0010
0100
0001
0000
1000
0010
0000
,
0120
0000
0031
0010
2000
0100
0000
3002
,
0013
1100
0101
0011
,
0100
0010
1000
0200
0000
0010
0310
0000
,
0001
0100
0000
1010
0000
1000
0001
0000
,
0010
0100
0010
0001
0000
1000
0010
0200
,
0001
0000
0010
0000
1300
0100
0001
0000
,
1001
0000
0000
0000
0001
0010
1000
0010
,
0002
0000
0103
0020
0000
1030
0010
0000
,
0010
1000
0100
0010
0100
1000
0001
0100
,
0010
0010
1100
0101
,
0001
0010
1000
0010
0100
1000
0010
0000
,
0200
0000
0301
0020
0000
1030
0010
0000
,
1001
0001
1001
1000
,
0010
0100
0001
0010
1000
0000
0010
0000
,
1000
1000
0002
0000
0000
0100
0003
0100
,
0020
0000
1030
0000
0100
0010
0000
0000
,
0101
0000
0010
1000
0001
0001
0000
1000
,
0020
0000
1030
0000
0100
0010
0100
0010
,
1000
1000
0001
0001
0010
0000
1001
0000
,
0010
0100
0001
0100
0002
0000
0013
0000
,
0010
0100
1000
0100
0001
1000
0001
0000
,
0100
0000
0001
0000
0000
0001
0000
0000
1000
0000
0002
0000
0003
0000
0000
0000
,
0010
0000
0000
0000
0001
0010
1000
0000
,
0000
0000
0001
0100
1000
0100
0001
0000
,
0002
0203
0320
2030
,
3200
2300
3020
0230
,
0302
0013
0101
1001
,
0010
0100
0001
0010
0001
0000
0011
0000
,
0200
0320
2030
3200
,
0320
0230
0320
0032
,
2003
3200
2300
3020
,
0130
0001
0010
0001
1001
0000
0110
0000
,
0100
0010
0001
0010
0100
0000
1000
0000
,
0001
0000
0000
1000
0000
0000
2000
0000
0000
0000
0000
0000
3100
0000
0000
0000
,
1000
0010
0100
0010
1000
0001
0100
0000
,
1000
0000
0000
0001
0000
0000
0002
0000
0000
0000
0000
0000
0013
0000
0000
0000
,
0001
0011
1000
1010
,
1000
0010
0100
0002
0000
0000
0103
0000
,
0001
0010
0100
2000
0010
0000
3010
0000
,
1000
1100
0000
0000
0001
0101
0000
0000
,
0100
0001
1000
0100
0010
0002
0000
0010
,
0000
0100
0100
1000
0000
0023
0000
0000
,
0130
0000
0210
0000
0301
2000
3001
0000
,
0101
0010
2000
0002
0000
3003
1001
0000
,
0010
1000
0001
0010
0100
2000
0000
0100
,
0000
0010
0010
0001
0000
3200
0000
0000
,
0310
0000
1001
0000
0010
0100
0110
0000
,
1000
0001
0000
1002
0000
0203
0310
2000
,
3001
1000
0001
0010
0100
0010
0100
1000
,
0100
0010
0002
0000
1000
1000
1003
0000
,
0001
0010
0001
1000
0010
1000
0001
0010
,
0001
0100
0010
0100
0010
0000
1001
0000
,
0001
0010
0002
1000
2003
0100
0000
3010
,
0100
0010
1000
0001
2000
0001
3001
0000
,
0010
0010
0100
0100
1000
0001
1000
0001
,
0100
0010
1001
0000
;

//--------------- dance-single - ----------------
#NOTES:
     dance-single:
     :
     Challenge:
     10:
     0,0,0,0,0:
0000
0000
0000
0000
,
0000
0000
0000
0000
,
0000
0000
0000
0000
,
0000
0000
0000
0000
,
0000
0000
0000
0000
,
0000
0000
0000
0000
,
0002
0000
1000
0003
,
0100
0001
0100
0001
1000
0001
1000
0001
,
0001
1000
0100
0000
1000
0010
1000
0000
,
0001
1000
0100
1000
0001
0010
0100
0000
,
0001
0100
0101
0000
1000
0100
1100
0000
,
0010
0001
1000
0100
0020
0000
0130
0010
,
0100
0000
1000
0100
0001
0000
0100
1000
,
0001
0000
0010
0001
2000
0100
0100
0100
,
3200
0000
0310
0000
0010
0001
0100
0000
,
0010
1000
0001
0000
1000
0010
0020
0000
,
0130
0010
1000
0100
1000
0001
0010
0010
,
0100
0000
0100
0000
0001
0000
1000
0010
0100
0000
0001
0000
0010
0000
0000
0000
,
1000
0100
0010
0010
0100
1000
0010
0100
,
0002
0000
0013
0001
2000
0000
3200
0000
,
0310
0001
0010
0100
0100
0001
0100
1000
,
0010
0000
0010
0000
0100
0000
0001
1000
0010
0000
0100
0000
0110
0000
0000
0000
,
0001
1000
0020
0100
0230
0001
0302
0020
,
0003
1030
0000
2010
0000
0001
3001
0000
,
0102
0000
0000
0010
0023
0000
0000
0100
,
0230
2300
3001
0101
,
0011
0000
0100
0010
2000
0000
0100
0000
,
3001
0010
0100
0010
0001
0100
0010
0000
,
1100
1000
0010
0100
1000
0200
0000
0000
,
0301
0010
0011
0000
0101
0100
0020
0000
,
1030
2000
0000
0100
3001
0002
0000
0010
,
0013
0100
0010
1002
0000
0000
0013
0000
,
0110
0000
1100
0000
0101
1000
0001
1000
,
0000
0110
0000
0011
0000
1100
0000
0000
,
0001
0010
0100
1000
0010
0100
0001
1000
,
0100
0000
0100
0020
0000
0001
0031
0000
,
1000
0010
0100
0001
1000
0010
1000
0001
,
0000
0000
0001
0010
0001
0000
0010
0000
0100
0000
1000
0000
0010
0000
0000
0000
,
1000
0001
0010
0001
0000
0100
0000
1010
,
0000
0000
0100
0000
0001
0000
0010
0000
0100
0000
1000
0010
1000
0000
0000
0000
,
0020
1030
0020
0031
,
0001
0100
1000
0000
1000
0100
0001
0000
,
0001
0001
0101
0000
0001
0010
0011
0001
,
1000
1000
1100
0000
1000
0010
1010
1000
,
0001
1000
1001
0000
1000
0001
1001
0000
,
0110
0000
0000
1001
0000
0000
0110
0000
2002
0000
0000
0000
3003
0000
0000
0000
,
0001
0011
1001
0000
1000
1100
1001
0000
,
1100
0000
0000
1010
0000
0000
0101
0000
0022
0000
0000
0000
0033
0000
0000
0000
,
1000
1010
1001
0000
0001
0101
1001
0000
,
0101
0000
0000
0011
0000
0000
1100
0000
1010
0000
0000
0000
0110
0000
0000
0000
,
0010
1000
0100
1000
0010
0100
0001
0010
,
0001
0000
0100
0001
1000
0000
0010
0000
1000
0000
0100
0000
0010
0000
0000
0000
,
0100
0000
1000
0001
0010
0000
0001
0000
0100
0000
0010
0000
0100
0000
0010
0000
,
1000
0000
0100
1000
0010
0000
0100
0000
0010
0100
0001
0000
0010
0000
0001
0000
,
1000
0010
0010
0100
0001
0010
0001
1000
,
0010
0000
0100
0001
1000
0000
0010
0000
0100
0000
0001
0000
0010
0000
0100
0000
,
1001
0000
0010
1000
0100
0001
0100
1100
,
0000
0000
0000
0000
0001
0010
0100
0010
0001
0000
1000
0000
0010
0000
0100
0000
,
0001
0000
1000
0000
0100
0000
0000
0000
0110
0000
0000
1001
0000
0000
0000
0000
,
1000
0000
0001
0000
0100
0000
0000
0000
0110
0000
0000
1001
0000
0000
0000
0000
,
0201
0000
0000
0000
0010
0000
0010
0000
0301
0000
0000
1001
0000
0000
0000
0000
,
1200
0000
0000
0000
0010
0000
0010
0000
1300
0000
0000
1001
0000
0000
0000
0000
,
0010
0000
0000
0000
1100
0000
0000
0000
0001
0000
0100
0001
0000
0000
1000
0000
,
0010
0000
0000
0000
0101
0000
0000
0000
1000
0000
0100
1000
0000
0000
0001
0000
,
0100
1010
0100
0011
,
1000
0000
0010
1000
0100
0000
1000
0001
1000
0000
0000
0000
1001
0000
0000
0000
,
1001
0000
0000
0000
0001
0000
0100
0010
0100
0000
0010
0000
0010
0000
0000
0000
,
2000
3001
0020
0000
0100
0100
0130
0000
,
0101
0000
0000
0000
1000
0000
0010
0000
0100
0001
0100
0000
0010
0000
0000
0000
,
2000
0000
3002
0000
0013
0000
0100
0010
,
0110
0000
0000
0000
0100
0000
0001
0000
0010
1000
0010
0000
0001
0000
0000
0000
,
1100
0010
0010
0000
0101
0010
0010
0000
,
1002
0203
0020
0330
,
0210
0001
0301
0000
1001
0000
0000
0000
;
