#TITLE:PARANOIA EVOLUTION;
#SUBTITLE:(8Chasey Chart);
#ARTIST:200;
#TITLETRANSLIT:;
#SUBTITLETRANSLIT:;
#ARTISTTRANSLIT:;
#GENRE:;
#CREDIT:8Chasey 2025;
#MUSIC:PARANOIA EVOLUTION (8Chasey Chart).mp3;
#BANNER:PARANOIA EVOLUTION (8Chasey Chart).png;
#BACKGROUND:PARANOIA EVOLUTION (8Chasey Chart)-bg.png;
#CDTITLE:cdtitle.png;
#SAMPLESTART:0.000;
#SAMPLELENGTH:12;
#SELECTABLE:YES;
#OFFSET:-4.842;
#BPMS:0.000=200.050;
#STOPS:;
#DISPLAYBPM:200.000;
#BGCHANGES:;
#FGCHANGES:;

//--------------- dance-single - 8Chasey ----------------
#NOTES:
     dance-single:
     8Chasey:
     Beginner:
     3:
     0,0,0,0,0:
0000
0000
0000
0000
,
0000
0000
0000
0000
,
1000
0000
0100
0000
,
1000
0000
1000
0000
,
0001
0001
0001
0000
,
0001
0000
0100
0000
,
1000
1000
1000
0000
,
1000
0000
0100
0000
,
0010
0000
0010
0000
,
0100
0100
0000
0000
,
0010
0010
0010
0010
,
0010
0000
0100
0000
,
1001
0000
0001
0000
,
1000
1000
1000
0000
,
1001
0000
1000
0000
,
0001
0001
0001
0000
,
0010
0000
0010
0000
,
0100
0000
0100
0000
,
0010
0010
0010
0000
,
0100
0000
1001
0000
,
1000
0000
0000
0000
,
1000
0000
0000
0000
,
0001
0000
0000
0000
,
0001
0000
0000
0000
,
0010
0000
0000
0000
,
0100
0000
0000
0000
,
0100
0000
0100
0000
,
0010
0000
0010
0000
,
0010
0000
0000
0000
,
0010
0000
1000
0000
,
0100
0000
0000
0000
,
0100
0000
0001
0000
,
0010
0000
0001
0000
,
0010
0000
1000
0000
,
0100
0000
0100
0000
,
1001
0000
0110
0000
,
0001
0000
1000
0000
,
0001
0000
1000
0000
,
0100
0000
0100
0000
,
1001
0000
0000
0000
,
0010
0000
1000
0000
,
0100
0000
0000
0000
,
0010
0000
0001
0000
,
1001
0000
0000
0000
,
0100
0000
0010
0010
,
0010
0000
1000
0000
,
0001
0000
0000
0000
,
1000
0000
1000
0000
,
1000
0000
1000
0000
,
0000
0000
0001
0000
,
0001
0000
0001
0000
,
0001
0000
0000
0000
,
0100
0000
0100
0000
,
0000
0000
0010
0000
,
0000
0000
0010
0000
,
0001
0000
0000
0000
,
0010
0000
0000
0000
,
0001
0000
0001
0000
,
0001
0000
0000
0000
,
1000
0000
0000
0000
,
0100
0000
0000
0000
,
1000
0000
1000
0000
,
1000
0000
0000
0000
,
0001
0001
0001
0000
,
1000
0000
0001
0000
,
1000
1000
1000
0000
,
0001
0000
1000
0000
,
0010
0010
0010
0000
,
0100
0000
0010
0000
,
0100
0100
0100
0000
,
0010
0000
0100
0000
;

//--------------- dance-single - 8Chasey ----------------
#NOTES:
     dance-single:
     8Chasey:
     Easy:
     6:
     0,0,0,0,0:
0000
0000
0000
0000
,
0000
0000
0000
0000
,
1000
1000
0001
0001
,
0010
0010
0010
0000
,
0010
0010
0100
0100
,
0001
0000
1000
0100
,
0010
0010
0100
0100
,
1000
0000
0001
0000
,
0100
0000
0001
0000
0100
0000
0000
0010
,
0000
1000
0010
0000
,
1000
0100
0010
0001
,
0100
0000
0010
0010
,
1000
1000
0200
0300
,
1000
0010
0002
0003
,
0001
0001
0200
0300
,
0001
0010
2000
3000
,
0100
1000
0020
0030
,
0100
0001
0020
0030
,
0002
0000
2003
0000
,
3100
0000
2002
3003
,
0010
0000
1001
0000
,
0100
0000
0100
0000
,
0001
0000
0010
0000
,
1000
0000
0100
0000
,
1000
1000
0010
0010
,
0001
0001
1001
0000
,
0100
0001
0010
0000
,
0100
1000
0010
0000
,
0001
0010
0001
0000
,
1000
0100
0001
0000
,
0010
0001
1000
0100
,
0010
0010
0010
0000
,
0001
0100
0101
0000
,
1000
0010
1010
0000
,
0100
0001
1000
0100
,
1001
0000
0110
0000
,
0010
0000
1000
0001
,
0000
0000
0100
0000
,
0010
0010
0010
0000
,
1000
0010
1000
0100
,
0001
0000
0202
0303
,
0001
0010
0100
0000
,
2200
3300
0020
0030
,
1001
0000
0010
0000
,
1000
0001
1000
1001
,
0001
0000
0100
0100
,
0020
0000
1030
0000
,
0001
0000
1000
0000
,
0100
0010
0001
0000
,
1000
0010
1000
0000
,
0010
0100
0010
0000
,
0100
1001
0000
0001
,
1000
0000
0001
1000
0001
0000
0000
0000
,
1000
0100
0010
0001
,
0100
0000
0110
0000
,
1000
0000
1000
0000
,
1000
1000
1000
0000
,
0001
0000
0001
0000
,
0001
0001
0001
0000
,
0100
0000
0000
0000
,
0010
0000
0110
0000
,
0100
0000
1001
0000
,
1000
0001
1000
0001
,
1001
0000
0001
0000
,
1000
0100
1000
0000
,
0010
0000
0001
0100
,
0001
0000
0010
0000
,
0001
0100
0100
0000
,
1000
0010
0010
0000
,
1000
0001
0110
0000
,
0100
0100
0001
0000
;

//--------------- dance-single - 8Chasey ----------------
#NOTES:
     dance-single:
     8Chasey:
     Medium:
     8:
     0,0,0,0,0:
0000
0000
0000
0000
,
0000
0000
0000
0000
,
0001
0010
0010
0001
,
1000
0010
1010
0000
,
0020
0031
0200
1300
,
1000
0010
0100
0000
0001
0000
1000
0000
,
0020
1030
0200
0301
,
1000
0001
0110
0010
,
0001
0010
0100
0000
0001
0010
0100
0000
,
1000
0010
0100
0000
1000
0010
0100
0000
,
0001
0100
0001
0000
1000
0010
1000
0000
,
0100
0010
0100
0100
,
1001
0000
0001
0000
1000
0100
0001
0000
,
0010
0000
0001
0000
1000
0010
0100
0010
,
0100
0000
0001
0000
0001
1000
0100
0000
,
0001
0100
1000
0000
0001
0010
1000
0000
,
0010
0000
0110
0000
0010
0001
1000
0000
,
0010
0000
0010
0000
1000
0100
0001
0000
,
1000
0000
0001
0000
0010
0001
0100
1000
,
0000
0100
0010
0000
0110
0000
1001
0000
,
1000
0000
0001
0001
,
0000
0100
0010
1000
,
0100
0010
0100
0000
,
0010
0001
1000
0010
,
0100
0100
0100
0000
,
0010
0000
1001
0000
,
0000
0000
1000
0000
0001
1000
0001
0000
,
0110
0000
0000
0001
0010
0000
0001
1000
,
0000
0000
1000
0000
0001
0000
0000
0100
,
0000
0100
0110
0000
,
0010
0100
0010
0000
0100
0000
0000
0001
,
0000
0000
1000
0000
0100
0000
0010
0010
,
0100
1000
0100
0000
0010
0000
0001
0010
,
0001
1000
1001
0110
,
0100
0000
0000
0100
0000
0000
0100
0000
0000
0000
0000
0000
0001
0000
0000
0000
,
1000
0000
0010
0100
0010
0000
0110
0000
,
0110
0000
0100
0101
,
0000
0001
1000
0000
,
0000
0010
1000
0001
,
1000
0000
0000
0010
0000
1000
0000
1010
,
0000
1000
0001
0100
,
0001
0000
0000
0010
0000
0001
0000
0011
,
0000
1000
1001
0001
,
1001
0000
0000
0100
0000
0001
0000
1000
,
0000
0010
0100
0000
0110
0000
0000
1010
,
0000
0000
0000
0011
0000
0000
0000
1001
,
0000
0000
0110
0000
0100
0100
0100
0000
,
1000
0010
0100
0000
0100
0000
0001
0000
,
0001
0010
0100
0000
0100
0000
1000
0000
,
0010
1010
0100
0101
,
0001
0010
0001
1000
0100
0000
1001
0000
,
1000
0100
0010
0011
,
0001
0100
0010
1010
,
1000
0100
0001
0100
,
0001
1000
0100
1000
0001
0000
0110
0000
,
1000
0000
1000
0000
,
0100
1000
0010
0000
,
0001
0000
1000
0001
,
0010
0020
0000
0030
,
0001
0100
0001
0000
,
1000
0010
1000
0000
,
0110
0100
0200
0000
,
0302
0000
2003
0000
,
3001
0101
1000
1010
,
1000
0010
0010
0000
0100
0001
1000
0000
,
0010
0101
1100
0010
,
0100
1000
1000
0010
0100
0000
0010
0000
,
0100
0001
0011
0010
,
0001
0010
0001
1000
0010
0000
0100
0000
,
0100
0001
0010
0000
0001
1000
0010
0000
,
1000
0100
0001
0100
0010
0000
0000
0000
;

//--------------- dance-single - 8Chasey ----------------
#NOTES:
     dance-single:
     8Chasey:
     Hard:
     9:
     0,0,0,0,0:
0000
0000
0000
0000
,
0000
0000
0000
0000
,
0001
0000
0010
0000
0100
0000
1000
0010
,
0000
1000
0000
1000
0020
0000
0030
0000
,
0101
0000
0100
0010
0100
0001
1000
0100
,
0000
1000
1000
0100
0010
0001
0001
0100
,
0010
1000
0010
0000
0100
0001
1000
1001
,
0000
1000
0010
1000
0100
0000
0010
0001
,
0001
0010
0001
0010
0100
1000
0100
1000
,
0000
1001
1000
0001
0010
0000
0010
0010
,
0001
1000
0001
1000
0010
0100
0010
0100
,
0000
0110
1000
0100
0001
0000
0010
0001
,
1000
0010
0001
0010
,
0100
0010
0100
0001
0000
1000
1000
0000
,
0001
1000
0010
0010
,
0100
1000
0001
0010
0000
0100
0100
0000
,
0010
1000
0010
0001
,
0100
0001
1000
0100
0000
0000
0000
0000
,
0100
0100
1000
0001
0000
0000
1001
0000
,
0100
0100
0001
1000
0000
0000
1001
0000
,
0010
0000
0001
0010
0000
0100
0010
0001
,
1000
0000
0100
1000
0001
0000
0100
0000
,
0110
0000
0000
0110
0000
0000
0110
0000
,
0100
0000
0001
1000
0100
0000
1100
0000
,
0101
0000
0000
0000
1000
0001
0010
0000
,
0001
0000
0000
0010
0001
0010
0100
0010
,
0001
0000
1000
0000
0100
0000
1000
0010
,
0100
0101
1100
0010
,
0010
0000
1000
0000
1010
0000
0000
0100
,
0000
0001
0101
0001
,
1000
1000
1001
0001
,
0010
0100
0110
0000
,
0100
0000
1000
1010
0000
0100
0001
1000
,
0010
0110
0010
1000
0000
1000
0001
0010
,
0011
0000
0001
0100
0100
0010
1000
0100
,
0010
0001
0001
0101
0000
0010
1000
1000
,
0010
0000
0100
0100
,
0000
0000
0001
0000
0000
0001
0000
0000
,
0001
1000
0001
0100
,
1001
0000
0001
1000
0100
0000
1000
0010
,
0100
0001
0010
0001
1000
0100
0010
0000
,
1100
0000
1000
0010
0100
0001
1000
0000
,
0101
0000
0001
1000
0000
0100
1000
0001
,
0010
0000
0100
1000
0010
0000
0001
1000
,
0001
0010
0100
0010
0001
0000
1010
0000
,
0011
0000
0100
0001
1000
0000
0010
0010
,
1000
0001
0000
0100
0001
1000
0100
2000
,
0000
0000
3010
0000
1000
0001
0010
0000
,
0001
0100
0001
0010
0001
0000
0011
0000
,
0001
0010
1000
0000
0010
0100
1000
0000
,
1000
0100
1000
0010
1000
0000
1010
0000
,
0100
0001
0100
0000
0010
0000
0001
0000
,
0010
1000
0100
0000
1000
0000
0101
0000
,
0001
0010
0001
0000
1000
0100
1000
0000
,
1001
0000
0000
0000
0001
0010
0100
0010
,
1001
0000
1000
0100
0000
0010
0001
1000
,
0010
0000
1010
1000
0001
0010
0011
0000
,
1000
0000
0001
0011
0000
1000
0010
0100
,
1000
0100
0001
1000
0100
0000
1100
0000
,
0110
0000
0010
0001
1000
1010
0000
0011
,
0000
1000
0100
0001
1000
0010
0001
0100
,
0000
0010
0000
1100
0000
0010
0000
0101
,
0000
0000
1000
0000
0001
0010
0001
0000
,
0010
0001
0010
0000
0100
0010
0001
0000
,
1000
0010
1000
0001
0100
0010
0100
0001
,
1000
0100
0010
0000
1000
0010
0001
0000
,
0100
0010
0100
0001
1000
0100
0010
0100
,
0010
0101
0000
0000
0100
1010
0000
0000
,
0001
0010
0001
1000
0100
0010
0100
1000
,
0001
0001
0010
0010
0100
0100
1000
1000
,
0101
1100
1001
0000
;

//--------------- dance-single - 8Chasey ----------------
#NOTES:
     dance-single:
     8Chasey:
     Challenge:
     10:
     0,0,0,0,0:
0000
0000
0000
0000
,
0000
0000
0000
0000
,
1000
0010
1000
0000
0001
0100
0001
0000
,
1000
0100
0010
0000
0001
0100
0010
0000
,
0001
0100
1000
0010
0000
0010
1000
0010
,
1000
0001
0101
0000
0001
1000
0100
0010
,
0110
0000
0100
1000
0000
0001
1000
0010
,
0100
0001
0010
0000
0001
1000
0100
0010
,
0100
0000
1000
1001
0000
0001
0010
0001
,
0100
0010
1000
0100
0000
0100
1000
0010
,
1000
0010
0000
0000
0100
0000
0000
0000
0001
0010
0000
0000
0100
0000
0000
0000
,
0100
0000
1000
0000
0001
0000
0011
0000
0000
0000
0001
1000
0001
0000
1000
0000
,
0001
1000
1100
0000
1000
0100
0100
1000
,
0010
0100
0010
0100
0000
0001
0101
0100
,
0000
0000
0010
0100
0010
0000
1000
0000
0100
0000
0100
0000
0000
0000
1000
0000
,
0100
1000
0001
0011
0000
0010
0001
1001
,
0000
1000
0010
1000
0010
0100
0001
0100
,
0010
1000
1001
0000
1000
1000
0001
1000
,
0000
0100
0010
0001
1000
1100
0000
1000
,
0010
0000
0010
0000
0100
0000
0101
0000
0000
0000
1000
0001
1000
0000
1010
0000
,
0001
0100
0001
1000
0010
0000
1000
0100
,
1000
0010
0000
0000
0101
0000
0000
0000
1000
0001
0000
0000
1000
0000
1000
0000
,
0010
1000
0001
0001
0100
0010
0010
1000
,
0100
0000
1000
0000
1000
0010
0000
0000
0110
0000
0000
0000
0001
0100
0001
0000
,
0010
0001
1000
0100
1000
0000
0010
1000
,
0001
0100
0001
0000
1100
1000
0101
0001
,
1000
0000
0000
1000
0000
0000
1000
0000
0000
0001
0000
0000
0001
0000
0010
0000
,
0001
0100
0000
0000
0010
0000
0010
0000
0110
0000
0000
0000
0100
0010
0100
0000
,
0001
0000
0010
0000
0011
0000
0000
0000
0100
0000
0010
0000
0100
0001
0100
0000
,
0010
0000
1000
0000
0100
0000
0020
0000
0001
0000
0030
0000
0100
1000
0100
0000
,
0010
0000
0000
0000
0101
0000
0000
0000
0010
0001
0010
0000
0100
0000
0010
0000
,
0100
0000
0000
0000
1010
0000
0000
0000
0100
0000
0000
0000
0001
0010
0100
0000
,
2000
0000
0001
0000
3001
0000
0000
0000
0200
0000
0000
0000
0310
1000
0010
0000
,
0100
0000
0001
0000
1000
0000
0100
0000
0020
0000
0000
0000
1030
0010
1000
0000
,
0010
0000
0001
0000
0010
0000
0100
0000
1000
0001
1000
0000
0010
0000
0110
0000
,
0000
0100
0001
0000
1000
0100
0010
0100
,
0010
0000
1000
0010
1000
0000
0000
0000
0000
0000
0001
0010
0001
0000
0000
0000
,
0100
0100
0001
1000
,
0001
0010
0001
1000
0010
0100
0010
0000
,
0100
0000
1000
0000
1001
0000
0000
1000
0010
0000
0010
0000
0100
0000
0000
0001
,
0010
0000
0001
0000
1000
0100
0010
0000
0100
0000
1000
0000
0001
0000
0100
0000
,
0001
0010
0001
1000
0010
1000
0100
0010
0100
0000
0100
0000
1000
0000
0000
0000
,
0100
1000
0010
1000
0001
0100
0001
0010
0100
0000
0010
0000
0001
0000
0001
0000
,
1000
0000
0100
1000
0010
0000
1000
0001
0100
0000
0001
0000
0010
0000
0100
0010
,
0001
0100
0001
0000
1000
0000
0001
1000
0100
0000
1000
0010
0100
0000
0001
0000
,
0010
0001
0100
0010
1000
0001
1000
0100
0010
0000
0100
0000
1000
0001
1000
0000
,
0001
1000
0100
1000
0010
0100
0001
0010
0100
0000
0010
0000
0011
0000
0000
0000
,
0101
0000
0001
0000
1000
0000
0000
0001
0000
1000
0000
0001
1000
0000
0000
0000
,
0010
0100
0001
0000
1000
0010
1010
0000
,
1100
0000
0010
0000
0100
0000
0000
1000
0000
0001
0000
1000
0001
0000
0000
0000
,
0100
0001
0010
0000
0100
0010
0110
0000
,
0001
0000
0100
0000
0100
0000
0001
0000
0000
0100
0000
0000
0001
0000
0000
0000
,
1000
0000
0100
0000
0100
0000
1000
0000
0000
0100
0000
0000
1000
0000
0000
0000
,
0010
0000
1000
0000
0001
0000
0100
0000
0000
0100
0000
0000
0001
0000
0000
0000
,
1000
0010
0100
0000
0001
0000
0101
0000
,
1000
0100
0000
0000
1000
0001
0000
0000
0100
0010
0000
0000
0001
0010
0000
0000
,
0001
1000
0000
0000
0010
0100
0000
0000
1000
0100
0000
0000
0001
0010
0000
0000
,
0001
1000
0000
0000
0100
1000
0000
0000
0001
1000
0000
0000
0100
0010
0000
0000
,
1000
0010
0000
0000
0001
0010
0000
0000
0100
1000
0000
0000
0001
0100
0000
0000
,
0001
0010
0001
0000
1000
0100
0010
0100
,
1000
0001
0100
0000
0010
1000
0110
0000
,
0000
0110
0000
0000
0110
0000
0100
0001
,
1000
0001
0010
0001
1000
0100
0010
0000
,
1000
0100
0000
0000
1100
0000
0000
0000
1000
0100
0010
0000
0100
0010
0000
0000
,
0001
0100
0000
0000
0101
0000
0000
0000
0001
0100
0010
0000
0100
0010
0000
0000
,
1000
0000
0000
0001
0010
0000
0010
0000
0110
0000
0100
0000
0010
0001
0000
1001
,
0000
1000
1000
0000
0110
0010
0100
0010
,
0010
0100
0000
0000
0010
0100
0000
0000
0010
0100
0000
0000
0010
0100
0000
0000
,
0001
0010
0001
0010
0001
0000
0000
0000
1000
0010
1000
0010
1000
0000
0000
0000
,
0001
0100
0000
0000
0110
0000
0000
0000
1000
0100
0000
0000
0110
0000
0000
0000
,
0001
0000
1000
0100
0010
0000
0000
0000
1001
0000
0000
0000
0000
0000
0000
0000
;
