#TITLE:Oops! I Did It Again;
#SUBTITLE:-Just Dance 4 Mix-;
#ARTIST:The Girly Team;
#TITLETRANSLIT:;
#SUBTITLETRANSLIT:;
#ARTISTTRANSLIT:;
#GENRE:;
#CREDIT:;
#BANNER:Oops! I Did It Again (Just Dance 4 Mix).png;
#BACKGROUND:Oops! I Did It Again (Just Dance 4 Mix)-bg.png;
#LYRICSPATH:;
#CDTITLE:;
#MUSIC:Oops! I Did It Again (Just Dance 4 Mix).ogg;
#OFFSET:-5.055000;
#SAMPLESTART:50.514614;
#SAMPLELENGTH:20.173412;
#SELECTABLE:YES;
#DISPLAYBPM:95.000000;
#BPMS:0.000000=95.000000
,103.750000=120.000000
,104.000000=95.000000
;
#STOPS:
;
#BGCHANGES:;
#KEYSOUNDS:;
#ATTACKS:;

//---------------dance-single - ----------------
#NOTES:
     dance-single:
     :
     Hard:
     7:
     0.386980,0.374486,0.484366,0.107637,0.062788,302.000000,248.000000,54.000000,12.000000,0.000000,0.000000,0.386980,0.374486,0.484366,0.107637,0.062788,302.000000,248.000000,54.000000,12.000000,0.000000,0.000000:
// measure 0
0000
0000
0000
0000
,  // measure 1
0000
0000
0000
0000
,  // measure 2
1001
0000
0100
0001
0000
0010
0001
1000
,  // measure 3
0100
0100
0010
0010
0001
0000
0101
0000
,  // measure 4
1001
0000
0100
1000
0000
0010
1000
0001
,  // measure 5
0100
0100
0010
0010
1000
0000
1100
0000
,  // measure 6
1001
0000
0010
0000
0100
1000
0001
0000
,  // measure 7
1001
0000
0010
0000
0100
0001
1000
0000
,  // measure 8
0110
0000
1000
0000
0001
0100
0100
0000
,  // measure 9
0110
0000
0001
0000
1000
0100
0100
0000
,  // measure 10
2010
0000
3001
0000
0100
0001
0100
0010
,  // measure 11
0000
0000
1000
0000
0010
0000
1000
0000
0100
0010
0001
0000
0010
0000
0000
0000
,  // measure 12
0012
0000
1003
0000
0100
1000
0100
0010
,  // measure 13
0000
0000
0001
0000
0010
0000
0001
0000
0100
0010
1000
0000
0001
0000
0000
0000
,  // measure 14
1002
0000
0000
0010
0000
0000
0010
0000
0000
0000
0100
0000
0103
0000
0000
0000
,  // measure 15
2001
0000
0000
0010
0000
0000
0010
0000
0000
0000
0100
0000
3100
0000
0000
0000
,  // measure 16
1100
0000
0101
0000
0001
0100
0001
0101
,  // measure 17
0000
1000
0100
1000
1100
0000
0110
0000
,  // measure 18
0012
0000
0000
0000
0100
0000
0000
0000
1003
0000
0100
0000
1000
0001
1000
0000
,  // measure 19
0100
0000
1000
0000
0001
0000
0010
0000
0001
0100
0001
0000
1001
0000
0000
0000
,  // measure 20
0100
0000
1000
0000
0001
0000
0100
0000
0001
1000
0100
0000
1000
0000
0000
0000
,  // measure 21
1000
0100
0010
0001
0001
0010
0100
1000
,  // measure 22
2010
0000
0000
0000
0100
0000
0000
0000
3001
0000
0100
0000
0001
1000
0001
0000
,  // measure 23
0100
0000
0001
0000
1000
0000
0010
0000
1000
0100
1000
0000
1001
0000
0000
0000
,  // measure 24
0100
0000
0001
0000
1000
0000
0100
0000
1000
0001
0100
0000
0001
0000
0000
0000
,  // measure 25
0011
0101
1010
1100
,  // measure 26
1001
0000
0010
0100
0010
0000
0110
0000
,  // measure 27
0201
0010
0310
0100
0001
1000
0001
0000
,  // measure 28
0110
0000
0000
0000
1000
0000
0001
0000
1000
0001
1000
0000
1001
0000
0000
0000
,  // measure 29
1001
0010
0001
0100
1000
0000
0110
0000
,  // measure 30
1001
0000
0100
0010
0100
0000
0110
0000
,  // measure 31
1200
0010
0310
0100
1000
0001
1000
0000
,  // measure 32
0110
0000
0000
0000
0001
0000
1000
0000
0001
1000
0001
0000
1001
0000
0000
0000
,  // measure 33
1100
1010
0101
0011
,  // measure 34
0102
0000
1000
0000
0013
0100
0110
0000
,  // measure 35
2100
0000
0010
0000
3001
1000
1001
0000
,  // measure 36
0001
0000
0100
0000
0010
0000
0100
0000
0001
1000
0001
0000
1001
0000
0000
0000
,  // measure 37
1000
0000
0100
0000
0010
0000
0100
0000
1000
0001
1000
0000
1001
0000
0000
0000
,  // measure 38
2100
0001
0001
3100
1000
0001
0100
0000
,  // measure 39
0102
1000
1000
0103
0001
1000
0100
0000
,  // measure 40
0110
1001
0101
1100
,  // measure 41
0001
0100
0001
1000
0100
1000
1001
0000
;

//---------------dance-single - ----------------
#NOTES:
     dance-single:
     :
     Beginner:
     1:
     0.107637,0.128716,0.089697,0.000000,0.000000,84.000000,74.000000,10.000000,0.000000,0.000000,0.000000,0.107637,0.128716,0.089697,0.000000,0.000000,84.000000,74.000000,10.000000,0.000000,0.000000,0.000000:
// measure 0
0000
0000
0000
0000
,  // measure 1
0000
0000
0000
0000
,  // measure 2
0100
0000
0100
0000
,  // measure 3
0001
0000
0000
0000
,  // measure 4
0100
0000
0100
0000
,  // measure 5
1000
0000
0000
0000
,  // measure 6
1001
0000
0000
0000
,  // measure 7
0010
0000
0010
0000
,  // measure 8
0100
0000
0000
0000
,  // measure 9
0001
0000
1000
0000
,  // measure 10
0001
0001
0001
0000
,  // measure 11
0010
0000
0010
0000
,  // measure 12
1000
1000
1000
0000
,  // measure 13
0100
0000
0100
0000
,  // measure 14
0001
0000
0000
0000
,  // measure 15
1000
0000
0000
0000
,  // measure 16
0010
0000
0000
0110
,  // measure 17
0000
0000
1001
0000
,  // measure 18
0001
0000
0001
0001
,  // measure 19
0000
0000
1000
1000
,  // measure 20
0000
0000
0010
0010
,  // measure 21
0000
0000
0100
0100
,  // measure 22
0100
0000
0001
0000
,  // measure 23
1000
0000
0010
0000
,  // measure 24
0110
0000
0000
0000
,  // measure 25
1001
0000
0100
0000
,  // measure 26
1001
0000
0000
1000
,  // measure 27
1000
0000
0100
0000
,  // measure 28
1000
0000
0010
0000
,  // measure 29
0001
0001
0001
0001
,  // measure 30
0001
0000
0000
0000
,  // measure 31
0010
0000
0100
0000
,  // measure 32
0110
0000
0000
0000
,  // measure 33
1001
0000
0010
0010
,  // measure 34
0010
0000
1000
0000
,  // measure 35
0001
0000
0000
0000
,  // measure 36
0100
0000
0010
0000
,  // measure 37
1000
1000
1000
1000
,  // measure 38
1000
0000
0000
0000
,  // measure 39
0100
0000
0001
0000
,  // measure 40
1001
0000
0000
0000
,  // measure 41
0110
0000
0000
0000
;

//---------------dance-single - ----------------
#NOTES:
     dance-single:
     :
     Medium:
     4:
     0.233213,0.262141,0.188364,0.233213,0.000000,182.000000,161.000000,21.000000,26.000000,0.000000,0.000000,0.233213,0.262141,0.188364,0.233213,0.000000,182.000000,161.000000,21.000000,26.000000,0.000000,0.000000:
// measure 0
0000
0000
0000
0000
,  // measure 1
0000
0000
0000
0000
,  // measure 2
1001
0000
0000
0010
0000
0100
0010
0000
,  // measure 3
1000
0100
1000
0100
2000
0000
3001
0000
,  // measure 4
0110
0000
0000
0010
0000
0100
0001
0000
,  // measure 5
0001
0100
0001
0100
0002
0000
1003
0000
,  // measure 6
1001
0000
0000
0010
,  // measure 7
0020
0130
1000
0100
,  // measure 8
0001
0000
0100
0000
0010
1000
0001
0000
,  // measure 9
2000
0200
3300
0001
,  // measure 10
0110
0000
0010
0001
,  // measure 11
1000
0000
0010
0000
0100
0010
0100
0000
,  // measure 12
0002
0013
2000
3010
,  // measure 13
0020
0000
0030
0110
,  // measure 14
2000
0000
0000
0100
0000
0010
3010
0000
,  // measure 15
0002
0000
0000
0100
0000
0010
0013
0000
,  // measure 16
1000
0000
0001
0000
1000
0010
0100
0002
,  // measure 17
0000
0000
0000
0100
0000
0100
1003
0000
,  // measure 18
0010
1001
2000
3100
,  // measure 19
0010
0100
0001
0000
0001
0000
1000
0000
,  // measure 20
0200
0000
0310
0100
,  // measure 21
1100
0000
0101
0010
,  // measure 22
0200
0000
0001
0000
0310
0000
1000
0100
,  // measure 23
0001
0000
0000
0000
0010
0001
1000
0000
,  // measure 24
0020
1000
0001
1030
,  // measure 25
1001
0110
1001
0110
,  // measure 26
1001
0000
0000
1000
,  // measure 27
0001
0010
0001
0000
1000
0010
1000
0000
,  // measure 28
0200
0010
0020
0330
,  // measure 29
1000
0010
0001
0010
1000
0000
0000
0000
,  // measure 30
1001
0000
1000
0000
0200
1000
1300
0000
,  // measure 31
0010
1000
0100
0000
0020
0000
0001
0000
,  // measure 32
0002
0030
0000
1000
,  // measure 33
1003
0010
1001
0100
,  // measure 34
1001
0000
0000
0000
0100
1000
0010
0100
,  // measure 35
0001
0000
0000
0000
0000
0001
1000
0000
,  // measure 36
0020
1030
0002
0103
,  // measure 37
1010
0000
0101
0000
0010
0100
0010
0000
,  // measure 38
1001
0000
2000
0100
,  // measure 39
0020
0000
3030
0000
0001
0010
0100
0000
,  // measure 40
1001
0020
1030
0002
,  // measure 41
0013
1001
0010
0100
;

//---------------dance-single - ----------------
#NOTES:
     dance-single:
     :
     Easy:
     2:
     0.139672,0.183880,0.098667,0.116607,0.000000,109.000000,98.000000,11.000000,13.000000,0.000000,0.000000,0.139672,0.183880,0.098667,0.116607,0.000000,109.000000,98.000000,11.000000,13.000000,0.000000,0.000000:
// measure 0
0000
0000
0000
0000
,  // measure 1
0000
0000
0000
0000
,  // measure 2
0001
0000
0000
0001
0000
0000
0001
0000
,  // measure 3
0002
0000
0003
0000
,  // measure 4
1000
0000
0000
1000
0000
0000
1000
0000
,  // measure 5
2000
0000
3000
0000
,  // measure 6
1001
0000
0000
0010
,  // measure 7
1001
0000
0000
0000
,  // measure 8
0100
0000
0100
0000
,  // measure 9
0200
0000
0310
0000
,  // measure 10
1001
0001
1000
0000
,  // measure 11
2000
0000
3100
0000
,  // measure 12
0002
0000
0103
0000
,  // measure 13
0020
0000
0030
0000
,  // measure 14
1000
0000
0000
1000
0000
0000
0100
0000
,  // measure 15
0001
0000
0000
0001
0000
0000
0100
0000
,  // measure 16
0010
0000
0010
0000
1000
0000
0001
0200
,  // measure 17
0000
0000
0000
0300
0000
0000
0000
0000
,  // measure 18
0010
0010
1000
1000
,  // measure 19
0200
0300
0001
0001
,  // measure 20
0200
0300
0010
0100
,  // measure 21
0020
0030
0110
0000
,  // measure 22
1001
0000
1000
0100
,  // measure 23
1000
0001
0100
0001
,  // measure 24
0020
0000
0200
0330
,  // measure 25
1000
0001
1000
0001
,  // measure 26
1001
0000
0000
0010
,  // measure 27
0020
0000
0130
0000
,  // measure 28
1000
0100
1000
0100
,  // measure 29
1000
0000
0000
0000
,  // measure 30
0001
0100
0001
0100
,  // measure 31
0001
0000
0000
0000
,  // measure 32
0010
0001
1000
0100
,  // measure 33
0110
0000
1001
0000
,  // measure 34
1001
0000
0000
0000
,  // measure 35
0000
0001
0010
0001
,  // measure 36
1000
0000
0010
0000
,  // measure 37
1000
0100
0010
0001
,  // measure 38
1001
0000
0001
0000
,  // measure 39
1000
0000
0010
0000
,  // measure 40
1000
0001
1000
0001
,  // measure 41
1001
0000
0000
0000
;
