#TITLE:Only You (And You Alone);
#SUBTITLE:(Just Dance 2015 Mix);
#ARTIST:Love Letter;
#TITLETRANSLIT:;
#SUBTITLETRANSLIT:;
#ARTISTTRANSLIT:;
#GENRE:;
#CREDIT:8Chasey 2026;
#MUSIC:Only You (And You Alone) (Just Dance 2015 Mix).ogg;
#BANNER:;
#BACKGROUND:;
#CDTITLE:;
#SAMPLESTART:5.04;
#SAMPLELENGTH:15;
#SELECTABLE:YES;
#OFFSET:-0.640;
#BPMS:0.000=86.000
,1.000=84.000
,2.000=82.000
,4.000=79.000
,6.000=75.000
,8.000=81.000
,9.000=77.000
,16.000=78.800
,22.000=79.300
,32.000=79.600
,36.000=80.000
,38.000=79.300
,48.000=79.800
,51.000=81.200
,52.000=80.000
,55.000=79.500
,58.000=80.800
,64.000=79.500
,66.000=82.000
,68.333=80.000
,70.000=81.000
,72.000=78.800
,80.000=78.900
,84.000=80.000
,86.000=78.500
,88.000=80.400
,102.000=79.300
,108.000=79.600
,112.000=80.400
,120.000=79.600
,132.000=78.800
,136.000=79.000
,144.000=79.400
,150.000=79.800
,160.000=79.600
,185.000=80.400
,187.000=76.000
,188.000=64.000
,190.000=50.200
,191.000=66.000
,192.000=79.800
,196.000=72.500
,197.000=64.000
,198.000=43.000
;
#STOPS:;
#BGCHANGES:;
#FGCHANGES:;

//--------------- dance-single - 8Chasey ----------------
#NOTES:
     dance-single:
     8Chasey:
     Beginner:
     1:
     0,0,0,0,0:
0000
0000
0000
0000
,
0000
0000
0000
0000
,
0001
0000
1000
0000
,
0001
0000
0000
0000
,
1000
0000
1000
0000
,
0001
0000
0000
0000
,
1000
0000
0001
0000
,
1000
0000
0000
0000
,
0001
0000
0001
0000
,
1000
0000
0000
0000
,
0001
0000
0000
0000
,
1000
0000
0000
0000
,
0001
0000
0001
0000
,
0001
0000
0000
0000
,
1000
0000
0000
0000
,
0001
0000
0000
0000
,
1000
0000
1000
0000
,
1000
0000
0000
0000
,
0010
0000
0000
0000
,
0010
0000
0000
0000
,
0100
0000
0000
0000
,
0100
0000
0000
0000
,
0001
0000
0001
0000
,
0001
0000
0000
0000
,
1000
0000
1000
0000
,
1000
0000
0000
0000
,
0010
0000
0000
0000
,
0100
0000
0000
0000
,
0010
0000
0010
0000
,
0010
0000
0000
0000
,
0100
0000
0000
0000
,
0010
0000
0000
0000
,
0100
0000
0100
0000
,
0100
0000
0000
0000
,
0001
0000
0001
0000
,
1000
0000
1000
0000
,
0001
0000
1000
0000
,
0001
0000
0001
0000
,
1000
0000
1000
0000
,
0001
0000
0001
0000
,
1000
0000
0001
0000
,
1000
0000
1000
0000
,
0010
0000
0100
0000
,
0010
0000
0000
0000
,
0100
0000
0010
0000
,
0100
0000
0000
0000
,
0001
0000
1000
0000
,
0001
0000
0000
0000
,
1000
0000
0000
0000
;

//--------------- dance-single - 8Chasey ----------------
#NOTES:
     dance-single:
     8Chasey:
     Easy:
     2:
     0,0,0,0,0:
0000
0000
0000
0000
,
0000
0000
0000
0000
,
0001
0000
1000
0001
,
1000
0000
0010
0000
,
1000
0000
0001
1000
,
0001
0000
0100
0000
,
0010
0000
0100
0010
,
0100
0000
0001
1000
,
0001
0000
0100
0100
,
0010
0000
1000
0001
,
1000
0000
0010
0000
,
0100
0000
0001
0000
,
1000
0000
0001
0000
,
1000
0000
0000
0000
,
0001
0000
0010
0000
,
0100
0000
1000
0000
,
0001
0000
1000
0000
,
0001
0000
0000
0000
,
0100
0000
0010
0100
,
0010
0000
0100
0000
,
0010
0000
0100
0010
,
0100
0000
0010
0000
,
1000
0000
0001
1000
,
0001
0000
1000
0001
,
1000
0000
0010
0010
,
0010
0000
0100
0100
,
0100
0000
0001
0000
,
0010
0000
0010
0000
,
0001
0000
0001
0000
,
1000
0000
0000
0000
,
0100
0000
1000
0000
,
0010
0000
0010
0000
,
1000
0000
1000
0000
,
0001
0000
0000
0000
,
0010
0000
0001
1000
,
0001
0000
1000
0000
,
0100
0000
1000
0001
,
1000
0000
0001
0000
,
0100
0000
0010
0100
,
0010
0000
0100
0100
,
0100
0000
0001
1000
,
0001
0000
1000
0001
,
1000
0000
0010
0000
,
0100
0000
0100
0000
,
0001
0000
1000
0000
,
0001
0000
0100
0000
,
0100
0000
0010
0000
,
0010
0000
0100
0000
,
0010
0000
0000
0000
,
0000
0000
0000
0100
;

//--------------- dance-single - 8Chasey ----------------
#NOTES:
     dance-single:
     8Chasey:
     Medium:
     3:
     0,0,0,0,0:
0000
0000
0000
0000
,
0000
0000
0001
1000
,
0002
0010
0000
0013
,
0100
1000
0010
0100
,
0010
0000
0100
0001
,
0100
0000
0000
0000
0000
0000
0001
0000
1000
0000
0001
0000
,
2000
0100
0000
3100
,
0010
0001
1000
0010
,
0100
0000
0010
0010
,
1000
0001
1000
0100
,
0010
0010
0001
0001
,
0100
1000
0100
0001
,
0010
0010
0100
0100
,
1000
0001
1000
0001
,
0020
0000
0031
0100
,
0020
0000
1030
0100
,
0020
0000
0000
0031
0000
0000
1000
0000
1000
0000
1000
0000
,
1000
0000
0000
0001
0001
0000
0000
0000
,
0200
0010
0000
0310
,
1000
0000
0001
1000
,
0001
0000
0010
0001
,
0010
0000
0000
0000
0000
0000
0100
0000
0010
0000
0100
0000
,
0020
0100
0000
0130
,
1000
0000
0010
1000
,
0010
0000
0100
0001
,
0100
0000
0001
1000
,
0001
0001
1000
1000
,
0010
0100
0001
1000
,
0100
0010
0100
1000
,
0002
0000
0103
0010
,
2000
0000
3010
0100
,
0010
0010
0100
0100
,
0001
1000
0010
0100
,
0010
0000
0000
0100
0100
0000
0000
0000
,
0002
0010
0000
0103
,
0010
1000
0100
1000
,
0010
0000
0100
0001
,
0100
0000
0000
0000
0000
0000
0001
0000
1000
0000
0001
0000
,
2000
0010
0000
3100
,
0010
0001
0100
0001
,
0010
0000
0100
1000
,
0100
0000
1000
0001
,
1000
1000
0001
0001
,
0100
0001
0100
0000
,
0001
0001
1000
1000
,
0100
1000
0100
0000
,
0010
0100
0010
0000
,
0002
0003
2000
3000
,
0020
0000
0000
0130
,
0000
0001
1000
0200
,
0000
0000
0000
0000
0000
0300
0000
0000
0000
0000
0000
0000
0000
0000
0000
0000
;

//--------------- dance-single - 8Chasey ----------------
#NOTES:
     dance-single:
     8Chasey:
     Hard:
     5:
     0,0,0,0,0:
0000
0000
0000
0000
,
2002
3003
1000
0100
,
0020
0001
1000
0031
,
0100
0000
0000
0001
0000
0001
0010
0000
0000
0100
1000
0100
,
1000
0000
0010
1000
0010
0000
0100
0001
,
0100
0000
0000
0010
0000
0000
1000
0001
1000
0001
0010
0000
,
0200
1000
0001
1300
,
0010
0000
0000
1000
0000
1000
0100
0000
0000
0010
0001
0000
,
1000
0000
0010
0100
0001
0000
0100
0010
,
1000
0000
0001
1000
0000
0000
0001
0000
0000
0010
0000
0000
,
0110
0000
0000
0000
0000
0000
0100
0000
0000
1000
0000
0000
0200
0000
0000
0000
0000
0000
0310
0000
0001
0000
0010
0000
,
0002
0000
0103
0000
2010
0000
3100
0010
,
0100
0000
0000
0000
0000
0000
0020
0000
0000
0001
0000
0000
0001
0000
0000
0000
0000
0000
0130
0000
0000
0000
1000
0000
,
0100
0000
0000
1100
0000
1000
0001
0000
0000
0101
0000
0001
,
0010
0000
0100
1000
0010
0000
0100
0001
,
0010
0000
0000
0100
0000
1000
0001
0000
0000
0020
0000
0000
,
0100
0000
0000
0130
0000
0000
1100
0000
1010
0000
0101
0000
,
0022
0000
0000
0000
0000
0000
0033
0000
0000
0001
0000
0000
1000
0000
0000
0000
0000
0000
0000
0000
1000
0000
0000
0000
,
0002
0010
1000
0103
,
0110
0000
0000
0000
0000
0000
0000
0000
0000
0000
0000
0000
0010
0000
0000
1000
0000
0000
0000
0000
0000
0010
0000
0000
1000
0000
0000
0000
0000
0000
0000
0000
0000
0000
0000
0000
0100
0000
0000
0000
1000
0000
0000
0000
0100
0000
0000
0000
,
1000
0000
0001
0100
0001
0000
1000
0100
,
1000
0000
0000
0010
0000
0000
0100
0000
0001
0000
0001
0000
,
2000
0100
0001
3010
,
0110
0100
0001
0010
,
0100
1000
0100
0000
0010
0001
0010
0000
,
0001
0100
0010
1000
,
1100
0000
0000
0000
0000
0000
0100
0000
0000
1000
0000
0000
0010
0000
0000
0000
0000
0000
1000
0000
0001
0000
0000
0000
,
0101
0000
0000
0000
0000
0000
0100
0000
0000
0001
0000
0000
0010
0000
0000
0000
0000
0000
0001
0000
0000
0000
0001
0000
,
1000
0000
0000
0100
0000
0000
0010
0000
0000
0001
0010
0000
,
0200
0000
0000
0010
0000
0000
0310
0000
0000
0001
1000
0000
,
0001
0000
0100
0010
0100
0000
0010
0100
,
0010
0000
0000
0000
0000
0000
1000
0000
0000
0100
0000
0000
1000
0000
0000
0000
0000
0000
0001
0000
1000
0000
0000
0000
,
1001
0001
1000
0010
,
0220
0000
0000
0000
0000
0000
0330
0000
0000
0100
0000
0000
0001
0000
0000
0000
0001
0000
0000
0000
1000
0000
0000
0000
,
0002
0100
2003
0010
,
3001
0000
0010
0001
0010
0000
0100
1000
,
0100
1100
0010
0011
,
0001
0000
0100
0000
0010
1000
0000
0001
,
2000
0100
3002
0010
,
1003
0000
0000
0100
0000
0100
0010
0000
0010
0001
0000
0000
,
0101
0000
0000
0100
0010
0100
0010
0000
0000
1000
0000
0000
,
1100
0000
0000
1000
0000
0001
0100
0000
0000
0001
0000
0000
,
0020
0000
0130
0010
0200
0000
1300
0010
,
1000
0001
0100
0001
,
0021
0000
0000
0130
0000
0000
1100
0000
0000
1000
0001
0000
,
0010
0001
0100
1000
,
0100
0000
0000
0010
0000
0000
0100
0000
0000
0000
0100
0000
0001
0000
0000
0000
0000
0000
1000
0000
0000
0100
0000
0000
,
0010
0000
0000
0001
1000
0000
0100
0000
,
0020
0000
0030
0010
,
0001
1000
0010
0200
,
0000
0000
0000
0000
0000
0300
0000
0000
0000
0000
0000
0000
0000
0000
0000
0000
;
