#TITLE:One More Song;
#SUBTITLE:;
#ARTIST:Brett Ambler and Friends;
#TITLETRANSLIT:;
#SUBTITLETRANSLIT:;
#ARTISTTRANSLIT:;
#GENRE:;
#CREDIT:8Chasey 2025;
#MUSIC:One More Song.ogg;
#BANNER:;
#BACKGROUND:;
#CDTITLE:;
#SAMPLESTART:155.108;
#SAMPLELENGTH:12.006;
#SELECTABLE:YES;
#OFFSET:-0.620;
#BPMS:0.000=69.750
,4.000=71.000
,5.000=75.000
,6.000=78.000
,7.000=81.000
,8.000=85.000
,9.000=88.000
,10.000=90.000
,11.000=93.000
,12.000=97.000
,13.000=101.000
,14.000=103.000
,15.000=110.000
,16.000=112.000
,17.000=115.000
,18.000=118.000
,19.000=121.000
,20.000=125.000
,22.000=130.000
,24.000=129.400
,152.000=129.100
,192.000=129.200
,233.000=128.900
,269.000=128.700
,289.000=128.800
,313.000=128.500
,321.000=128.700
,345.000=128.500
,373.000=128.300
,401.000=124.200
,402.000=120.500
,403.000=112.000
,404.000=106.000
,405.000=90.000
,406.000=87.000
,407.000=80.000
,408.000=71.000
,410.000=69.500
,412.000=69.200
,418.000=47.000
,420.000=112.000
,421.000=127.900
,444.000=127.700
;
#STOPS:232.000=0.929;
#DISPLAYBPM:47.000:130.000;
#BGCHANGES:-0.050=One More Song.avi=1.000=0=0=0=StretchNoLoop==CrossFade==,
494.000=One More Song-bg.png=1.000=0=0=0=====,
99999=-nosongbg-=1.000=0=0=0 // don't automatically add -songbackground-
;
#FGCHANGES:;

//--------------- dance-single - 8Chasey ----------------
#NOTES:
     dance-single:
     8Chasey:
     Beginner:
     1:
     0,0,0,0,0:
0000
0000
0000
0000
,
0000
0000
0000
0000
,
0000
0000
0000
0000
,
0000
0000
0000
0000
,
0000
0000
0000
0000
,
0000
0000
0000
0000
,
0000
0000
0000
0000
,
0001
0000
0001
0000
,
1000
0000
1000
0000
,
0001
0000
0000
0000
,
1000
0000
0000
0000
,
0010
0000
0000
0000
,
0100
0000
0000
0000
,
0001
0000
0000
0000
,
0001
0000
0001
0000
,
0001
0000
0000
0000
,
0000
0000
0000
0000
,
1000
0000
0000
0000
,
0001
0000
0000
0000
,
0100
0000
0000
0000
,
0010
0000
0000
0000
,
1000
0000
0000
0000
,
1000
0000
1000
0000
,
1000
0000
0000
0000
,
0000
0000
0000
0000
,
0010
0010
0010
0010
,
0010
0000
0000
0000
,
0100
0000
0100
0000
,
0100
0100
0100
0000
,
0010
0010
0010
0010
,
0010
0000
0000
0000
,
1000
0000
0001
0000
,
1000
0000
0001
0000
,
1000
0000
0000
0000
,
0010
0000
0000
0000
,
0000
0000
0000
0000
,
1000
0000
0000
0000
,
0000
0000
0000
0000
,
0001
0000
0000
0000
,
1000
0000
0000
0000
,
0001
0000
0000
0000
,
0000
0000
0000
0000
,
0000
0000
0000
0000
,
0000
0000
0000
0000
,
0100
0000
0100
0000
,
0001
0000
1000
0000
,
0001
0000
1000
0000
,
0000
0000
1001
0000
,
0000
0000
0000
0000
,
0100
0000
0000
0000
,
0100
0000
0100
0000
,
0100
0000
0000
0000
,
0000
0000
0010
0000
,
0100
0000
0000
0000
,
0000
0000
0000
0000
,
0000
0000
0000
0000
,
0000
0000
0000
0000
,
0010
0000
0010
0000
,
0000
1000
1000
1000
,
0000
0001
0000
1000
,
0000
0001
0001
0001
,
0000
1000
0000
0001
,
0000
0010
0000
0100
,
0000
0010
0000
0000
,
0000
0010
0000
0010
,
0000
0010
0000
0000
,
0000
1000
0000
0001
,
0000
1000
0000
0000
,
0000
0000
0000
0000
,
0000
0000
0000
0000
,
0000
0000
0000
0000
,
0000
0000
0000
0000
,
0000
1000
0000
0001
,
0000
1000
0000
0000
,
0000
0001
0000
1000
,
0000
0001
0000
0000
,
0000
0100
0000
0100
,
0000
0010
0000
0010
,
0000
0100
0000
0010
,
0000
0110
0000
0000
,
0000
1000
0000
0000
,
0000
0001
0000
1000
,
0000
0001
0000
0000
,
0000
1000
0000
0001
,
0000
1000
0000
0000
,
0000
0001
0000
0000
,
0000
1000
1000
1000
,
1000
1000
0000
0000
,
0000
0010
0000
0000
,
0000
0100
0000
0010
,
0000
0100
0000
0000
,
0000
0001
0001
0001
,
0001
0001
0000
0000
,
0000
1000
0000
0001
,
0000
0000
0000
0000
,
0000
1000
0000
0000
,
0000
0100
0000
0000
,
0000
0010
0000
0000
,
0000
0001
0000
0000
,
0000
1000
0000
0000
,
0000
0001
0000
0000
,
0000
1001
0000
0000
,
0000
0000
2000
0000
,
3000
0000
0000
0002
,
0000
0003
0000
0000
,
1000
0000
0001
0000
,
1000
0000
0000
0000
,
0001
0000
1000
0000
,
0001
0000
0000
0000
,
0100
0000
0100
0000
,
0010
0000
0010
0000
,
0110
0000
0000
0000
,
1000
0000
0000
0000
,
0110
0000
0000
0000
,
0001
0000
0000
0000
,
1001
0000
0000
0000
,
0000
0000
0000
0000
,
0010
0000
0100
0000
,
1001
0000
0000
0000
;

//--------------- dance-single - 8Chasey ----------------
#NOTES:
     dance-single:
     8Chasey:
     Easy:
     3:
     0,0,0,0,0:
0000
0000
0000
0000
,
0000
0000
0000
0000
,
0000
0000
0000
0000
,
0001
0000
1000
0000
,
0001
0000
0000
0000
,
1000
0000
0001
0000
,
1000
0000
0000
0000
,
0010
0000
0100
0000
,
0020
0000
0230
0000
,
0301
0000
1000
0000
,
0010
1000
0010
0000
,
1000
0000
0001
0000
,
0010
0001
0010
0000
,
0100
0000
0010
0000
,
0100
0010
0100
0000
,
1000
0000
0001
0000
,
0100
0000
0010
0100
,
0010
0000
1000
0000
,
0010
0100
0010
0000
,
0100
0000
0001
0000
,
0100
0010
0100
0000
,
0001
0000
1000
0000
,
0001
1000
0001
0000
,
1000
0000
0001
0000
,
0100
0000
0010
0010
,
0100
0100
0100
0100
,
0001
1000
0001
0000
,
2000
0000
3001
0000
,
1000
0001
1000
0000
,
0010
0010
0010
0010
,
0100
0001
0100
0000
,
0020
0000
0030
0000
,
1000
0001
1000
0000
,
0200
0000
0300
0000
,
2000
0000
3000
0000
,
0001
0000
0010
0000
,
0001
0100
0001
0000
,
1000
0000
0010
0000
,
1000
0100
1000
0000
,
0010
0000
0100
0000
,
0020
0000
0000
0000
,
0030
0000
0000
0000
,
0200
0000
0000
0000
,
0300
0000
0000
0000
,
0010
0000
0100
0000
,
0001
1000
0001
0000
,
1000
0001
1000
0000
,
0100
0000
0020
0000
,
0030
0000
0000
0000
,
0100
1000
0100
0000
,
1000
0000
0001
0000
,
0100
0001
0100
0000
,
0010
0000
1000
0000
,
0002
0000
0000
0000
,
0003
0000
0000
0000
,
2000
0000
0000
0000
,
3000
0000
0000
0000
,
0001
0000
1000
0000
,
0000
0100
1000
0100
,
0000
1000
1000
0001
,
0000
0100
0001
0100
,
0000
0001
0001
0010
,
0000
0200
0300
0020
,
0030
0001
0000
0010
,
0000
0100
1000
0100
,
0000
0010
0000
0100
,
0000
1000
0000
0010
,
0000
2000
0000
0000
,
0000
3000
0000
0000
,
0000
0002
0000
0000
,
0000
0003
0000
0000
,
0000
0100
0000
0010
,
0000
1000
0100
1000
,
0000
0002
0000
0003
,
0000
0100
0000
0010
,
0100
0020
0000
0030
,
0000
2000
0000
3010
,
0000
0200
0000
0301
,
0000
1000
0000
0001
,
0100
0001
0000
1000
,
0000
0100
1000
0100
,
0000
1000
0000
0001
,
0000
0100
0001
0100
,
0000
0010
0000
1000
,
0001
1000
0000
0010
,
0000
1000
1000
1000
,
0000
0110
0010
0010
,
0010
1000
0001
1000
,
0000
0200
0000
0310
,
0000
0001
0010
0001
,
0000
0020
0000
0130
,
0000
0010
0010
0010
,
0010
0100
0010
0100
,
0000
1000
0000
0100
,
0000
1000
0001
1000
,
0000
0001
0100
0001
,
1000
0000
0010
0000
,
1000
0000
0001
0000
,
1000
0000
0010
0000
,
0110
0000
0100
0000
,
0001
2000
3000
0002
,
0003
0200
0000
0000
,
0300
0000
0010
0100
,
0020
0000
0030
1000
,
0001
2000
0000
3000
,
0100
0000
0010
0000
,
0100
1000
0100
0000
,
0010
0000
0001
0000
,
1000
0000
0010
0000
,
0100
0001
0100
0000
,
0001
0000
1000
1000
,
1001
0000
0001
0000
,
1000
0100
1000
0000
,
1001
0000
0001
0000
,
0010
0001
0010
0000
,
0110
0000
0100
0000
,
1000
0100
1000
0000
,
0001
0100
0001
0000
,
1001
0000
0000
0000
;

//--------------- dance-single - 8Chasey ----------------
#NOTES:
     dance-single:
     8Chasey:
     Medium:
     5:
     0,0,0,0,0:
0000
0000
0000
0000
,
0000
0000
0000
0000
,
0000
0000
0000
0000
,
0100
0010
0100
0000
,
0001
0000
1000
0000
,
0010
0100
0010
0000
,
1000
0000
0001
0000
,
1000
0001
1000
0000
,
0001
0000
1000
0000
0100
0010
0100
0000
,
1000
0000
0010
2000
0000
0000
3000
0000
,
0001
0000
0100
0002
0000
0000
0003
0000
,
0010
0001
1000
0010
,
0100
0000
0010
0200
0000
0000
0300
0000
,
0001
0000
1000
0001
0000
0000
1000
0000
,
0100
0000
0010
0100
0000
0010
0100
0000
,
2000
0000
0002
3003
,
0001
0000
0010
0000
0100
0000
1000
1000
,
0010
0000
1000
0020
0000
0000
0030
0000
,
0100
0000
0001
0200
0000
0000
0300
0000
,
0001
1000
0010
0100
,
0110
0000
0010
1000
0000
0000
0001
0000
,
1000
0000
0001
1000
0000
0000
0001
0000
,
1000
0000
0010
0100
0000
0010
0100
0000
,
0002
0000
2000
3003
,
1000
0000
0010
0000
0100
0000
0001
0001
,
1000
1000
0001
0001
,
1000
0100
1000
0000
0001
0000
0010
0000
,
0002
0000
0000
0100
0103
0000
0000
0001
,
1000
0001
1000
0000
0020
0000
0030
0000
,
0100
0000
1001
0000
0010
1000
0010
0000
,
0100
0000
0001
0000
0010
0001
1000
0000
,
0020
0000
0130
0000
,
0001
0000
0000
1000
0020
0000
0030
0000
,
0100
0000
0001
0000
0200
0000
0310
0010
,
0010
1000
0100
0000
,
1000
0001
1000
0000
,
0010
0000
1000
0000
0010
0100
0010
0000
,
0100
0001
0000
1000
,
0001
0010
0001
1000
,
0020
0000
0100
0000
0000
0000
0130
0100
,
0002
0000
0013
0000
,
2000
0000
3010
0000
,
0200
0300
0020
0030
,
0002
0003
2000
3000
,
0020
0000
0200
0330
,
0001
1000
0001
1000
0001
1000
0001
0000
,
1000
0001
1000
0001
1000
0001
1000
0000
,
0010
0100
0020
0030
,
0100
0001
1000
0100
,
1000
0000
0010
1000
0000
0000
0010
0000
,
0100
0000
0001
0100
0000
0001
1000
0000
,
0020
0000
0200
0330
,
0010
1000
0010
0000
0100
0000
0001
0100
,
0002
0000
0013
0000
,
2000
0000
3100
0000
,
0020
0030
0200
0300
,
2000
3000
0002
0003
,
0200
0000
0020
0330
,
1000
0000
0100
0000
1000
0000
0001
1000
,
0001
0000
0010
0001
0010
0000
0001
0000
,
0100
0000
0010
0000
1000
0000
0010
0100
,
0010
0100
0001
0020
,
0130
1000
0001
1000
,
0001
0000
0100
0000
0010
0100
0000
0000
,
0010
0000
1000
0000
0100
1000
0000
0100
,
0010
0002
0100
2000
,
3003
0000
0100
1000
0010
0000
0100
0000
,
0001
0010
0200
0000
0000
0000
0020
0000
,
0330
0002
0000
0200
,
0303
0020
0030
2000
,
3000
0002
0003
0200
,
0300
0002
0000
2000
,
3003
1000
0100
0020
,
0030
0001
0010
0002
0000
0000
0000
0000
,
0003
0100
0001
0100
0000
0010
1000
0000
,
0010
2000
0000
0000
,
3000
0000
0200
0000
0300
1000
0200
0000
,
0300
0000
0020
0000
0030
0001
0020
0000
,
0030
0000
0002
0000
0003
1000
0010
0000
,
2000
3100
0010
0001
,
1000
0000
0010
0000
1000
0100
0000
0000
,
1000
0000
0001
0000
0010
0001
0000
0100
,
0001
2000
0100
0002
,
3003
0000
0001
1000
0001
0000
1000
0000
,
0010
1000
0020
0000
1000
0000
0200
0000
,
0330
0000
0001
0100
0001
0000
1000
0010
,
1000
1100
0100
0010
,
0001
0000
0100
0001
0100
0000
0010
1000
,
0010
0200
0010
0000
,
0310
0000
1000
0000
0100
1000
0002
0000
,
0013
0100
2000
0010
,
3001
0101
0010
0100
,
1000
0000
0010
1000
0010
0000
1000
0000
,
0001
0000
0020
0000
0030
0001
1000
0000
,
0100
1000
0010
0100
,
0001
0001
1000
0000
0100
0000
2000
0000
,
0000
3000
0010
0200
,
0300
0001
0020
0030
,
0010
0002
0003
1000
,
0100
0100
0100
0000
1000
0000
0020
0000
,
0130
0001
0010
0100
,
1000
0100
0100
0100
,
0100
0000
0000
0000
1000
0000
0010
1000
,
0020
0000
0000
0030
0000
0100
0001
0000
,
1000
0010
0200
0000
0000
0000
0300
0000
,
0001
0100
0001
1000
,
0010
0000
1000
0200
0000
0000
0300
0000
,
0010
0000
0001
0010
0000
0000
0001
0000
,
1000
0000
0100
1000
0000
0010
0100
0000
,
0020
1000
0230
0301
,
0010
0001
0010
0000
0100
0000
1000
1000
,
2000
0010
0002
3003
,
0010
0001
0010
0000
0100
1000
0001
0000
,
0200
0010
0001
0310
,
1000
0010
1000
0000
0001
0000
0010
0000
,
0200
1000
0310
0001
,
0010
0001
0010
0000
0100
0000
1000
0000
,
0010
1000
0010
0000
1000
0000
0001
1000
,
1001
0000
0000
0000
;

//--------------- dance-single - 8Chasey ----------------
#NOTES:
     dance-single:
     8Chasey:
     Hard:
     8:
     0,0,0,0,0:
1000
0001
0100
0001
,
0010
0100
1000
0010
,
1000
0001
0100
0001
,
0020
0031
2000
3010
,
0200
0301
1000
0001
,
0100
0010
1000
0000
0010
0100
0001
0000
,
0201
0310
1000
0010
,
0100
0001
0010
0000
0001
1000
0010
0000
,
0100
0001
0010
0001
1000
0010
1000
0100
,
0110
0000
0010
0001
0010
0000
0001
0000
,
1000
0000
0010
1000
0010
0000
0100
0000
,
0001
1000
0020
0000
0100
0000
1030
0000
,
0100
0000
1000
0100
0010
0000
0001
0000
,
1001
0000
0001
0100
0010
0000
1000
0000
,
0100
0000
1000
0100
1000
0001
0010
0000
,
0110
0000
0100
1000
0002
0000
0103
0000
,
0010
1000
0010
0000
0100
0000
0001
0100
0001
0000
0100
0000
0010
0000
0010
0000
,
0100
0000
0001
0010
0001
0000
1000
0000
,
0100
0000
1000
0010
1000
0000
0001
0000
,
0100
0001
2000
0000
0010
0000
3001
0000
,
0101
0000
0010
1000
0001
0000
0100
0000
,
0010
0000
1000
0010
1000
0000
0001
0000
,
0010
0000
0001
0100
0010
1000
0001
0000
,
1001
0000
0000
0000
1000
0000
0100
0000
0020
0000
0000
0000
0031
0000
0010
0001
,
0010
0000
0001
0000
1000
0001
1000
0000
0010
0000
1000
0000
0100
0000
0100
0000
,
0010
1100
1000
0101
,
0100
0001
0100
0001
1000
1000
0020
0000
,
0200
0000
0300
0100
0200
0000
0330
0010
,
1000
0001
2000
0000
0200
0000
0000
3300
,
0012
0000
0103
0000
1010
1000
0001
0000
,
1000
0100
1000
0001
0010
0010
0002
0000
,
0100
0000
1000
0000
0010
0010
0013
0000
,
0002
0000
0103
0001
2000
0000
0100
0000
,
3020
0000
0100
0000
0130
0001
1000
1000
,
1001
0001
0010
0001
,
0100
0010
1000
0000
0100
0000
0010
0000
,
0100
1000
0100
0000
1000
0000
0001
0000
,
0010
0000
0001
0000
0100
0010
0100
0000
,
0010
0000
1000
0000
0001
0000
1000
0000
0100
0000
0010
0000
0001
0000
0100
0001
,
0100
0010
1000
0100
0010
0001
1000
0001
,
2002
3003
0022
0033
,
2200
0300
0002
3003
,
2020
3030
0220
0330
,
0202
0300
2000
3003
,
0220
0330
2002
3003
,
1000
0000
0010
1000
0010
0000
0100
0001
0100
0000
0001
0000
0001
0000
0000
0000
,
0010
0000
0001
0000
0001
0000
0100
0001
0100
0000
0100
0000
0010
0000
1000
0000
,
0100
0000
1000
0001
1000
0000
0001
0000
2002
0000
0000
0000
3003
0000
0000
0000
,
0010
1000
0010
0000
0100
0000
0001
0000
0010
0001
0010
0000
0001
0000
0100
0000
,
0010
0000
1000
0010
2000
0000
0100
0000
,
3010
0000
0100
0001
0010
0001
0010
0000
,
0200
1000
1000
0000
0320
0000
0031
0000
,
0100
0001
0100
0000
0001
0000
1000
0000
0010
0000
1000
0000
0100
0000
0100
0000
,
2000
3000
0202
0303
,
0002
0003
2200
3300
,
0200
0000
0020
0330
,
0002
0000
2003
0000
,
3020
0030
0220
0330
,
0002
1003
0100
0000
0110
0000
0010
0001
,
0010
0010
0001
1000
0001
0001
2000
0000
,
3100
0000
0010
0001
1000
0000
0010
1000
,
0010
0010
1000
0001
1000
1000
0002
0000
,
0103
0000
0010
1000
0010
0100
0001
0000
,
1001
0000
0200
0000
0301
0001
0010
0000
,
0002
0000
0103
0000
0010
1000
0001
0010
,
0001
0200
0010
0301
,
1000
0000
0100
1000
0100
0000
0010
0000
0001
0000
1000
0001
1000
0000
0000
0000
,
0010
1000
2020
0000
0030
0000
0200
0000
,
3000
0020
0300
0002
,
0030
0200
0003
0020
,
0300
2000
0030
0002
,
3003
2002
3003
0120
,
0130
1001
1100
0022
,
0033
0010
0001
0202
0000
0000
0000
0303
,
0000
0010
1000
1100
0000
0100
0010
0000
,
0110
2002
0000
0000
,
3003
0000
2200
0000
3300
1000
0002
0000
,
0003
0000
0202
0000
0303
0001
2000
0000
,
3000
0000
0200
0000
0000
0010
0310
0000
,
0100
0000
1100
0000
0101
0000
0110
0010
,
1000
0001
1000
0000
0010
0000
1000
0000
0001
0000
1000
0000
0100
0000
0000
0000
,
0020
0000
0031
0000
1000
0100
1000
0010
,
0100
0102
0010
1000
,
0103
0000
0000
0000
0010
1000
0010
0000
1000
0000
0100
0000
1000
0000
0000
0000
,
0100
1000
2100
0000
0010
0000
0001
0000
,
3100
0000
0010
0001
1000
0010
0200
0000
,
0310
1010
0101
0011
,
1100
0000
1000
0001
1000
0010
0100
0010
,
0200
0001
0010
0301
,
1000
0000
0002
0000
0103
0001
2000
0000
,
0100
0000
3010
0000
0100
0010
0200
0000
,
0310
0000
0110
0000
1001
0000
1000
0100
,
0001
0000
0100
0010
0001
0000
0010
0001
,
1000
0000
0020
0000
1030
0010
0200
0000
,
0301
0000
0000
0000
0010
0000
0001
0000
0010
0000
0001
1000
0001
0000
0000
0000
,
1000
1000
0010
0000
0100
0000
0002
0000
,
0013
0000
0010
0001
1000
0000
0020
0000
,
1030
0100
2000
3010
,
1000
0001
0020
0000
0031
0000
0100
0001
,
0100
0100
0001
0000
0010
0001
2000
0000
,
3100
0020
0032
2003
,
3020
0230
0010
0010
,
0020
0000
0330
0000
1000
0100
1000
0001
,
0200
0000
0020
0000
0000
0000
0000
0330
0000
0000
0100
0000
0001
0000
1000
0000
,
0100
0000
1000
0000
0001
0000
0000
0000
0020
0000
0000
0000
0000
0030
0000
0000
,
0110
0000
0100
0100
1000
0001
0010
0000
,
0100
1000
0001
0100
1000
0000
0100
0000
,
0010
0000
1000
0100
0020
0000
0130
0000
,
1000
0000
0001
0100
0100
0001
0100
0000
,
0020
0000
1000
0100
0100
0000
1030
0000
,
0100
1000
0100
0001
0100
0000
0010
0010
,
0002
0000
0103
0010
1000
0010
0100
0001
,
0010
0001
0010
0000
0100
0000
1000
0000
0200
0000
0000
0000
1300
0000
0001
0000
,
1001
0000
1000
0010
2000
0000
3100
0010
,
0002
0100
1003
0010
,
0110
0000
0100
0001
0100
0010
0100
0000
,
0010
1000
0010
0000
1000
0000
0001
0000
0100
0010
0100
0000
0001
0000
0000
0000
,
1000
0100
1000
0000
0010
0000
1000
0000
0001
0010
0001
0000
0100
0000
0001
0000
,
1001
0000
0000
0000
;

//--------------- dance-single - Early Hard ----------------
#NOTES:
     dance-single:
     Early Hard:
     Edit:
     8:
     0,0,0,0,0:
1000
0001
0100
0001
,
0010
0100
1000
0010
,
1000
0001
0100
0001
,
0020
0031
2000
3010
,
0200
0301
1000
0001
,
0100
0010
1000
0000
0010
0100
0001
0000
,
0201
0310
1000
0010
,
0100
0001
0010
0000
0001
1000
0010
0000
,
0100
0001
0010
0001
1000
0010
1000
0100
,
0110
0000
0010
0001
0010
0000
0001
0000
,
1000
0000
0010
1000
0010
0000
0100
0000
,
0001
1000
0020
0000
0100
0000
1030
0000
,
0100
0000
1000
0100
0010
0000
0001
0000
,
1001
0000
0001
0100
0010
0000
1000
0000
,
0100
0000
1000
0100
1000
0001
0010
0000
,
0110
0000
0100
1000
0002
0000
0103
0000
,
0010
1000
0010
0100
0001
0100
0010
0010
,
0100
0000
0001
0010
0001
0000
1000
0000
,
0100
0000
1000
0010
1000
0000
0001
0000
,
0100
0001
2000
0000
0010
0000
3001
0000
,
0101
0000
0010
1000
0001
0000
0100
0000
,
0010
0000
1000
0010
1000
0000
0001
0000
,
0010
0000
0001
0100
0010
1000
0001
0000
,
1001
0000
1000
0100
0020
0000
0031
0000
,
0010
0001
1000
0001
0100
0010
1000
1000
,
0010
1100
1000
0101
,
0100
0001
0100
0001
1000
1000
0020
0000
,
0200
0000
0300
0100
0200
0000
0330
0010
,
1000
0001
2000
0000
0200
0000
0000
3300
,
0012
0000
0103
0000
1010
1000
0001
0000
,
1000
0100
1000
0001
0010
0010
0002
0000
,
0100
0000
1000
0000
0010
0010
0013
0000
,
0002
0000
0103
0001
2000
0000
0100
0000
,
3020
0000
0100
0000
0130
0001
1000
1000
,
1001
0001
0010
0001
,
0100
0010
1000
0000
0100
0000
0010
0000
,
0100
1000
0100
0000
1000
0000
0001
0000
,
0010
0000
0001
0000
0100
0010
0100
0000
,
0010
1000
0001
1000
0100
0010
0001
0000
,
0100
0010
1000
0100
0010
0001
1000
0001
,
2002
3003
0022
0033
,
2200
0300
0002
3003
,
2020
3030
0220
0330
,
0202
0300
2000
3003
,
0220
0330
2002
3003
,
1000
0000
0010
1000
0010
0000
0100
0001
0100
0000
0001
0000
0001
0000
0000
0000
,
0010
0000
0001
0000
0001
0000
0100
0001
0100
0000
0100
0000
0010
0000
1000
0000
,
0100
1000
0001
0000
2002
0000
3003
0000
,
0010
1000
0100
1000
0001
0010
0001
0100
,
0010
0000
1000
0010
2000
0000
0100
0000
,
3010
0000
0100
0001
0010
0001
0010
0000
,
0200
1000
1000
0000
0320
0000
0031
0000
,
0100
0001
0100
0000
0010
1000
0100
0100
,
2000
3000
0202
0303
,
0002
0003
2200
3300
,
0200
0000
0020
0330
,
0002
0000
2003
0000
,
3020
0030
0220
0330
,
0002
1003
0100
0000
0110
0000
0010
0001
,
0010
0010
0001
1000
0001
0001
2000
0000
,
3100
0000
0010
0001
1000
0000
0010
1000
,
0010
0010
1000
0001
1000
1000
0002
0000
,
0103
0000
0010
1000
0010
0100
0001
0000
,
1001
0000
0200
0000
0301
0001
0010
0000
,
0002
0000
0103
0000
0010
1000
0001
0010
,
0001
0200
0010
0301
,
1000
0100
1000
0001
0010
0001
0100
0000
,
0010
1000
2020
0000
0030
0000
0200
0000
,
3000
0020
0300
0002
,
0030
0200
0003
0020
,
0300
2000
0030
0002
,
3003
2002
3003
0220
,
0330
1001
1100
0022
,
0033
0010
0001
0202
0000
0000
0000
0303
,
0000
0010
1000
1100
0000
0100
0010
0000
,
0110
2002
0000
0000
,
3003
0000
2200
0000
3300
1000
0002
0000
,
0003
0000
0202
0000
0303
0001
2000
0000
,
3000
0000
0200
0000
0000
0010
0310
0000
,
0100
0000
1100
0000
0101
0000
0110
0010
,
1000
0001
0010
0000
0001
1000
0100
0000
,
0020
0000
0031
0000
1000
0100
1000
0010
,
0100
0102
0010
1000
,
0103
0000
0010
1000
0010
1000
0100
0000
,
1000
2100
0010
0001
,
3100
0000
0010
0001
1000
0010
0200
0000
,
0310
1010
0101
0011
,
1100
0000
1000
0001
1000
0010
0100
0010
,
0200
0001
0010
0301
,
1000
0000
0002
0000
0103
0001
2000
0000
,
0100
0000
3010
0000
0100
0010
0200
0000
,
0310
0000
0110
0000
1001
0000
1000
0100
,
0001
0000
0100
0010
0001
0000
0010
0001
,
1000
0000
0020
0000
1030
0010
0200
0000
,
0301
0000
0010
0001
0010
0000
0001
0000
,
1000
1000
0010
0000
0100
0000
0002
0000
,
0013
0000
0010
0001
1000
0000
0020
0000
,
1030
0100
2000
3010
,
1000
0001
0020
0000
0031
0000
0100
0001
,
0100
0100
0001
0000
0010
0001
2000
0000
,
3100
0020
0032
2003
,
3020
0230
0010
0010
,
0020
0000
0330
0000
1000
0100
1000
0001
,
0200
0000
0020
0000
0000
0000
0000
0330
0000
0000
0100
0000
0001
0000
1000
0000
,
0100
0000
1000
0000
0001
0000
0000
0000
0020
0000
0000
0000
0000
0030
0000
0000
,
0110
0000
0100
0100
1000
0000
0010
0000
,
1000
0000
0001
0100
1000
0000
0100
0000
,
0010
0000
1000
0100
0020
0000
0130
0000
,
1000
0000
0001
0100
0100
0001
0100
0000
,
0020
0000
1000
0100
0100
0000
1030
0000
,
0100
1000
0100
0001
0100
0000
0010
0010
,
0002
0000
0103
0010
1000
0010
0100
0001
,
0010
0000
0100
1000
0200
0000
1300
0001
,
1001
0000
1000
0010
2000
0000
3100
0010
,
0002
0100
1003
0010
,
0110
0000
0100
0001
0100
0000
0001
0000
,
0010
0000
0001
1000
0100
1000
0010
0010
,
1000
0100
0010
0001
1000
0010
0100
0001
,
1001
0000
0000
0000
;
