#TITLE:Oh No!;
#SUBTITLE:;
#ARTIST:Marina & The Diamonds;
#TITLETRANSLIT:;
#SUBTITLETRANSLIT:;
#ARTISTTRANSLIT:;
#GENRE:;
#CREDIT:8Chasey 2025;
#MUSIC:Oh No!.ogg;
#BANNER:;
#BACKGROUND:;
#CDTITLE:;
#SAMPLESTART:35.925;
#SAMPLELENGTH:12.000;
#SELECTABLE:YES;
#OFFSET:-0.050;
#BPMS:0.000=127.000;
#STOPS:;
#BGCHANGES:;
#FGCHANGES:;

//--------------- dance-single - ----------------
#NOTES:
     dance-single:
     :
     Beginner:
     1:
     0.090275,0.1508,0.091916,0,0,55,47,8,0,0,0,0.090275,0.1508,0.091916,0,0,55,47,8,0,0,0:
0000
0000
0000
0000
,
0000
0000
0000
0000
,
0000
0000
0000
0000
,
0000
0000
0000
0000
,
0100
0000
0000
0000
,
0001
0000
0000
0000
,
0100
0000
0000
0000
,
1000
0000
0000
0000
,
0100
0000
0000
0000
,
0010
0000
0000
0000
,
0100
0000
0000
0000
,
1001
0000
0000
0000
,
0000
0001
0000
0001
,
0000
1000
0000
1000
,
0000
0001
0000
0001
,
0000
1000
0000
1000
,
0000
0000
0010
0000
,
0000
0010
0000
0000
,
0010
0000
0000
0010
,
0000
0100
0000
0110
,
0000
0000
0001
0000
,
0000
0000
1000
0000
,
0000
0000
0001
0000
,
0000
0000
1000
0000
,
0000
0000
0010
0000
,
0000
0000
0010
0000
,
0000
0000
0100
0000
,
0000
0000
0110
0000
,
0000
0000
0001
0000
,
0000
0000
1000
0000
,
0000
0000
0001
0000
,
0000
0000
1000
0000
,
0000
0000
0010
0000
,
0000
0000
0100
0000
,
0000
0000
1001
0000
,
0000
0000
1001
0000
,
0000
0000
0100
0000
,
0000
0000
0001
0000
,
0000
0000
0100
0000
,
0000
0000
1000
0000
,
0000
0000
0100
0000
,
0000
0000
0010
0000
,
0000
0000
0110
0000
,
0000
0000
1001
1001
;

//--------------- dance-single - ----------------
#NOTES:
     dance-single:
     :
     Easy:
     4:
     0.187115,0.251333,0.22979,0,0,114,94,20,0,0,0,0.187115,0.251333,0.22979,0,0,114,94,20,0,0,0:
0000
0000
0000
0000
,
0000
0000
0000
0000
,
0000
0000
0000
0000
,
0000
0000
0000
0000
,
0000
0001
0000
1000
,
0000
0010
1000
0100
,
0000
0100
0000
0010
,
0000
0100
0110
0000
,
0000
0001
0000
0100
,
0000
0010
1000
1000
,
0001
0000
0100
0000
,
0010
1000
0001
0000
,
0000
1001
0000
1001
,
0000
0110
0000
0110
,
0000
0001
0000
1000
,
0000
0010
0000
0100
,
0000
0000
1001
0000
,
0000
0110
0000
0000
,
1001
0000
0000
0110
,
0000
0000
0000
1001
,
0100
0001
0001
0001
,
1000
0000
0010
0010
,
0100
0000
1000
0001
,
1000
0000
0010
0000
,
1100
0000
0001
0000
,
0101
0000
1000
0000
,
0010
0000
0010
0000
,
0100
0000
0100
0010
,
1001
0000
1000
0010
,
0100
0000
0001
0000
,
0101
0000
0001
0100
,
1000
0000
0010
0000
,
0100
0001
1000
0000
,
0010
0000
0100
0000
,
0001
0000
0001
0000
,
1000
0000
1000
1100
,
0010
0000
0010
0000
,
0100
0001
1000
0000
,
0010
0000
0010
0000
,
0100
1000
0001
0000
,
1000
0000
0001
0000
,
0100
0010
0110
0000
,
0110
0000
0110
0000
,
0110
0000
0000
0010
0010
0000
1001
0000
;

//--------------- dance-single - ----------------
#NOTES:
     dance-single:
     :
     Medium:
     5:
     0.279031,0.326733,0.287237,0,0,170,145,25,0,0,0,0.279031,0.326733,0.287237,0,0,170,145,25,0,0,0:
0000
0000
0000
0000
,
0000
0000
0000
0000
,
0000
0000
0000
0000
,
0000
0000
0000
0000
,
0001
1000
0010
0010
,
0100
0100
0001
0000
,
1000
0100
0010
0001
,
1000
0100
1000
0000
,
0010
0100
0001
1000
,
0010
0001
1000
0000
,
0100
1000
0100
0001
,
0010
0100
1001
0000
,
0100
0001
1000
0001
,
0010
0010
0100
0100
,
1000
0000
1000
0000
0010
1000
0010
0000
,
0100
0000
0100
0000
0001
0010
0001
0000
,
0010
0000
1100
0010
,
0000
0101
0100
0000
,
1100
0100
0000
0101
,
0000
1001
0000
0110
,
1000
0001
1000
0010
,
0010
0100
0010
0000
1000
0000
1000
0000
,
0100
1000
0001
0010
,
0001
0000
0001
1000
0001
0000
1000
0000
,
0010
0100
0010
0100
,
0001
0100
0001
0000
1000
0000
1000
0000
,
0101
0000
1100
0000
,
0110
0000
1001
1001
,
0100
0000
0001
0000
1000
0100
1000
0000
,
0010
0000
0100
0010
0100
0000
0010
0000
,
1000
0000
0001
0000
0100
0001
0100
0000
,
0010
0000
0010
1000
0001
0000
0001
0000
,
0100
0001
1000
1000
,
0010
1000
0100
0000
0010
0000
0010
0000
,
0011
0000
1010
0000
,
1001
0000
0110
0110
,
0110
0000
0100
0001
,
1000
0000
1000
0010
0000
0000
0000
0000
,
1001
0000
0001
1000
,
0010
0000
0010
0100
0000
0000
0000
0000
,
1100
0000
0101
0000
,
0010
0000
0010
0001
0000
0000
0000
0000
,
1100
0000
0101
0000
,
1001
0000
0000
0001
1000
0000
1001
0000
;

//--------------- dance-single - ----------------
#NOTES:
     dance-single:
     :
     Hard:
     7:
     0.453015,0.452399,0.298727,0,0.017234,276,250,26,0,0,0,0.453015,0.452399,0.298727,0,0.017234,276,250,26,0,0,0:
0000
0000
0000
0000
,
0000
0000
0000
0000
,
0000
0000
0000
0000
,
0000
0000
0000
0000
,
1000
0000
0010
0000
0010
1000
0001
0000
,
0100
0001
0001
1000
0001
0000
0011
0000
,
1100
0000
0010
0100
0001
1000
0100
0000
,
0010
0010
0000
0100
1000
0001
0001
0001
,
0010
0000
1000
0100
1000
0001
0001
0000
,
0100
0010
0001
1000
1000
0000
0110
0000
,
0100
0000
0001
1000
0100
1000
0010
0000
,
0100
0001
0001
1000
0010
0001
0001
0001
,
0100
0000
1100
0000
0010
0100
0101
0000
,
1000
0100
0001
0000
0001
0010
1000
0000
,
0010
0100
0001
1000
0001
0100
0010
0000
,
1100
0000
0001
0100
0010
0100
0001
0000
,
1000
0100
0010
0100
1000
0000
0001
0100
,
0010
0100
0001
0000
1000
0010
0100
0010
,
1000
0000
0001
0010
0100
0010
0001
0000
,
1000
0100
0010
0001
0000
0000
1001
0000
,
0010
0100
0001
0001
1000
0100
1000
0010
,
0100
0000
0101
0000
0010
0100
0001
0000
,
1000
0100
1000
0001
0100
0010
1000
0010
,
0100
0000
0001
1000
0100
0010
0001
0000
,
1000
0100
1000
0100
0010
0100
0010
0100
,
1000
0001
1000
0001
0100
0001
0010
0000
,
1100
0000
0001
0100
0010
0000
1000
0010
,
0100
0000
0001
1000
0001
0000
0110
0000
,
1000
0010
0100
0100
0001
1000
0010
0000
,
0101
0000
1000
0100
0010
0100
1100
0000
,
0010
0100
0001
0000
1000
1000
1000
0000
,
0100
0001
1000
0100
0010
0000
0110
0000
,
0001
0100
1000
0100
0001
0010
0001
0010
,
0100
1000
0100
0010
1000
0010
0001
0000
,
1001
0000
0100
0001
1000
0000
0010
0010
,
0100
0000
0001
1000
0010
0000
1001
0000
,
1001
0000
0100
0001
1000
0000
0010
1000
,
0001
0000
1000
0000
0001
0000
1000
0100
0000
0000
0000
0000
0010
0000
0000
0000
,
0110
0000
0100
1000
0010
0000
0100
0010
,
0100
0000
0001
0000
1000
0000
0001
0010
0000
0000
0000
0000
0110
0000
0000
0000
,
0101
0000
1000
0100
0010
0000
0010
0100
,
1000
0000
0001
0000
0100
0000
0010
1000
0000
0000
0001
0000
1001
0000
0000
0000
,
0101
0000
0010
0100
1100
0000
0001
1000
,
0110
0000
0000
0011
1010
0000
1001
0000
;

//--------------- dance-single - 8Chasey - 2025 chart ----------------
#NOTES:
     dance-single:
     8Chasey - 2025 chart:
     Challenge:
     9:
     0,0,0,0,0:
0000
0000
0000
0000
,
0000
0000
0000
0000
,
0001
0000
0000
1000
0000
0000
0000
0000
,
0001
0000
1000
1001
,
0001
0000
0010
0000
0001
0000
0100
0000
0010
0100
0010
0000
0110
0000
0000
0000
,
0100
0010
1000
0100
1000
0001
0101
0100
,
0010
1000
1000
0010
1000
0100
1100
0000
,
1000
1001
0001
0010
0001
0100
0100
0100
,
0110
0000
0000
0000
0010
0000
1000
0000
0010
0000
0100
0001
0100
0000
0000
0000
,
0001
0001
0010
0001
1000
0010
1010
1000
,
1001
0000
0000
0000
0001
0000
0010
0000
0001
0000
0100
0010
0100
0000
0010
0000
,
1000
1000
0100
1000
0001
0010
0110
0110
,
1001
0001
0100
0000
0110
0010
1000
0000
,
0100
1000
0100
0000
1000
0000
0001
0000
0100
0001
0100
0000
0010
0000
0100
0000
,
0110
0010
1000
0100
0110
0010
1001
0000
,
0001
0101
0100
0010
1000
0100
1100
0100
,
1000
0001
1000
0000
0001
0000
0010
0000
0011
0000
0000
0000
0001
1000
0001
0000
,
1000
0000
0010
0000
1010
0000
0000
0000
1000
0100
1000
0000
0010
0000
0100
0000
,
0101
0000
0000
0000
0001
0100
0001
0000
0010
0000
0100
0000
1100
0000
0000
0000
,
1100
1010
0101
0011
0000
0000
1001
0000
,
0110
0000
0010
0000
0010
0000
1000
0100
1000
0000
0001
0000
0001
0000
0010
0000
,
0001
0010
0001
0000
0100
0000
0010
0000
1000
0000
0001
0000
1001
0000
0000
0000
,
0110
0000
0010
0000
1000
0000
0001
1000
0001
0000
0010
0000
0010
0000
0001
0000
,
1000
0100
1000
0000
0010
0000
0100
0000
0001
0000
1000
0000
1001
0000
0000
0000
,
0110
0000
0100
0000
0001
0000
1000
0100
1000
0000
0001
0010
0001
0000
0010
0100
,
0010
0000
0100
1000
0100
0000
1000
0000
0001
0000
0100
0000
0110
0000
0000
0000
,
1010
0000
1100
1000
0001
0000
0101
0001
,
1000
0000
0001
0010
0011
0000
0110
0000
,
1001
0000
0001
0000
1000
0000
0100
0000
0100
0000
1000
0000
0010
1000
0010
0000
,
0100
0001
0100
0000
0001
0000
1000
0000
0100
0000
0010
0000
0110
0000
0000
0000
,
1001
0000
1000
0000
0001
0000
0010
0000
0010
0000
0100
0000
1000
0010
1000
0000
,
0001
0100
0001
0000
1000
0000
0100
0000
1000
0000
0001
0000
0101
0000
0000
0000
,
1100
0000
1000
0000
0010
0000
0100
0010
0100
0000
0001
0100
0001
0000
1000
0010
,
1000
0000
0001
1000
0001
0000
1000
0000
0010
0000
0100
0000
0110
0000
0000
0000
,
1010
0000
0101
0001
1000
0000
1100
1000
,
0001
0000
0010
0001
0010
0010
0011
0010
,
0110
0100
1000
0010
1010
0100
0001
1000
,
1001
0000
0001
0000
0010
0001
0010
0001
0100
0000
0010
0000
1010
0000
1000
0000
,
1001
0001
1000
0100
1100
1000
0001
0100
,
0101
0000
0001
0000
0010
0100
0010
0100
0010
0000
0100
0000
1000
0000
0010
0000
,
0110
0000
0100
0000
0001
0100
0001
0000
0010
0000
0100
0000
1000
0100
1000
0000
,
0010
0000
0100
0000
0001
0010
0001
0010
0100
1000
0100
1000
0001
0000
0100
0000
,
0110
0000
0010
1000
0010
0000
1000
0000
1001
0000
0001
0010
0001
0000
0101
0000
,
1010
0000
0000
1100
0011
0000
1001
0000
;
