#TITLE:Nugget In A Biscuit;
#SUBTITLE:;
#ARTIST:Tobuscus;
#TITLETRANSLIT:;
#SUBTITLETRANSLIT:;
#ARTISTTRANSLIT:;
#GENRE:;
#CREDIT:8Chasey;
#MUSIC:Nugget In A Biscuit.ogg;
#BANNER:;
#BACKGROUND:;
#CDTITLE:;
#SAMPLESTART:32.970;
#SAMPLELENGTH:12.000;
#SELECTABLE:YES;
#OFFSET:-0.277;
#BPMS:0.000=110.000;
#STOPS:;
#DISPLAYBPM:110.000;
#BGCHANGES:;
#FGCHANGES:;

//--------------- dance-single - 8Chasey ----------------
#NOTES:
     dance-single:
     8Chasey:
     Beginner:
     2:
     0,0,0,0,0:
0000
0000
0000
0000
,
0001
0001
0001
0000
,
1000
1000
1000
0000
,
0001
0000
1000
0000
,
1001
0000
0000
0000
,
1000
1000
1000
0000
,
0001
0001
0001
0000
,
1000
0000
0001
0000
,
1001
0000
0000
0000
,
0100
0000
0100
0100
,
0100
0000
0010
0000
,
0010
0000
1000
0000
,
0001
0000
0100
0000
,
0100
0000
0010
0000
,
1001
1001
1001
0000
,
0010
0010
0010
0000
,
0100
0100
0100
0000
,
0010
0000
0100
0000
,
0110
0000
0000
0000
,
0100
0100
0100
0000
,
0010
0010
0010
0000
,
0100
0000
0010
0000
,
0110
0000
0000
0000
,
0001
0000
1000
0000
,
0010
0000
1000
0000
,
0100
0000
0001
0000
,
1000
1000
1000
0000
,
0001
0001
0001
0000
,
0110
0110
0110
0000
;

//--------------- dance-single - 8Chasey ----------------
#NOTES:
     dance-single:
     8Chasey:
     Easy:
     3:
     0,0,0,0,0:
0000
0000
0000
0000
,
0001
0001
2000
3000
,
0001
0010
0100
0000
,
1000
1000
0002
0003
,
2002
0000
0000
3003
,
0010
1000
0200
0300
,
0010
0001
0200
0300
,
0001
0001
1000
1000
,
0220
0000
0000
0330
,
2000
0000
0002
3003
,
0020
0000
0000
0130
,
0001
0001
0010
0000
,
0100
1000
0001
0100
,
0020
0000
0130
0000
,
1001
0010
1001
0100
,
0002
0013
0001
1000
,
2000
3010
1000
0001
,
0100
0010
0100
1001
,
0002
2003
3100
0110
,
0010
0010
0100
1000
,
0010
0010
0100
0001
,
2000
3000
0200
0300
,
0020
0030
0002
0003
,
2002
0000
0000
3003
,
0200
0000
0000
0310
,
0001
0001
1000
1000
,
0001
0100
0010
0000
,
1000
0100
0010
0000
,
0110
0001
1000
0110
;

//--------------- dance-single - 8Chasey ----------------
#NOTES:
     dance-single:
     8Chasey:
     Medium:
     5:
     0,0,0,0,0:
0000
0000
0000
0000
,
0001
0001
1000
1001
,
1000
1000
0001
1001
,
1000
0100
1000
0000
0001
0010
0001
0000
,
0200
0001
0302
1003
,
1000
0000
1001
0000
0001
0010
0001
0000
,
0001
0000
1001
0000
1000
0010
1000
0000
,
0100
1000
0001
0000
0010
0000
0100
0000
,
2000
3002
0100
0013
,
0200
0000
1300
0001
,
0020
0000
0230
2300
,
3100
1000
0100
0000
0010
0001
0010
0000
,
0001
1000
0100
0010
,
0100
0100
0100
1001
,
0002
2003
3020
0030
,
0010
1000
0001
1001
,
0010
0001
1000
1001
,
1000
1100
0001
0101
,
0002
1003
0010
2000
,
3001
0010
0100
0000
1000
0000
0010
0000
,
1000
0010
0100
0000
0001
0000
1001
0000
,
1000
0000
0200
0000
1300
0001
0100
0000
,
0002
2003
3002
2003
,
3200
0000
0310
0001
,
2000
0000
3002
0023
,
0031
0100
0001
0000
1000
0100
1000
0000
,
0001
0010
0100
0001
,
2000
3002
0023
0030
,
0200
0320
0130
1001
;

//--------------- dance-single - 8Chasey ----------------
#NOTES:
     dance-single:
     8Chasey:
     Hard:
     7:
     0,0,0,0,0:
0000
0000
0000
0000
,
0001
0001
1000
1000
0001
2000
0100
3100
,
1000
1000
0001
0001
1000
0002
0100
0103
,
0010
1000
0001
0010
0100
1000
0001
0100
,
0002
1000
0023
0130
,
1000
1000
0010
0010
0100
0001
0010
0000
,
0001
0001
0010
0010
0100
1000
0010
0000
,
1000
0010
0200
0000
0301
0010
0200
0000
,
2300
0000
0010
0000
3002
0000
0103
0200
,
0010
0301
1001
1000
,
0020
0000
0100
0130
,
0100
0010
0100
0001
0010
0000
0001
1000
,
0100
0000
0010
0100
1000
0000
0010
0100
,
0001
1100
0011
0100
,
0001
1000
0000
0000
0001
1000
0000
0000
0010
0000
0100
0000
0010
0000
0000
0000
,
1000
0010
0001
0010
0100
0001
1000
0000
,
0001
0010
1000
0010
0100
1000
0001
0000
,
1100
0010
0101
0000
0001
0001
1000
1000
,
0100
1000
0010
0100
0001
1000
0210
0000
,
0310
0000
0011
0000
1100
0000
1001
1000
,
0010
0000
1010
0000
0101
0000
1001
0001
,
1000
0100
1000
0000
0001
0100
0001
0000
,
2000
0000
0001
0001
3010
0000
0220
0330
,
0200
0000
0302
0000
1003
0000
0100
1000
,
0020
0000
0000
0000
1030
0001
1000
0000
,
0100
0100
1000
0001
0020
0000
0001
0000
,
0130
1000
0020
0000
1030
0100
0200
0000
,
1300
0001
0100
0000
0100
0000
1001
0000
,
1000
0001
0000
0000
1000
0001
0000
0000
0100
0000
0010
0000
0110
0000
0000
0000
;

//--------------- dance-single - 8Chasey ----------------
#NOTES:
     dance-single:
     8Chasey:
     Challenge:
     6:
     0,0,0,0,0:
0000
0000
0000
0000
,
1000
0010
1000
0000
0001
0000
MMMM
0000
,
0100
0010
1000
0000
0100
0000
MMMM
0000
,
1001
1010
0011
0110
,
2000
3002
0013
MMMM
,
0100
0001
0100
0000
0010
0000
MMMM
0000
,
0010
1000
0010
0000
0100
0000
MMMM
0000
,
0001
0010
0001
0000
1000
0010
1000
0000
,
0100
0100
0010
MMMM
,
0102
0100
1003
MMMM
,
2100
0100
3001
MMMM
,
0010
1000
0010
0000
1000
0000
MMMM
0000
,
0010
0001
0010
0000
0001
0000
MMMM
0000
,
0100
0100
0200
0310
,
0011
1010
1001
MMMM
,
0100
0001
0010
0000
0100
0000
MMMM
0000
,
0100
1000
0010
0000
0100
0000
MMMM
0000
,
0001
0100
0001
0000
1000
0010
1000
0000
,
0100
0100
0010
0000
1001
0000
MMMM
0000
,
0001
1000
0010
0000
1000
0000
MMMM
0000
,
1000
0001
0010
0000
0001
0000
MMMM
0000
,
0100
0010
1000
0001
0010
0000
MMMM
0000
,
0101
1010
0110
1001
,
0200
0001
0310
MMMM
,
0020
1000
0130
MMMM
,
0001
0010
0001
0000
1000
0010
1000
0000
,
0100
0010
0100
0000
1000
0001
1000
0000
,
0101
1010
1001
MMMM
,
0100
0010
0100
0000
0110
0000
MMMM
0000
;

//--------------- dance-double - 8Chasey ----------------
#NOTES:
     dance-double:
     8Chasey:
     Easy:
     3:
     0,0,0,0,0:
00000000
00000000
00000000
00000000
,
00000001
00000100
00001000
00000000
,
00010000
01000000
10000000
00000000
,
01000000
01000000
00100000
00000000
,
02200000
00000000
00000000
03300000
,
01000000
00010000
00100000
00000000
,
01000000
10000000
00100000
00000000
,
01000000
00001000
00010000
00000000
,
00022000
00000000
00000000
00033000
,
00020000
00000000
00000100
00000000
,
00032000
00000000
00000000
01003000
,
00010000
00000000
01000000
00000000
,
00010000
10000000
00010000
00000000
,
10000000
01000000
10000000
00000000
,
01100000
10010000
02200000
03300000
,
01000000
00020000
00100000
00130000
,
00001000
00020000
00000100
00030100
,
00001000
00000002
00001000
00001003
,
00000100
00010000
00001000
00011000
,
00100000
00200000
00010000
01300000
,
10000000
02000000
10000000
03100000
,
00010000
10000000
01000000
00100000
,
01000000
00010000
00001000
00011000
,
00002000
00000000
01000000
00000000
,
00023000
00000000
00000000
00030100
,
00002000
00000000
00003010
00000000
,
00000100
00000001
00000010
00000000
,
00000100
00010000
00001000
00011000
,
00100000
01000000
00100000
10010000
;
