#TITLE:Nobody Cares;
#SUBTITLE:Lo-fi Remix;
#ARTIST:Elvis Lofi;
#TITLETRANSLIT:;
#SUBTITLETRANSLIT:;
#ARTISTTRANSLIT:;
#GENRE:;
#CREDIT:8Chasey 2025/Funny Mix 3;
#MUSIC:Nobody Cares Lo-fi Remix.ogg;
#BANNER:;
#BACKGROUND:;
#CDTITLE:;
#SAMPLESTART:101.100;
#SAMPLELENGTH:12.000;
#SELECTABLE:YES;
#OFFSET:-0.050;
#BPMS:0.000=95.000;
#STOPS:191.500=0.632;
#BGCHANGES:;
#FGCHANGES:;

//--------------- dance-single - 8Chasey ----------------
#NOTES:
     dance-single:
     8Chasey:
     Beginner:
     1:
     0,0,0,0,0:
0000
0000
0000
0000
,
0000
0000
0000
0000
,
0000
0000
0000
0000
,
0000
0000
0000
0000
,
0001
0000
0000
0000
,
0001
0000
0000
0000
,
1000
0000
0000
0000
,
1000
0000
0000
0000
,
0010
0000
0000
0000
,
0000
0100
0100
0100
,
0100
0000
0000
0000
,
0000
0010
0010
0010
,
0010
0000
0000
0000
,
0000
1000
1000
1000
,
1000
0000
0000
0000
,
0000
0001
0001
0001
,
0001
0000
1000
0000
,
0001
0000
0000
0000
,
1000
0000
0001
0000
,
1000
0000
0000
0000
,
0010
0000
0100
0000
,
0010
0000
0000
0000
,
0100
0000
0010
0000
,
0100
0000
0000
0000
,
0001
0000
1000
0000
,
0001
0001
0001
0001
,
0001
0000
1000
0000
,
0010
0010
0010
0000
,
1000
0000
0001
0000
,
1000
1000
1000
1000
,
1000
0000
0001
0000
,
0100
0100
0100
0000
,
0010
0000
0000
0000
,
1000
0000
0000
0000
,
0010
0000
0000
0000
,
0001
0000
0000
0000
,
0100
0000
0000
0000
,
1000
0000
0000
0000
,
0100
0000
0000
0000
,
0001
0000
1000
1000
,
1000
0000
0010
0000
,
1000
0000
1000
0000
,
0100
0000
1000
0000
,
0001
0001
0001
0000
,
0100
0000
0001
0000
,
1000
0000
0010
0000
,
0010
0000
0100
0000
,
0010
0010
0010
0000
,
1001
0000
0000
0000
;

//--------------- dance-single - 8Chasey ----------------
#NOTES:
     dance-single:
     8Chasey:
     Easy:
     3:
     0,0,0,0,0:
0000
0000
0000
0000
,
0000
0000
0000
0000
,
0000
0000
0000
0000
,
0000
0000
0000
0000
,
0001
0000
0100
0000
0001
0000
0000
2000
,
0000
0000
0010
3010
,
1000
0000
0100
0000
1000
0000
0000
0002
,
0000
0000
0010
0013
,
0200
0000
0000
0300
,
0010
0100
0010
0100
,
0020
0000
0000
0030
,
0100
0010
0100
0010
,
2000
0000
3001
0000
,
0010
0010
0001
0010
,
0002
0000
1003
0000
,
0100
1000
0001
0010
,
0100
0100
0100
0000
,
1000
0010
1000
0010
,
0100
0100
0100
0000
,
0001
0010
0001
0010
,
0001
0001
0001
0000
,
0100
0010
1000
0010
,
1000
1000
1000
0000
,
0100
0010
0001
0010
,
0200
0000
1300
0000
,
0010
1000
0020
0030
,
0200
0000
0301
0000
,
0010
0001
0020
0130
,
0110
0000
0001
0000
,
1000
0001
1000
1000
,
0010
0000
1000
0000
,
0001
1000
0001
0001
,
0010
0001
0020
0000
,
0001
0002
0033
0100
,
0010
1000
0020
0000
,
1000
2000
3030
1001
,
0200
0001
0301
0020
,
1000
1030
0100
0010
,
0002
0000
0013
2000
,
0000
3100
0010
0110
,
1000
1000
0100
0010
,
0001
0001
0100
0010
,
1000
0001
1000
0001
,
0000
1100
0000
0101
,
1001
0010
1000
0100
,
0010
0001
0100
0010
,
0100
0100
0001
0000
,
2000
3001
0002
1003
,
2002
0000
0000
0000
,
0000
0000
0000
3003
;

//--------------- dance-single - 8Chasey ----------------
#NOTES:
     dance-single:
     8Chasey:
     Medium:
     6:
     0,0,0,0,0:
0000
0000
0000
0000
,
0000
0000
0000
0000
,
0000
0000
0000
0000
,
0000
0000
0000
0000
,
0010
0000
0001
1000
0002
0000
0003
0200
,
0000
0000
0301
0100
0001
0000
1000
0000
,
0010
0000
1000
0001
2000
0000
3000
0200
,
0000
0300
1000
0001
0100
0000
0020
0000
,
0130
0000
0001
0100
0002
0000
0003
1000
,
0100
1000
0020
0030
0200
0300
2002
3003
,
0010
0000
1000
0100
2000
0000
3000
0001
,
0010
0001
0200
0300
0020
0030
2020
3030
,
0101
0000
0100
0001
0020
0000
0030
0100
,
1000
0100
2000
0000
3020
0000
0230
0000
,
0302
0000
0000
1000
1003
0000
0000
0010
,
0100
0010
0101
1100
,
0020
0000
1030
1000
0001
0100
0001
0021
,
0000
0031
0010
0100
2000
0000
3020
0000
,
0230
0000
0301
0001
1000
0010
1000
1200
,
0000
1300
0010
0100
0002
0000
1003
0000
,
1001
0000
0001
0010
0002
1000
1003
2010
,
0000
3001
0100
0001
0020
0000
0130
0000
,
0012
0000
0103
0010
0100
0001
0010
0012
,
0000
1003
0100
0010
0200
0000
0310
0000
,
0002
0000
0000
0100
0203
0000
0300
0001
,
0010
0001
1000
0000
1010
0000
1001
0000
,
2000
0000
0000
0010
3020
0000
0030
0100
,
0001
1000
0100
0000
0011
0000
1100
0000
,
0020
0000
0000
1030
0200
0000
0300
0010
,
0100
1000
0020
0000
0130
0000
0101
0000
,
0200
0000
0000
0301
0020
0000
0030
0100
,
1000
0001
0020
0000
0130
0000
1001
0000
,
0000
0001
0010
0001
2000
0000
3000
0020
,
1000
0000
2000
0000
0000
0000
0000
3030
,
0000
1000
0100
1000
0002
0000
0003
0200
,
0001
0000
0002
0000
0303
0010
0020
0000
,
0130
0000
0001
1000
0020
0000
0030
1000
,
0001
2000
0100
3100
,
0010
0000
0001
0100
0002
0000
0003
1000
,
0010
1000
0200
0000
1300
0000
1100
0000
,
0010
1000
0100
0000
0020
0000
0030
0001
,
0100
0002
1003
1001
,
1000
0010
1000
0000
0002
0000
0103
0001
,
0000
1000
2000
0000
3000
0001
0002
0000
,
0103
0000
0010
1000
0020
0000
0130
0001
,
0010
0001
1000
1001
,
0010
1000
0001
0000
0020
0000
0100
0000
,
0031
1000
0001
0000
1000
0001
1000
0000
,
2002
0000
0000
0000
,
0000
0000
0000
3003
;

//--------------- dance-single - 8Chasey ----------------
#NOTES:
     dance-single:
     8Chasey:
     Hard:
     9:
     0,0,0,0,0:
0000
0000
0000
0000
,
0000
0000
0000
0000
,
0000
0000
0000
0000
,
0000
0000
0000
0000
,
2002
3003
0100
0001
0020
0000
0030
2200
,
0000
0000
0000
0000
0000
0000
0000
0000
0000
0000
0000
0000
0000
3300
0000
0000
0000
0000
0000
0000
0000
0000
0000
0000
1000
0000
0000
0000
0000
0000
0000
0000
0000
0000
0000
0000
0002
0000
0000
0000
0000
0000
0000
0000
0000
0000
0000
0000
0010
0000
0000
0000
0000
0000
0000
0000
0000
0000
0000
0000
0000
0000
0000
0000
0000
0000
0000
0000
0000
0000
0000
0000
0023
0000
0000
0000
0000
0000
0000
0000
0000
0000
0000
0000
0030
0000
0000
0000
0000
0000
0000
0000
0000
0000
0000
0000
,
0220
0330
0100
1000
0002
0000
0003
0202
,
0000
0303
0100
0010
0200
0000
0301
1000
,
0002
0000
0013
0100
2000
0000
3000
0010
,
1000
0010
0000
0000
2020
0000
0030
0000
0002
0000
0003
0000
0002
0000
3003
0000
,
0202
0303
0100
0010
2000
0000
3100
0001
,
0100
1000
0000
0000
2020
0000
3000
0000
0002
0000
0003
0000
0200
0000
0330
0000
,
0220
0330
0010
0100
0002
0000
0013
0001
,
0010
0100
0000
0000
0220
0000
0300
0000
2000
0000
3000
0000
0032
0000
0000
0000
,
0203
0000
0301
0002
2000
0000
3003
0010
,
1000
0001
0000
0000
0100
0001
0000
0000
0001
0010
0001
0000
1000
0100
1000
0000
,
1010
0000
1000
0001
0100
0000
0001
0000
0002
0000
0010
0000
0013
0000
0220
0000
,
0330
0000
0100
1000
0100
0000
0010
0000
0011
0000
0001
0000
2002
0000
3003
0000
,
2000
0000
0010
0000
3001
0000
0100
0001
0100
0000
0020
0000
1030
0000
2020
0000
,
3030
0000
0100
0010
0100
0000
0001
0000
0020
0000
0001
0000
0200
0000
0330
0000
,
2200
0000
3300
0000
1000
0000
0010
1000
0002
0000
0100
0000
0103
0000
0120
0000
,
0000
0030
1000
0010
1000
0000
0100
0000
0010
0001
0010
0000
0220
0000
0330
0000
,
2002
0000
3003
0000
0001
0000
0100
0002
0100
0000
1000
0000
1003
0000
2020
0000
,
3000
0000
0100
0000
1030
0000
0001
0000
0010
0100
0010
0000
0200
0000
0000
0300
,
0022
0000
0000
0000
0033
0000
2000
0000
0020
0000
0000
0000
3030
0000
0100
0001
,
0200
0301
0022
0033
0220
0330
2200
3300
,
2002
0000
3003
0200
0002
0000
0300
1000
,
1003
0000
0001
0000
0020
0000
0000
0000
0130
1000
0000
0000
0202
0000
0303
0000
,
0001
0000
0010
0000
0001
0000
0100
0001
2000
0000
0010
0000
3010
0000
0200
0000
,
0301
0000
2020
3030
2200
3300
0022
0033
,
0200
0000
0010
0000
0310
0000
0100
1000
0100
0000
1000
0000
0001
0100
0002
0000
,
0010
0000
0203
0000
0310
0100
0010
0000
,
2002
0000
0000
0000
3003
0000
0000
0001
,
0010
0100
2000
0000
0010
0000
3001
0000
,
0220
0000
0000
0000
0330
0000
0000
0010
,
0100
0001
1000
0000
0100
2000
0002
3003
,
0020
0000
0001
0001
0002
0000
0030
0100
,
0100
2003
3010
0101
,
0120
0000
1000
1000
2000
0000
0030
0100
,
0100
0000
0000
0000
0002
0000
3003
0000
1001
0000
0001
1000
0001
0000
0010
0000
,
0100
1000
0100
0000
1000
0000
0001
0000
0002
0000
0100
0000
0103
0000
0110
0000
,
0010
1000
0010
0000
2000
0000
3100
0000
1000
0001
0000
0000
0202
0000
0303
0000
,
0100
0000
0010
1000
0010
0000
0100
0000
0002
0000
0010
0000
0013
0000
0100
0001
,
0000
2000
0200
3300
0000
0002
0020
0033
,
0110
0000
0100
1000
0100
0000
1000
0000
0010
1000
0010
0000
0100
0000
0101
0000
,
0001
0001
0020
0000
0001
0001
0130
1000
,
0010
1000
0010
0000
0100
0000
0100
0000
0002
0000
0010
0000
0013
0000
0001
1000
,
0000
0000
0010
1000
0010
0000
0100
0000
0001
0000
0010
0001
0010
0000
0100
0000
,
2002
0000
0000
0000
,
0000
0000
0000
3003
;

//--------------- dance-double - 8Chasey ----------------
#NOTES:
     dance-double:
     8Chasey:
     Easy:
     2:
     0,0,0,0,0:
00000000
00000000
00000000
00000000
,
00000000
00000000
00000000
00000000
,
00000000
00000000
00000000
00000000
,
00000000
00000000
00000000
00000000
,
00001000
00000000
00010000
00000000
00001000
00000000
00000000
02000000
,
00000000
00000000
00100000
03100000
,
01000000
00000000
00010000
00000000
01000000
00000000
00000000
00002000
,
00000000
00000000
00010000
00013000
,
00000200
00000000
00000000
00000300
,
00000010
00000100
00000010
00000100
,
00000020
00000000
00000000
00000030
,
00000100
00000010
00000100
00000010
,
00020000
00000000
00031000
00000000
,
01000000
00010000
01000000
00000000
,
00200000
00000000
10300000
00000000
,
01000000
10000000
01000000
00000000
,
00010000
00001000
00010000
00000000
,
00000100
00000010
00000100
00000000
,
00001000
00000001
00001000
00000000
,
00000010
00000100
00000010
00000000
,
00001000
00001000
00001000
00000000
,
00000100
00010000
00000100
00000000
,
00010000
00010000
00010000
00000000
,
00001000
00100000
00001000
00000000
,
02000000
00000000
03010000
00000000
,
00100000
01000000
00100000
01000000
,
00200000
00000000
00301000
00000000
,
00010000
00001000
00010000
00001000
,
00000200
00000000
00000310
00000000
,
00001000
00000001
00001000
00000100
,
00020000
00000000
00031000
00000000
,
00100000
00010000
10000000
01000000
,
00200000
00000000
00000000
00000000
00000000
00000000
00000000
02000000
,
00000000
03300000
10000000
01000000
,
00020000
00000000
00000000
00000000
00000000
00000000
00000000
00002000
,
00000000
00033000
00010000
00000100
,
00000020
00000000
00000000
00000000
00000000
00000000
00000000
00000200
,
00000000
00000330
00000100
00000010
,
00002000
00000000
00000000
00000000
00000000
00000000
00000000
00000002
,
00000000
00000000
00003003
00001001
,
00000001
00000010
00000001
00000000
,
00001000
00000100
00001000
00000000
,
00000010
00000100
00000010
00000000
,
00010000
00010000
00001000
00001000
,
00100000
00010000
00100000
00000000
,
01000000
10000000
01000000
00000000
,
10000000
10000000
00010000
00010000
,
01000000
00100000
01000000
00001000
,
00022000
00000000
00000000
00000000
,
00000000
00000000
00000000
00033000
;
