#TITLE:No Mercy;
#SUBTITLE:;
#ARTIST:The Living Tombstone;
#TITLETRANSLIT:;
#SUBTITLETRANSLIT:;
#ARTISTTRANSLIT:;
#GENRE:;
#CREDIT:8Chasey 2025/ADM Funny Mix 3;
#MUSIC:No Mercy.ogg;
#BANNER:;
#BACKGROUND:;
#CDTITLE:;
#SAMPLESTART:72.44;
#SAMPLELENGTH:12;
#SELECTABLE:YES;
#OFFSET:-0.021;
#BPMS:0.000=105.010;
#STOPS:;
#BGCHANGES:;
#FGCHANGES:;

//--------------- dance-single - BEGINNER ----------------
#NOTES:
     dance-single:
     BEGINNER:
     Beginner:
     1:
     0,0,0,0,0:
0000
0000
0000
0000
,
0000
0000
0000
0000
,
0001
0000
0001
0000
,
1000
0000
1000
0000
,
0010
0000
0100
0000
,
0010
0010
0010
0000
,
0100
0000
0010
0000
,
0100
0100
0100
0000
,
1001
0000
0000
0000
,
0001
0000
1000
0000
,
0010
0000
0010
0000
,
0100
0000
0100
0000
,
1001
0000
0000
0000
,
1000
0000
0001
0000
,
1000
0000
0001
0000
,
0100
0100
0100
0000
,
1001
0000
0000
0000
,
0001
0000
1000
0000
,
0001
0001
0001
0000
,
1000
1000
1000
0000
,
0110
0000
0000
0000
,
1000
0000
0001
0000
,
1000
1000
1000
0000
,
0001
0001
0001
0000
,
1001
0000
0010
0010
,
0000
0000
0100
0100
,
0000
0000
1001
1001
,
0000
0000
0001
0001
,
0000
0000
1000
1000
,
0000
0000
0010
0010
,
0000
0000
0100
0100
,
0000
0000
0000
0000
,
1001
0000
0000
0000
,
1000
0000
0001
0000
,
0100
0000
0010
0000
,
0100
0100
0100
0000
,
1001
0000
0000
0000
,
0001
0000
1000
0000
,
0010
0000
0100
0000
,
0010
0010
0010
0000
,
0110
0000
0000
0000
,
0010
0000
0100
0000
,
0001
0000
0001
0000
,
1000
0000
1000
0000
,
1001
0000
0000
0000
,
0100
0000
0010
0000
,
1000
0000
1000
0000
,
0001
0000
0001
0001
;

//--------------- dance-single - NOVICE ----------------
#NOTES:
     dance-single:
     NOVICE:
     Easy:
     3:
     0,0,0,0,0:
0000
0000
0000
0000
,
0000
0000
0000
0000
,
0001
0010
0100
1000
,
0001
1000
1001
0000
,
1000
0010
1000
0000
,
0001
0010
0001
0000
,
0100
0100
0010
0010
,
1000
0001
0100
0000
,
1001
0000
0001
0010
,
0001
0001
1000
0000
,
0100
1000
0010
0000
,
0100
0001
0010
0000
,
0110
0000
0100
0000
,
0010
0100
0100
0010
,
0001
0001
1000
1000
,
0010
0100
0010
1001
,
0110
0000
0010
1000
,
0010
0000
0000
0010
0000
0000
0010
0000
,
0100
0001
0100
0000
,
0001
1000
0001
0000
,
1001
0000
0100
0001
,
0100
0000
0000
0100
0000
0000
0100
0000
,
0010
1000
0010
0000
,
1000
0001
1000
0000
,
1001
0000
0001
0010
,
0000
0000
0100
1000
,
0000
0000
0000
0000
0000
0000
0000
0000
1001
0000
0000
1001
0000
0000
1001
0000
,
0000
0000
1001
1001
,
0000
0000
0000
0000
0010
0000
0100
0010
,
0000
0000
0000
0000
0100
0000
0010
0100
,
0000
0000
0001
1000
,
0000
0110
0000
1001
,
0001
0010
0001
0001
,
1000
0100
1000
0000
,
0010
1000
0100
0000
,
0010
0001
0100
0001
,
0010
0010
0100
0100
,
1000
0001
0100
0010
,
1000
0100
0010
0000
,
0001
0100
0010
1001
,
1100
0000
1000
0100
,
0001
0000
0100
0010
,
0001
0001
1000
1000
,
0010
0100
0001
0011
,
0101
0000
0001
0100
,
1000
0000
0100
0010
,
1000
1000
0001
0001
,
0010
0100
1000
1001
;

//--------------- dance-single - REAL ----------------
#NOTES:
     dance-single:
     REAL:
     Medium:
     6:
     0,0,0,0,0:
0000
0000
0000
0000
,
0000
0000
0000
0000
,
0001
0100
0001
0000
1000
0000
0010
0000
,
1000
0100
1000
0000
1001
0000
0000
0000
,
0001
0010
0001
0000
0100
0100
0001
0000
,
1000
0010
1000
0000
0100
0100
1000
0000
,
0010
1000
0010
0000
0100
0001
0010
0000
,
0001
0001
1000
0010
0100
0000
0000
0000
,
1001
0000
0001
0000
1000
0100
0001
0000
,
0100
1000
0010
0000
1010
0000
1000
0000
,
0010
0100
0001
0000
0100
0001
1000
0000
,
0100
0010
0001
0000
0011
0000
0010
0000
,
0110
0000
0000
0110
0000
0000
0000
0000
0100
0000
1000
0000
0100
0000
0000
0000
,
1000
1000
0010
1000
0001
0000
0010
0001
,
0010
0100
0010
0000
0100
0010
0100
0000
,
1000
0100
0010
0001
0010
0100
0110
0000
,
1001
0000
0001
0100
0001
1000
0001
0000
,
1010
0000
0010
1000
0100
0010
0100
0000
,
1000
0001
0010
0001
0000
0010
0100
0000
,
1000
0100
1000
0010
0000
0100
0010
0000
,
0101
0000
1000
0010
1000
0001
0010
0000
,
0011
0000
0010
0001
0100
0010
1000
0000
,
0100
1000
0010
0100
0001
0100
0001
0000
,
1000
0100
0010
0100
1000
0000
0101
0000
,
0100
0000
0010
0100
,
0001
0000
0000
0000
1000
0100
1000
0100
,
0000
0000
0000
0000
0000
0000
0000
0000
0110
0000
0000
1001
0000
0000
0110
0000
,
0000
0000
0000
0000
0010
0001
0010
0100
,
1000
0000
0001
0000
1000
0010
1000
1000
,
0010
0000
0100
0000
0001
0100
0001
0001
,
0100
0000
0010
0000
,
0100
0001
1000
0000
0000
0000
1001
0000
,
1010
0000
0010
0000
0100
0001
0100
0000
,
1000
0000
0000
0001
0000
0000
1000
0000
0001
0000
0000
0000
0010
0000
0000
0000
,
0100
1000
0100
0000
0010
0001
0010
0000
,
0100
0010
0100
0000
1001
0000
0001
1000
,
1001
0000
0000
1001
0000
0000
0000
0000
0010
0000
1000
0000
0010
0000
0000
0000
,
0100
0000
0000
0010
0000
0000
0100
0000
0010
0000
0000
0000
1000
0000
0001
0000
,
1000
0000
0001
0010
0001
0000
0100
0000
,
0010
1000
0010
0100
0001
0100
0010
0000
,
1001
0000
1000
0000
0010
1000
0010
0000
,
0100
0000
0001
1000
0001
1000
0001
0000
,
0010
0001
0010
0000
0100
1000
0001
0000
,
0100
0010
1000
0000
0001
1000
1001
0000
,
0010
0100
0010
0000
1000
0100
0001
0100
,
1000
0000
0001
0010
0000
0001
1000
0000
,
0010
0100
0100
0010
0000
1000
0100
0010
,
0001
0010
0100
1000
0001
0000
1001
0000
;

//--------------- dance-single - MASTER ----------------
#NOTES:
     dance-single:
     MASTER:
     Hard:
     8:
     0,0,0,0,0:
0000
0000
0000
0000
,
0000
0000
0000
0000
,
0001
0000
1000
0000
0001
0000
0000
1000
0000
0000
0100
0000
1000
0000
0000
0001
,
0000
0100
0001
0000
1010
0000
0101
0000
,
1001
0000
1000
0010
1000
0000
0001
0010
,
0100
0000
0010
0001
1000
0010
0100
0000
,
0001
0000
0000
0000
0100
0000
0001
1000
0000
0000
1000
0000
0010
0000
1000
0001
,
0000
0000
0001
0000
0100
0000
0010
0100
0000
0000
0000
0000
0000
0000
0000
0000
,
0110
0000
0100
0000
0001
0000
1000
0000
0100
0000
0010
0000
0100
1000
0010
0000
,
0110
0000
0000
0001
1000
0000
0001
0000
0100
0000
0000
0000
0010
0100
0010
0000
,
1010
0000
0000
1000
0000
0000
0100
0000
0011
0000
0000
0001
0000
0000
0100
0000
,
0001
0000
1000
0010
0000
1000
0100
0000
0010
0000
0000
0000
0110
0000
1001
0000
,
1000
0010
0000
0101
0000
0000
0100
0000
0001
0000
0000
0000
1000
0001
1000
0000
,
0100
0000
0010
0001
0000
1000
0010
0000
1010
0000
0000
0100
0010
0000
0100
0000
,
0001
0000
0000
0010
0001
0000
0001
0000
1000
0000
0000
0100
1000
0000
1000
0000
,
0010
0000
0100
0001
0100
0000
0010
1000
0010
0000
0100
0000
1001
0000
0000
0000
,
1100
1000
0100
0001
0100
0010
0010
0001
,
0011
0000
0010
0100
0010
0100
1000
0001
,
0100
0000
0101
0001
0000
1100
1000
0010
,
0100
0000
0001
0000
1000
0000
1001
0000
0001
0000
0000
0010
0001
0000
0100
0000
,
0101
0100
0010
1000
0010
1000
1000
0100
,
1100
0000
0010
0011
0001
0100
0001
1000
,
0010
0001
0010
1000
0100
0010
0110
0000
,
0001
0100
0001
1001
1100
0000
1000
0000
,
0110
0000
0000
0000
0000
0000
0000
0000
0100
0001
0100
0000
0001
0000
0010
0000
,
0000
0000
0100
0000
0000
0000
1000
0000
0100
1000
0100
0000
1000
0000
0010
0000
,
0100
0000
0100
0000
0001
0000
0000
0000
1000
1100
0000
0101
0001
0010
0110
0000
,
0000
0000
0100
0000
1000
0000
0100
0000
0010
0100
0010
0000
0001
0000
1001
0000
,
0000
0000
1000
0000
0000
0000
1000
0000
0010
1000
0010
0000
0100
0001
0100
0000
,
0000
0000
0001
0000
0000
0000
0001
0000
0010
0001
0010
0000
0100
1000
0100
0000
,
0000
1000
0000
0001
0010
0010
0100
0100
,
1000
0001
1000
0000
0001
0000
0000
0000
0000
0000
0000
0000
0010
0001
0010
0000
,
0110
0000
0100
0000
1000
0000
0010
0000
0000
1000
0010
0000
0100
0001
0100
0000
,
0010
0000
0100
0001
0000
1000
0100
0000
1100
0000
0001
0000
0101
0000
0000
0000
,
1001
0000
1000
0100
0000
1000
0010
0000
0100
0000
0001
1000
0000
0000
0100
0000
,
0110
0000
0010
0001
1000
0000
1001
0000
0001
0000
0100
0000
0001
0000
0100
0000
,
0001
0010
0000
1100
0000
0000
1000
0000
0010
0000
1000
0000
0001
0100
0001
0000
,
1000
0000
0010
1000
0000
0000
0001
0000
0011
0000
0000
0010
0100
0000
0100
0000
,
1000
0000
0010
1000
0001
0000
0010
0000
0100
0000
0010
0001
1000
0000
0010
0000
,
0100
0000
0001
1000
0000
0001
1000
0000
0010
0000
0100
0100
0010
0000
0000
0000
,
1001
0000
1000
0000
0010
0000
0100
0001
0000
0010
0001
0000
1000
0000
0010
0000
,
1010
0000
0001
0000
0100
0000
0001
1000
0001
0000
1000
0000
1000
0000
0100
0000
,
0110
0000
0010
0000
0001
0000
1000
0001
0000
1000
0001
0000
1000
0000
0010
0000
,
0100
0000
0101
0000
0000
0000
1100
0000
1000
0000
0010
1000
0010
0000
0100
0000
,
0110
0000
0010
0000
1000
0000
0001
0010
0000
0100
0010
0000
0100
0000
1000
0000
,
0010
0000
0100
0000
0101
0000
0001
1000
0001
0000
1000
0000
0100
1000
0100
0000
,
1000
0001
0100
0101
0000
0001
0010
0001
,
1001
1000
0100
0010
0100
0000
1001
0000
;

//--------------- dance-double - DOUBLE ----------------
#NOTES:
     dance-double:
     DOUBLE:
     Easy:
     3:
     0,0,0,0,0:
00000000
00000000
00000000
00000000
,
00000000
00000000
00000000
00000000
,
00001000
00100000
00010000
10000000
,
01000000
00100000
01100000
00000000
,
10000000
00000000
01000000
00000000
,
00010000
00001000
00010000
00001000
,
00100000
00001000
00010000
00000000
,
00000100
00001000
00000010
00000000
,
00000100
00000001
00000000
00000001
,
00001000
00000100
00001000
00000000
,
00000010
00000100
00000010
00000100
,
00001000
00010000
00001000
00000000
,
00100000
00010000
00100000
00000000
,
00001000
01000000
00010000
00000000
,
10000000
00100000
10000000
01000000
,
00100000
00001000
00010000
00011000
,
00010100
00000000
00001000
00000010
,
00001000
00000000
00000000
00000010
00000000
00000000
00000100
00000000
,
00000001
00000100
00001000
00000000
,
00010000
00001000
00010000
00000000
,
01001000
00000000
00010000
10000000
,
00010000
00000000
00000000
10000000
00000000
00000000
01000000
00000000
,
00100000
00001000
00100000
00000000
,
00001000
00010000
00001000
00011000
,
00100000
00000000
00001000
00010000
,
00000100
00000000
00001000
00000001
,
00000100
00000000
00000000
00000000
00000000
00000000
00000000
00000000
00000110
00000000
00000000
00001001
00000000
00000000
00000110
00000000
,
00000000
00000000
00010000
00011000
,
00001000
00000000
00000000
00000000
01000000
00000000
00010000
01000000
,
00000000
00000000
00000000
00000000
00100000
00000000
10000000
00100000
,
00000000
00000000
10000000
01000000
,
00010000
00001000
00010000
00000000
00000000
00000000
00001000
00000000
,
00011000
00010000
00000100
00000000
,
00000010
00000100
00000010
00000000
,
00000001
00000010
00000001
00000100
,
00001000
00010000
00001000
00000000
,
00011000
00001000
01000000
00000000
,
00100000
01000000
00100000
00000000
,
10000000
00100000
10000000
01000000
,
00010000
00001000
00010000
00011000
,
00101000
00000000
00100000
01000000
,
00100000
00000000
00000000
01000000
00000000
00000000
00100000
00000000
,
00010000
10000000
01000000
00010000
,
00000100
00010000
00001000
00011000
,
00010010
00000000
00000010
00000100
,
00000010
00000000
00000000
00000100
00000000
00000000
00000010
00000000
,
00001000
00000001
00000100
00001000
,
01000000
00001000
00010000
00011000
;
