#TITLE:西新宿清掃曲;
#SUBTITLE:;
#ARTIST:サイモンマン;
#TITLETRANSLIT:NISHI-SHINJUKU SEISOU KYOKU;
#SUBTITLETRANSLIT:;
#ARTISTTRANSLIT:Simonman;
#GENRE:Percussive;
#CREDIT:8Chasey;
#MUSIC:NISHI-SHINJUKU SEISOU KYOKU.mp3;
#BANNER:;
#BACKGROUND:;
#CDTITLE:;
#SAMPLESTART:0.000;
#SAMPLELENGTH:0.000;
#SELECTABLE:YES;
#OFFSET:-1.202;
#BPMS:0.000=140.000
,32.000=35.000
,36.000=140.000
,132.000=280.000
,184.000=70.000
,188.000=140.000
;
#STOPS:;
#DISPLAYBPM:140.000;
#BGCHANGES:;
#FGCHANGES:;

//--------------- dance-single - 8Chasey ----------------
#NOTES:
     dance-single:
     8Chasey:
     Beginner:
     2:
     0,0,0,0,0:
0000
0000
0000
0000
,
0010
0000
0000
0000
,
0100
0000
0000
0000
,
0010
0000
0000
0000
,
0100
0000
0000
0000
,
0001
0000
0001
0000
,
1000
0000
1000
0000
,
0001
0001
0001
0001
,
0001
0000
0000
0000
,
0000
0000
0000
0000
,
0100
0100
0100
0000
,
0001
0001
0001
0000
,
1000
1000
1000
0000
,
0010
0010
0010
0000
,
0100
0100
0100
0000
,
0001
0001
0001
0000
,
1000
0000
1000
0000
,
1000
1000
1000
0000
,
0010
0000
0010
0000
,
0100
0000
0100
0000
,
0010
0000
1000
0000
,
0001
0000
0100
0000
,
0001
0001
0001
0000
,
1000
1000
1000
0000
,
0001
0001
0001
0001
,
0001
0001
0001
0000
,
0100
0100
0100
0000
,
0001
0001
0001
0000
,
1000
1000
1000
0000
,
0010
0010
0000
1001
,
0000
0110
0000
1001
,
0000
0110
0000
1001
,
1001
1001
1001
1001
,
0000
0000
0000
0000
,
0000
0000
0000
0000
,
0000
0000
0000
0000
,
0000
0000
0000
0000
,
0000
0000
0000
0000
,
0000
0000
0000
0000
,
0000
0000
0000
0000
,
0000
0000
0000
0000
,
0000
0000
0000
0000
,
0000
0000
0000
0000
,
0000
0000
0000
0000
,
0000
0000
0000
0000
,
0000
0000
0000
0000
,
0000
0000
0000
0000
,
1001
1001
1001
1001
,
0000
0001
0000
0100
,
0000
1000
1000
0000
,
0010
0000
0001
0000
,
0100
0100
0000
0001
,
0000
1000
0000
0010
,
0010
0000
0100
0000
,
0010
0010
0010
0010
,
0000
1000
0000
0010
,
0000
0100
0100
0000
,
0001
0000
0100
0000
,
0001
0001
0000
1000
,
0000
0001
0000
1000
,
1000
1000
1000
1000
,
1000
1000
1000
1000
;

//--------------- dance-single - 8Chasey ----------------
#NOTES:
     dance-single:
     8Chasey:
     Easy:
     4:
     0,0,0,0,0:
0000
0000
0000
0000
,
0001
0100
0001
0000
,
1000
0010
1000
0001
,
1000
0100
1000
0000
,
0001
0010
0001
1000
,
1001
0000
1100
0000
,
1001
0000
0101
0000
,
0100
0100
0010
0010
,
0100
0000
0000
0000
,
0000
0000
0000
0000
,
0010
0010
0100
0000
,
0010
0010
0100
0000
,
0001
1000
0001
0000
,
1000
0001
1000
0000
,
0001
0001
1001
0000
,
1000
1000
1001
0000
,
0110
0000
0110
0000
,
0010
0100
0010
0000
,
0001
0001
0100
0000
,
1000
1000
0100
0010
,
0001
0001
0010
0000
,
1000
1000
0010
0100
,
0001
1000
0001
0000
,
1000
0001
1000
0000
,
0100
0110
0010
0110
,
0001
1000
1001
0000
,
0001
0001
0100
0000
,
1000
1000
0010
0000
,
1000
1000
0100
0000
,
0001
0001
0010
0100
,
0001
0100
1000
0100
,
0010
0100
0010
0100
,
0110
0110
0110
0110
,
2002
0000
0000
0000
,
0000
0000
0000
0000
,
0000
0000
0000
0000
,
0000
0000
0000
0000
,
0000
0000
0000
0000
,
0000
0000
0000
0000
,
0000
0000
0000
0000
,
0000
0000
0000
0000
,
0000
0000
0000
0000
,
0000
0000
0000
0000
,
0000
0000
0000
0000
,
0000
0000
0000
0000
,
0000
0000
0000
0000
,
3003
0000
0000
0000
,
1001
1001
1001
0001
,
1000
0001
0000
1000
,
1000
1000
1000
0001
,
1000
0000
0001
0001
,
0001
0010
0100
0010
,
0000
0100
0100
0100
,
1100
0000
0101
0000
,
0110
0110
1001
0001
,
0001
0001
0000
1000
,
1000
1000
0010
0010
,
0010
0000
0100
0100
,
0100
0001
1000
0001
,
0000
1000
0001
1000
,
1010
1000
0011
0001
,
1000
0001
0100
1001
;

//--------------- dance-single - 8Chasey ----------------
#NOTES:
     dance-single:
     8Chasey:
     Medium:
     5:
     0,0,0,0,0:
0000
0000
0000
0000
,
0001
0000
0000
0001
0000
0000
0100
0000
0001
0000
0000
0000
0000
0000
0000
0000
,
1000
0000
0000
1000
0000
0000
0100
0000
1000
0000
0000
0000
0000
0000
0000
0000
,
0010
0000
0000
1000
0000
0000
0001
0000
0100
0000
0000
0000
0000
0000
0000
0000
,
0010
0000
0000
0001
0000
0000
1000
0000
0100
0000
0000
0000
0000
0000
0000
0000
,
1000
0000
0000
0010
0000
0000
1000
0000
0001
0000
0000
0000
0000
0000
0000
0000
,
0001
0000
0000
0010
0000
0000
0001
0000
1000
0000
0000
0000
0000
0000
0000
0000
,
1100
1100
0101
0101
,
0200
0000
0000
0300
,
0000
0000
0000
0000
,
0010
0010
1001
0000
,
0100
0100
1001
0000
,
0010
0010
0011
0000
,
0010
0010
1010
0000
,
0100
0100
0101
0000
,
0100
0100
1100
0000
,
1010
0000
0011
0000
,
1010
0011
1001
0000
,
1000
0000
0000
0010
0000
0000
1000
0000
0100
0000
0000
0000
0000
0000
0000
0000
,
0001
0000
0000
0010
0000
0000
0001
0000
0100
0000
0000
0000
0000
0000
0000
0000
,
0001
0000
0000
1000
0000
0000
0100
0000
0010
0000
0000
0000
0000
0000
0000
0000
,
1000
0000
0000
0001
0000
0000
0010
0000
0100
0000
0000
0000
0000
0000
0000
0000
,
1000
0000
0000
1000
0000
0000
0010
0000
1000
0000
0000
0000
0000
0000
0000
0000
,
0001
0000
0000
0001
0000
0000
0100
0000
0001
0000
0000
0000
0000
0000
0000
0000
,
1000
0011
0001
1010
,
1001
0110
1001
0000
,
0001
0010
0001
0000
,
1000
0010
1000
0000
,
0001
1000
0001
0000
,
1000
0001
1000
0000
,
1100
1000
0010
0000
,
0101
0001
0010
0000
,
1001
0110
1001
0110
,
2000
0000
0000
0000
,
3002
0000
0000
0000
,
2003
0000
0000
0000
,
3002
0000
0000
0000
,
0023
0000
0000
0000
,
0230
0000
0000
0000
,
2300
0000
0000
0000
,
3002
0000
0000
0000
,
0203
0000
0000
0000
,
0320
0000
0000
0000
,
2030
0000
0000
0000
,
3002
0000
0000
0000
,
0203
0000
0000
0000
,
0310
0000
0000
0000
,
1001
1001
1001
1000
,
0100
1000
0000
0001
,
0100
0001
1000
0010
,
1000
0000
0001
0010
,
0001
1100
0010
1000
,
0000
0101
0001
0010
,
0001
0001
1000
1000
,
0110
0000
0000
0000
0001
0000
0000
0000
1000
0000
0000
0000
0001
0000
0000
0001
,
0000
0000
0001
0000
0100
0000
0000
0000
0000
0000
0000
0000
1000
0000
0000
1000
,
0000
0000
1000
0000
0010
0000
0000
0000
1000
0000
0000
1000
0000
0000
1000
0000
,
0100
0000
0000
0000
0000
0000
0000
0000
0001
0000
0000
0001
0000
0000
0001
0000
,
0010
0000
0000
0000
0001
0000
0000
1000
0000
0000
0001
0000
1000
0000
0000
0000
,
0000
0000
0000
0000
1000
0000
0000
0001
0000
0000
1000
0000
0001
0000
0000
0000
,
1010
1010
0011
0011
,
1010
0011
0100
1001
;

//--------------- dance-single - 8Chasey ----------------
#NOTES:
     dance-single:
     8Chasey:
     Hard:
     8:
     0,0,0,0,0:
0000
0000
0000
0000
,
0001
0000
0000
0001
0000
0000
0100
0000
0001
0000
0010
0000
0100
0000
0000
0000
,
1000
0000
0000
1000
0000
0000
0100
0000
1000
0000
0002
0000
2000
0000
3003
0000
,
0001
0000
0000
0010
0000
0000
0001
0000
1000
0000
0100
0000
0010
0000
0100
0000
,
1000
0000
0000
0100
0000
0000
1000
0000
0001
0000
1000
0000
0001
0000
0010
0000
,
0011
0000
0000
0001
0000
0000
1000
0000
1010
0000
0000
0000
1001
0000
0000
0000
,
1100
0000
0000
1000
0000
0000
0001
0000
0101
0000
0000
0000
1001
0000
0000
0000
,
0001
0010
0001
1000
0100
1000
0010
0100
,
0020
0000
0000
0030
,
0000
0000
0000
0000
,
0101
0000
0011
0000
1000
0001
1000
0000
,
1100
0000
1010
0000
0001
1000
0001
0000
,
0101
0000
0110
0000
1000
0010
1000
0000
,
1100
0000
0110
0000
0001
0010
0001
0000
,
0011
0000
1001
0000
0100
0001
1000
0010
,
1010
0000
1001
0000
0100
1000
0001
0010
,
0100
1000
1100
0000
0010
0001
0011
0000
,
0110
0001
1000
0010
1000
0000
0102
0000
,
1003
0000
0000
0100
1000
0000
0001
0000
1000
0000
0001
0000
0020
0000
0000
0000
,
0031
0000
0000
0100
0001
0000
1000
0000
0001
0000
0100
0000
0200
0000
0000
0000
,
0310
0000
0000
1000
0010
0000
0100
0000
0010
0000
1000
0000
0002
0000
0000
0000
,
0103
0000
0000
0001
0100
0000
0010
0000
0100
0000
0001
0000
2000
0000
0000
0000
,
3100
0000
0000
1000
0001
0000
0100
0000
0010
0000
1000
0000
0020
0000
0000
0000
,
0130
0000
0000
0001
1000
0000
0100
0000
0010
0000
0001
0000
0020
0000
0000
0000
,
0130
1000
1001
0000
0001
0010
0110
0000
,
1100
0000
0011
0000
0001
2000
0002
3000
,
0100
0000
0010
0000
0103
0010
1000
0100
,
2100
0000
0000
0000
0010
0000
0000
0000
3100
0000
0000
1000
0001
0000
0020
0000
,
0001
0000
0000
0000
0031
0000
0010
0000
0100
0000
0000
0100
1000
0000
0020
0000
,
1000
0000
0000
0000
1030
0000
0010
0000
0100
0000
0000
0001
0100
0000
0000
0000
,
0001
1000
1100
0000
1000
0001
0011
0000
,
0010
0001
0101
0000
0010
1000
1100
0000
,
0002
0010
2003
0100
3002
0100
2003
0010
,
3200
0000
0000
0000
,
2300
0000
3002
0000
,
0203
0000
0000
0000
,
0320
0000
0230
0000
,
0320
0000
0000
0000
,
0032
0000
0023
0000
,
2030
0000
3020
0000
,
0230
0000
0302
0000
,
2003
0000
3200
0000
,
0320
0000
0230
0000
,
0320
0000
0230
0000
,
0320
0000
0200
0000
,
0000
0000
0330
0000
,
2002
0000
0000
3003
,
1001
0000
0000
0000
1001
0000
0000
1000
0002
0000
0000
0000
0013
0000
0001
0000
,
0100
0001
1001
0000
1100
0000
0010
1000
,
0100
0010
0200
0000
0310
0100
1000
0010
,
1010
0000
1001
0000
0100
0001
1000
0100
,
0020
0000
0031
0100
0001
1000
1100
0000
,
0110
0000
1000
0100
1000
0001
0011
0000
,
0002
0100
0103
0000
0020
1000
1030
0000
,
0001
0000
0010
0000
1000
0000
0010
0000
0200
0000
0000
0000
0310
0000
0000
0001
,
0000
0000
0100
0000
0001
0000
1000
0000
0100
0000
1000
0000
0010
0000
0000
1000
,
0000
0000
0100
0000
2000
0000
0000
0000
3001
0000
0000
0100
0000
0000
0001
0000
,
1000
0000
0100
0000
0010
0000
0100
0000
1000
0000
0000
0100
0000
0000
1000
0000
,
0002
0000
0000
0000
0013
0000
0000
0001
0010
0000
0001
0000
1000
0000
0000
0000
,
0100
0000
1000
0000
0010
0000
0000
1000
0010
0000
1000
0000
0002
0000
0000
0000
,
0103
0010
1010
0000
0100
0001
0011
0000
,
0001
0000
0100
0000
0010
0000
1000
0000
0200
0000
0300
0000
2002
0000
0000
3003
;

//--------------- dance-single - Vivaldi ----------------
#NOTES:
     dance-single:
     Vivaldi:
     Challenge:
     9:
     0,0,0,0,0:
0000
0000
0000
0000
,
0100
0000
0000
1000
0000
0000
0010
0000
0001
0000
0000
0000
0101
0000
0000
0000
,
0100
0000
0000
0001
0000
0000
0001
0000
1000
0000
0002
0000
1003
0000
0000
0000
,
0100
0000
0000
1000
0000
0000
0010
0000
1000
0000
1020
0000
1030
0000
0000
0000
,
0100
0000
0000
0001
0000
0000
0100
0000
0100
0000
0001
0010
0001
0000
0000
0000
,
0100
0000
1000
0100
0001
0000
0001
0100
,
1000
0000
1000
0100
0001
0000
0001
0100
,
1000
0100
0001
0100
1000
0010
0001
0010
,
2020
0000
3030
2000
,
3100
0000
0100
0000
0100
0000
0000
0000
0001
0000
0000
0001
0100
0000
0100
0000
,
0100
1000
1010
0000
0100
0020
0031
0000
,
1000
0000
1000
0000
1010
0000
0000
0000
0100
0000
0010
0001
0010
0000
0100
0000
,
1000
0010
1010
0000
0100
0002
0100
0000
,
1000
1003
1000
0000
1010
0000
0100
1000
,
0010
1000
0020
0000
1030
2000
0100
3000
,
0010
0000
0010
0000
0100
0000
0000
0000
0100
0000
0100
1000
0100
0000
1010
0000
,
0100
0002
0100
0103
1000
2000
0100
0100
,
3010
0100
0101
0100
1010
1000
0100
0000
,
0001
0000
0000
0001
0000
0000
0100
0000
1000
0000
0000
0000
1010
0000
0000
0000
,
1000
0000
0000
0100
0000
0000
1000
0000
1000
0000
1010
0000
1010
0000
0000
0000
,
0100
0000
0000
0001
0000
0000
0100
0000
0001
0000
0002
0000
0103
0000
0000
0000
,
0001
0000
0000
1000
0000
0000
0010
0000
1000
0000
0001
1000
0001
0000
0000
0000
,
0010
0100
0010
0100
0000
0000
0100
0000
1000
0000
2000
0000
3010
0000
0000
0000
,
1000
0100
1000
0100
0000
0000
1000
0000
1010
0000
0010
0000
0200
0000
0000
0000
,
0001
0300
0100
0000
0002
0000
0103
0000
,
0200
0301
0002
0103
,
0001
0100
1000
0000
1100
0000
2000
3000
,
0100
0001
0001
0000
0101
0000
0011
0000
,
0001
0100
1000
0000
1100
0000
0100
0000
,
1000
0010
0001
0000
0011
0000
0001
0100
,
1000
0010
1010
0000
0100
0001
0101
0000
,
0100
1000
1100
0000
0001
0001
0101
0000
,
0001
0101
0101
0001
0101
0001
0101
0001
,
0001
0100
0001
0100
0001
0100
0001
0000
,
1000
0100
1000
0100
0000
0000
1000
0000
,
0100
0000
1000
0000
1000
0100
1000
0010
,
1000
0100
1000
0000
0000
0000
0001
0000
,
1000
0000
1000
0010
1000
0010
0000
0000
,
0100
0000
0100
0000
1000
0100
1000
0100
,
1000
0100
1000
0100
1000
0000
0010
0000
,
1000
0000
1000
0000
1000
0100
1000
0100
,
0001
0000
1000
0001
1000
0100
0001
0000
,
1000
0100
1000
0100
0001
0000
1000
0010
,
1000
0001
0000
0000
1000
0100
1000
0010
,
1000
1000
0020
0000
,
0000
0000
0000
0000
,
0000
2000
0000
0000
0000
0000
0000
0000
0000
3030
0000
0000
0000
0000
0000
0000
,
1000
0000
0100
0000
0001
0000
0100
1000
,
0010
0000
1010
0200
0301
0001
0100
0001
,
0101
0000
0100
0000
1010
0010
1010
0000
,
1000
0000
0000
0000
0200
0000
0000
0000
0001
0000
0001
0000
0001
0300
0000
0000
,
0100
0000
0100
1000
0010
0000
1010
0200
,
0310
0001
0100
0001
0101
0000
0101
0000
,
0100
1000
1010
0000
0100
0001
0011
0000
,
1100
0000
0001
0000
1001
0000
0000
0000
0101
0000
0000
0000
0001
0000
0000
0001
,
0000
0000
0100
0000
0100
0000
0200
0000
1300
0000
0000
0000
0010
0000
0000
1000
,
0000
0000
0010
0000
1000
0000
1010
0000
1010
0000
0000
0100
0000
0000
0001
0000
,
0100
0000
0010
0000
0010
0000
0000
0000
0100
0000
0000
1000
0000
0000
0100
0000
,
1000
0000
1000
0000
1100
0000
0000
0001
0000
0000
0100
0000
0101
0000
0000
0000
,
0100
0000
0000
0000
1000
0000
0000
0010
0000
0000
1000
0000
1010
0000
0000
0000
,
0001
0010
1010
0000
0001
0100
0100
0000
,
0001
0100
0101
0100
0001
0100
0101
0000
;

//--------------- dance-single - Stupidly Hard ----------------
#NOTES:
     dance-single:
     Stupidly Hard:
     Edit:
     14:
     0,0,0,0,0:
0000
0000
0000
0000
,
1001
0000
0000
0001
0000
0000
0010
0000
0001
0000
0000
0000
1100
0000
0000
0000
,
0110
0000
0000
1000
0000
0000
0010
0000
1000
0000
0101
0000
0101
0000
0000
0000
,
1100
0000
0000
1000
0001
0000
0010
0000
0100
0000
0110
0000
0011
0000
0000
0000
,
0101
0000
0001
1000
0000
0100
1000
0000
0110
0000
1000
0001
0010
0000
1001
0000
,
1100
0000
0000
0010
1000
0000
0001
0000
0101
0000
0010
0000
0010
0000
0000
0000
,
1100
0000
0000
0010
1000
0000
0001
0000
0101
0000
1000
0000
0001
0000
0000
0000
,
1100
0000
0001
0100
0101
0000
0010
1000
0110
0000
1000
0100
1001
0000
0010
2002
,
0000
0000
0000
0000
0000
0000
0000
0000
0000
0000
0000
0000
0000
0000
0000
3003
,
1010
0000
0001
0000
1010
0000
0000
0000
0100
0000
0000
0001
1000
0000
0110
0000
,
1100
0000
0001
0000
0110
0000
0001
0000
0011
0000
1000
0001
0110
0000
0000
0000
,
0011
0000
1000
0000
0110
0000
1000
0000
1100
0000
0000
1000
0110
0000
0000
0000
,
0011
0000
1000
0000
0110
0000
1000
0000
1100
0000
0010
1000
0101
0000
0000
0000
,
1100
0010
0110
0001
0011
1100
0220
0330
,
1001
0000
0010
0000
1100
0000
0001
0000
0101
0000
1000
0010
0210
0000
0301
0000
,
0011
0000
1000
0010
1100
0000
0010
0000
1001
0000
0000
1000
0022
0000
0000
0033
,
1100
0000
0010
1000
0001
0000
0100
0000
0101
0000
1000
0001
0001
0000
0010
0000
,
1100
0000
0010
1000
0101
0000
1000
0100
0110
0000
1100
0000
0202
0000
0000
0303
,
0010
0000
1000
0010
0110
0000
0001
0000
1100
0000
0110
0000
2001
0000
0000
0000
,
3010
0000
0100
1000
0011
0000
0100
0000
1010
0000
1001
0000
0201
0000
0000
0000
,
1300
0000
0010
1000
0001
0000
0110
0000
0101
0000
1000
0010
2200
0000
0000
3300
,
0011
0000
0100
0010
1100
0000
0101
0000
0110
1000
0011
0000
2200
0000
0000
3300
,
0010
0000
1000
0001
1100
0000
1001
0000
1010
0100
0011
0000
2100
0000
0002
0000
,
3103
0000
0010
1000
0011
0000
0100
0000
1001
0000
1010
0100
0011
0000
1010
0000
,
1100
0000
0001
0010
1001
0000
0100
0000
0101
0000
1000
0010
1100
0000
0010
0000
,
1001
0000
1000
0010
1100
0000
0001
1000
0101
0000
1010
0000
0021
0000
0000
0000
,
0130
0000
1000
0010
1010
0000
1100
0000
0011
0000
0000
1000
0201
0000
0000
0000
,
1300
0000
0010
1000
0011
0000
1000
0000
0110
0000
0000
2000
0102
0000
0010
3003
,
0101
0000
0010
0001
1010
0000
0100
1000
0011
0000
0000
1100
0210
0000
1300
0000
,
0011
1000
0100
0000
1010
0100
0110
0000
1001
0000
0001
0110
2200
0000
3001
0000
,
1310
0000
1000
0001
0110
0000
1000
0000
0011
0000
1000
0100
0110
0000
1000
1000
,
1010
0000
0100
0001
1010
0000
0101
0000
0011
0000
1000
0001
1100
0000
0001
1000
,
1010
0100
0001
0010
0011
0100
1000
0010
1100
0010
1000
0001
0101
0010
0001
1000
,
0011
1000
0110
0001
0100
0001
1000
1100
,
0010
1000
0011
0100
0010
1000
0110
0001
,
0100
1000
0011
1000
0010
0100
1000
0010
,
0001
1000
0100
0010
1000
0001
0100
0010
,
1000
0001
0100
0010
1000
0001
0100
0010
,
1000
0001
0100
0010
1000
0001
0100
0010
,
1000
0001
0100
0010
1000
0001
0100
0010
,
1000
0001
0100
0010
1000
0001
0100
0010
,
2000
3002
0203
0320
2030
3002
0203
0320
,
2030
3002
0203
0320
2030
3002
0203
0320
,
2030
0000
0002
3000
0200
0003
0020
0300
2000
0030
0002
3000
0200
0003
0020
0300
,
2000
0000
0030
0000
0002
0000
0000
3000
0200
0000
0000
0003
0020
0000
0000
0300
2000
0000
0000
0030
0002
0000
0000
3000
0200
0000
0000
0003
0020
0000
0000
0300
,
2000
0000
0000
0030
0002
0000
0000
3000
0200
0000
0000
0003
0020
0000
0000
0300
2000
0000
0000
0030
0002
0000
0000
3000
0103
0000
0000
0000
0010
0000
1000
0000
,
0202
0000
0000
0000
0000
0000
0000
0000
0000
0000
0000
0000
0000
0000
0000
0000
0000
0000
0000
0000
0000
0000
0000
0000
0000
0000
0000
0000
0000
0000
0000
0000
0000
0000
0000
0000
0000
0000
0000
0000
0000
0000
0000
0000
0000
0000
0000
0000
0000
0000
0000
0000
0000
0000
0000
0000
0000
0000
0000
0000
0000
0000
0000
0000
0000
0000
0000
0000
0000
0000
0000
0000
0000
0000
0000
0000
0000
0000
0000
0000
0000
0000
0000
0000
0000
0000
0000
0000
0000
0000
0000
0000
0000
0000
0000
0000
0000
0000
0000
0000
0000
0000
0000
0000
0000
0000
0000
0000
0000
0000
0000
0000
0000
0000
0000
0000
0000
0000
0000
0000
0000
0000
0000
0000
0000
0000
0000
0000
0000
0000
0000
0000
0000
0000
0000
0000
0000
0000
0000
0000
0000
0000
0000
0000
0000
0000
0000
0000
0000
0000
0000
0000
0000
0000
0000
0000
0000
0000
0000
0000
0000
0000
0000
0000
0000
0000
0000
0000
0000
0000
0000
0000
0000
0000
0000
0000
0000
0000
0000
0000
0000
0000
0000
0000
0000
0000
0000
0000
0000
0000
0000
0303
,
0101
0000
0000
0000
0000
0000
0000
0000
0000
0001
0000
0000
1100
0000
0000
0000
0000
0000
0000
0000
0000
0010
0000
0000
0110
0000
1000
0000
0010
0000
0100
0000
0001
0000
1000
0000
1001
0000
0000
0000
0000
0000
1000
0000
0000
0010
0000
0000
,
0110
0000
0101
0000
1100
0010
0001
0000
2001
0000
0000
3000
0110
0000
0100
0001
,
1010
0000
1000
0000
0012
0100
1000
0000
1013
0000
1000
0010
1001
0000
0001
0000
,
1100
0000
0000
0000
0001
0010
0001
0000
2020
0000
0000
0000
0000
0000
3030
0000
0110
0000
0000
0000
0100
0000
0001
0000
1010
0000
0000
0000
0100
0000
0000
0000
,
2100
0010
0001
0000
3110
0000
0001
0100
1010
0000
1000
0001
0120
0000
0031
1000
,
0210
0000
1000
0000
0310
0000
1000
0001
1100
0000
0010
0100
0120
0000
1000
0000
,
0131
0000
0000
0000
0001
0010
0001
0000
2200
0000
0000
0000
3300
0000
0000
0000
1100
0000
0000
0000
1000
0010
1000
0000
0202
0000
0000
0000
0303
0000
0000
0000
,
0011
0000
0000
0000
0000
0000
0000
0000
0000
0000
0000
0000
0001
0000
0000
0010
0000
0000
0001
0000
0000
0000
0000
0000
1010
0000
0000
0000
0000
0000
0000
0000
0000
0000
0000
0000
1000
0000
0000
0000
0000
0000
0000
0000
0000
0000
0000
0000
0100
0000
0000
0000
1000
0000
0000
0000
0001
0000
0000
0000
0100
0000
0000
0000
0010
0000
0000
0000
1000
0000
0000
0000
0202
0000
0000
0000
0000
0000
0000
0000
0000
0000
0000
0000
0000
0000
0000
0000
0000
0000
1300
0000
0000
0000
0000
0000
,
1003
0000
0100
1000
0011
0000
1100
0010
1010
0000
0001
0000
0110
0000
1000
0001
,
1100
0000
0010
0000
0101
1000
0110
1000
0012
0000
0103
0001
0110
0000
1000
0000
,
0101
0000
0000
0000
1000
0100
1000
0000
0021
0000
0000
0000
0100
0000
0000
0030
1000
0000
0000
0000
0100
0000
1000
0000
0011
0000
0000
0000
0100
0000
0000
0000
,
1002
0010
1000
0203
0010
0000
1300
0010
1001
0000
0101
0000
1010
0100
1100
0000
,
0021
0000
1000
0000
1130
0000
1000
0010
1100
0000
0011
0100
1001
0000
0021
0000
,
1031
0000
0000
0000
0001
0010
0001
0000
0101
0000
0000
0000
0001
0000
1000
0000
1010
0000
0000
0000
1000
0010
1000
0000
0110
0000
0000
0000
0001
0000
0010
0000
,
1100
0000
0000
0000
0001
1000
0100
0000
1010
0000
0000
0000
1001
0000
0000
0000
0011
0000
0100
0000
1100
0000
0000
0000
2222
0000
0000
0000
0000
0000
3333
0000
;
