#TITLE:Monsters;
#SUBTITLE:;
#ARTIST:Matchbook Romance;
#TITLETRANSLIT:;
#SUBTITLETRANSLIT:;
#ARTISTTRANSLIT:;
#GENRE:Rock;
#CREDIT:8Chasey 2025;
#MUSIC:Monsters.ogg;
#BANNER:;
#BACKGROUND:;
#CDTITLE:;
#SAMPLESTART:33.480;
#SAMPLELENGTH:12.000;
#SELECTABLE:YES;
#OFFSET:-0.089;
#BPMS:0.000=113.500
,16.000=113.900
,18.000=115.000
,22.000=115.500
,32.000=236.000
,34.000=232.000
,40.000=231.000
,96.000=116.000
,112.000=232.000
,128.000=225.000
,132.000=232.000
,134.000=230.000
,147.000=228.000
,160.000=229.000
,200.000=228.000
,208.000=115.000
,224.000=230.200
,236.000=230.500
,240.000=232.000
,256.000=231.000
,272.000=231.200
,276.000=230.200
,288.000=116.400
,299.000=117.000
,302.000=115.000
,303.000=117.000
,304.000=232.000
,318.000=226.000
,321.000=227.000
,326.000=228.000
,328.000=229.000
,348.000=230.000
,376.000=229.000
,383.000=227.000
,408.000=228.000
,416.000=230.000
,428.000=114.000
,442.000=112.000
,445.000=114.000
,456.000=113.000
,461.000=226.000
,466.000=224.000
,468.000=226.000
,469.000=227.000
,471.000=230.000
,477.000=228.000
,499.000=229.000
,511.000=227.000
,525.000=113.000
,527.000=115.000
,529.000=113.000
,533.000=111.000
,536.000=113.000
,540.000=115.000
,543.000=113.000
,549.000=226.000
,581.000=111.000
,582.000=112.000
,586.000=113.000
,589.000=229.000
,590.000=231.000
,620.000=229.000
,640.000=230.000
,652.000=231.000
,665.000=232.000
,679.000=230.000
,689.000=231.000
,711.000=229.000
,713.000=185.000
,715.000=182.000
,716.000=140.000
,717.000=138.000
,718.000=132.000
,719.000=122.000
,720.000=116.000
,721.000=100.000
,722.000=98.000
,723.000=96.000
,724.000=94.000
;
#STOPS:428.000=1.043;
#DISPLAYBPM:115.000:231.000;
#BGCHANGES:;
#FGCHANGES:;

//--------------- dance-single - 8Chasey ----------------
#NOTES:
     dance-single:
     8Chasey:
     Beginner:
     3:
     0,0,0,0,0:
0000
0000
0000
0000
,
0000
0000
0000
0000
,
0000
0000
0000
0000
,
0000
0000
0000
0000
,
0001
0000
0000
0000
,
1000
0000
0001
0000
,
1000
0000
0000
0000
,
0001
0000
1000
0000
,
0010
0000
0010
0000
,
0010
0000
0000
0000
,
0100
0000
0000
0000
,
0010
0000
0010
0000
,
0100
0000
0000
0000
,
0100
0000
0100
0000
,
0100
0000
0000
0000
,
0010
0000
0010
0000
,
1000
0000
0000
0000
,
0001
0000
1000
0000
,
0001
0000
0000
0000
,
1000
0000
1000
0000
,
0001
0000
0000
0000
,
1000
0000
0001
0000
,
1000
0000
0000
0000
,
0001
0000
0001
0000
,
0001
0000
0000
0000
,
0100
0000
0000
0000
,
0010
0000
0000
0000
,
1000
0000
0000
0000
,
0001
0000
0001
0000
,
0000
0000
0100
0000
,
0100
0000
0100
0000
,
0000
0000
0010
0000
,
0010
0000
0010
0000
,
0000
0000
1000
0000
,
0000
0000
0001
0000
,
0000
0000
1000
0000
,
0001
0000
0000
0000
,
0001
0000
0000
0000
,
1000
0000
0001
0000
,
1000
0000
0001
0000
,
1000
0000
1000
0000
,
0000
0000
0010
0000
,
0010
0000
0010
0000
,
0000
0000
0100
0000
,
0100
0000
0100
0000
,
0000
0000
0001
0000
,
0000
0000
1000
0000
,
0000
0000
0001
0000
,
1000
0000
0000
0000
,
1000
0000
0000
0000
,
0001
0000
1000
0000
,
0001
0000
1000
0000
,
0001
0000
0000
0000
,
1000
0000
0000
0000
,
0010
0000
0000
0000
,
0100
0000
1001
0000
,
1000
0000
0000
0000
,
1000
0000
0000
0000
,
0001
0000
0000
0000
,
0001
0000
0000
0000
,
0100
0000
0000
0000
,
0010
0000
0000
0000
,
0100
0000
0010
0000
,
0100
0000
0000
0000
,
0001
0000
0000
0000
,
0001
0000
0000
0000
,
1000
0000
0000
0000
,
1000
0000
0000
0000
,
0010
0000
0000
0000
,
0100
0000
0000
0000
,
0110
0000
0000
0000
,
0000
0000
0000
0000
,
1000
0000
0000
0000
,
0010
0000
0000
0000
,
0100
0000
0000
0000
,
0001
0000
0001
0000
,
1000
0000
1000
0000
,
0000
0000
0010
0000
,
0100
0000
0100
0000
,
0000
0000
0100
0000
,
0010
0000
0010
0000
,
0000
0000
0100
0000
,
0000
0000
0010
0000
,
0000
0000
1000
0000
,
1000
0000
0000
0000
,
0001
0000
0001
0000
,
0000
0000
1000
0000
,
0001
0000
1000
0000
,
0001
0000
0001
0000
,
0000
0000
0100
0000
,
0010
0000
0010
0000
,
0000
0000
0010
0000
,
0100
0000
0100
0000
,
0000
0000
0010
0000
,
0000
0000
0100
0000
,
0000
0000
0001
0000
,
0001
0000
0000
0000
,
1000
0000
1000
0000
,
0000
0000
0001
0000
,
1000
0000
0001
0000
,
0000
1000
0000
1000
,
0000
1000
0000
1000
,
0000
0001
0000
0001
,
0000
0001
0000
0001
,
0000
0100
0000
0100
,
0000
0010
0000
0010
,
0000
0000
0000
0000
,
1001
0001
0000
0000
,
0000
1000
0000
0000
,
0000
0100
0000
0000
,
0000
1000
0000
0001
,
0000
0100
0000
0000
,
0000
0010
0000
0000
,
0000
0100
0000
0000
,
0000
0001
0000
1000
,
0000
0001
0000
0000
,
0000
0001
0000
0001
,
0000
1000
0000
0000
,
0000
1000
0000
1000
,
0000
0010
0000
0000
,
0000
0010
0000
0010
,
0000
0100
0000
0000
,
0000
0100
0000
0100
,
0000
0001
0000
0000
,
0000
1000
0000
0001
,
0000
1000
0000
0000
,
0000
0001
0000
1000
,
0000
0010
0000
0010
,
0000
0100
0000
0100
,
0000
0010
0000
0000
,
0000
0100
0000
0000
,
0000
1001
0000
0001
,
0000
0100
0100
0100
,
0000
0001
0000
1000
,
0000
0010
0010
0010
,
0000
1000
0000
0001
,
0000
0100
0000
0010
,
0000
1000
0000
1000
,
0000
0001
0000
0001
,
0000
1000
0000
1000
,
0000
0001
0000
0001
,
0000
1000
0000
1000
,
0000
0001
0000
0001
,
0000
1001
0000
0000
,
0000
0110
0000
0000
,
0000
0010
0000
0100
,
0000
0010
0000
0100
,
0000
0010
0000
0010
,
0000
0000
0000
1000
,
0000
1000
0000
1000
,
0000
0000
0000
0001
,
0000
0001
0000
0001
,
0000
0000
0000
0100
,
0000
0010
0000
0000
,
0000
0010
0000
0100
,
0000
0010
0000
0000
,
0000
0100
0000
0000
,
0000
0001
0000
1000
,
0000
0001
0000
0001
,
0000
0100
0000
0100
,
0000
0000
0000
0001
,
0000
0001
0000
0001
,
0000
0000
0000
1000
,
0000
1000
0000
1000
,
0000
0000
0000
0010
,
0000
0100
0000
0000
,
0000
0100
0000
0010
,
0000
0100
0000
0000
,
0000
0010
0000
0000
,
0000
1000
0000
0001
,
0000
1000
0000
1000
,
0000
0001
0000
1000
,
0000
0000
0000
0001
,
0000
1000
0000
0001
,
0000
0000
0000
1000
,
0000
0010
0000
0100
,
0000
0000
0000
0001
,
0000
0100
0000
0010
,
0000
0100
0100
0100
,
0000
0100
0000
0000
,
0000
0000
0010
0000
,
0000
0000
0000
2002
,
0000
0000
0000
0000
,
0000
0000
0000
0000
,
0000
0000
0000
3003
;

//--------------- dance-single - 8Chasey ----------------
#NOTES:
     dance-single:
     8Chasey:
     Easy:
     6:
     0,0,0,0,0:
0000
0000
0000
0000
,
0000
0000
0000
0000
,
0000
0000
0000
0000
,
0000
0000
0000
0000
,
0002
0000
1003
0000
,
0001
0100
0001
0001
,
2000
0000
3001
0000
,
1000
0010
1000
1000
,
0001
0000
0010
0000
,
0001
0000
1000
0001
,
1000
0000
0010
0000
,
1000
0000
0001
0100
,
0001
0000
0100
0000
,
0010
0000
1000
0100
,
1000
0000
0001
0000
,
0100
0001
0100
0000
,
0001
0000
0010
0000
,
0100
1000
0100
0000
,
1000
0000
0010
0000
,
0100
0010
0100
0000
,
0002
0000
0100
0000
,
0103
0000
0010
0000
,
2000
0000
0100
0000
,
3100
0000
0010
0000
,
0002
0000
0103
0001
,
2000
0000
3010
1000
,
0200
0000
0310
0100
,
0020
0000
0130
0110
,
0020
0000
0031
0000
,
0100
0001
0100
0001
,
0000
2000
0000
3000
,
0100
1000
0100
1000
,
0000
0002
0000
0003
,
0100
0010
0100
0020
,
0000
0130
0000
0100
,
0010
0000
0000
1001
,
0000
0000
0001
0000
,
0010
0001
0010
0001
,
0000
1000
0001
0000
,
1000
0000
1000
0000
,
0020
0000
1030
0000
,
0100
0010
0100
0010
,
0000
0002
0000
0003
,
0100
0010
0100
0010
,
0000
2000
0000
3000
,
0010
0100
0010
0200
,
0000
0310
0000
0010
,
0100
0000
0000
0110
,
0000
0000
0010
0000
,
1000
0000
0100
0000
,
1000
0001
0000
1000
,
0001
0000
1000
0000
,
0002
0000
0000
0003
,
2000
0000
0000
3000
,
0020
0030
0200
0300
,
0010
0000
0100
0000
2002
3003
0000
0000
,
0001
0000
0100
0000
,
0001
0000
0000
0000
,
1000
0000
0100
0000
,
1000
0000
0000
0000
,
0010
0000
0020
0000
,
0000
0000
0130
0000
,
0001
0000
1000
0001
,
2000
0000
3010
0000
,
0100
0000
0001
0100
,
0000
0000
0100
0000
,
0010
0000
1000
0010
,
0000
0000
0010
0000
,
1000
0000
0100
0000
,
0010
0000
0001
0000
,
0200
0000
0000
0020
,
0000
0000
0330
0000
,
2000
0000
3100
1000
,
0002
0000
0013
0001
,
0200
0000
0310
0100
,
0001
0000
1000
0000
0001
1000
0001
0000
,
2000
0000
3100
0000
,
1000
0010
1000
0010
,
0000
0200
0000
0300
,
0001
0010
0001
0010
,
0000
0200
0000
0300
,
1000
0001
1000
0002
,
0000
1003
0000
1000
,
0001
0000
0000
1001
,
0000
0001
0000
0010
,
0001
0000
1000
0010
,
0000
0100
0010
0000
,
0010
0100
0010
0000
,
0200
0000
0310
0000
,
1000
0100
1000
0100
,
0000
0020
0000
0030
,
0001
0100
0001
0100
,
0000
0020
0000
0030
,
0100
0010
0100
0020
,
0000
0130
0000
0100
,
0001
0000
0000
1010
,
0000
0000
1000
0000
,
0100
0000
1000
0001
,
0000
0001
1000
0000
,
0001
0100
0001
0000
,
0000
0101
0000
0101
,
0000
0001
0000
1000
,
0000
1100
0000
1100
,
0000
1000
0000
0001
,
0000
1001
0000
1001
,
0000
0100
0000
0010
,
0200
0000
0320
0000
,
0130
0002
0000
0003
,
0000
2000
0000
3000
,
0000
0200
0000
0300
,
0000
2000
3000
0002
,
0003
0200
0000
0300
,
0000
0020
0000
0030
,
0000
0200
0000
0300
,
0000
0002
0003
2000
,
3000
0001
0000
0010
,
0000
0001
1000
0001
,
0000
1000
0000
0100
,
0000
1000
0001
1000
,
0000
0010
0000
0100
,
0000
0010
0100
0010
,
0000
0100
0010
0100
,
0000
0020
0100
0000
,
0130
0001
0000
0010
,
0000
0001
0100
0001
,
0000
1000
0000
0010
,
0000
1000
0100
1000
,
0000
0100
0000
0010
,
0000
0001
1000
0001
,
0000
0100
0010
0000
,
0010
0000
0010
0000
,
0010
0100
0001
1001
,
1000
0100
1000
1001
,
0001
0010
0010
0001
,
0001
0100
0100
1000
,
1000
0100
0100
0010
,
0010
0000
0001
0000
1000
0000
0001
1000
,
0001
1000
0100
1000
,
0000
0100
0010
0100
,
0000
0010
0001
0010
,
0000
0001
1000
0001
,
0000
0100
0001
0100
,
0000
0010
0100
0010
,
0000
2000
0000
3002
,
0000
0203
0000
0310
,
0000
0110
0200
0001
,
0301
0010
0200
1000
,
1300
0002
0003
0001
,
0000
0100
0001
0100
,
0020
0000
1030
0000
,
0000
0100
1000
0100
,
0020
0000
0031
0000
,
0000
0100
0010
0100
,
0020
0000
0130
0000
,
0100
0001
0000
1000
,
0001
0000
0001
1000
,
0000
0100
1000
0100
,
0000
1000
0001
0000
,
0001
1000
0000
0100
,
0000
2000
3000
1000
,
0000
0100
1000
0100
,
0020
0000
0031
0000
,
0000
0100
0001
0100
,
0020
0000
1030
0000
,
0000
0100
0010
0100
,
0020
0000
0130
0000
,
0100
1000
0000
0010
,
0100
0000
0100
0010
,
0000
1000
0100
1000
,
0000
0001
0100
0001
,
0000
1000
0100
1000
,
0000
1001
0000
0001
,
0000
0010
0000
0001
,
0200
0300
0001
1000
,
0000
0010
0000
1000
,
0200
0300
1000
0001
,
0000
0100
0000
0010
,
0200
0300
0100
0010
,
0000
1000
1000
0001
,
0001
0200
0000
0000
,
0300
0000
0020
0000
,
0000
0030
0000
2002
,
0000
0000
0000
0000
,
0000
0000
0000
0000
,
0000
0000
0000
3003
;

//--------------- dance-single - 8Chasey ----------------
#NOTES:
     dance-single:
     8Chasey:
     Medium:
     7:
     0,0,0,0,0:
0000
0000
0000
0000
,
0000
0000
0000
0000
,
0000
0000
0000
0000
,
0000
0000
0000
0000
,
0001
0100
0010
1000
,
0100
1000
0100
0000
1000
0000
1010
0000
,
1000
0100
0010
0001
,
0100
0001
0100
0000
0001
0000
0011
0000
,
0010
0100
0010
0000
,
0001
0000
0010
0000
0100
0000
0000
0010
,
0100
0010
0100
0000
,
1000
0010
0100
0100
,
0001
1000
0001
0000
,
0010
0000
0001
0000
0100
0000
0000
0001
,
1000
0001
1000
0000
,
0100
0100
0010
0010
,
0001
0100
0001
0000
,
1000
0000
0010
0000
1000
0000
0000
0100
,
0010
0100
0010
0000
,
0001
0001
1000
1000
,
0010
1000
0200
0000
,
1300
0001
0100
0002
,
0000
0000
0103
0001
,
0010
0001
0010
0000
0001
0000
1000
0000
,
0200
0000
1300
0000
0010
1000
0001
0000
,
0200
0000
0301
0000
0010
0001
1000
0000
,
0002
0000
0103
0000
0010
1000
0100
0000
,
2000
0000
3001
0000
0010
0100
0010
0100
,
1000
0000
1010
0000
,
0010
0100
0001
0010
,
0000
0011
0000
0001
,
1000
0010
0100
0010
,
0000
0110
0000
0100
,
0001
0010
0001
1000
,
0000
2100
0000
0000
,
3001
0010
0001
0200
,
0000
0310
0100
0001
,
0010
0001
0001
0100
,
0001
0000
1000
0000
0010
0000
0000
0010
,
0000
0010
0100
0100
,
0001
0000
0011
0000
,
0010
0001
0100
0010
,
0000
1010
0000
1000
,
0100
0001
0100
0010
,
0000
0110
0000
0100
,
1000
0010
0100
0001
,
0000
0021
0000
0000
,
0130
1000
0010
0200
,
0000
0301
0100
1000
,
0100
0010
1000
0100
,
1000
0001
0100
0001
,
0010
0001
0010
0000
0001
0000
0000
0000
,
2000
0000
3020
0000
,
0230
0000
0302
0000
,
2003
0000
3002
0000
,
0103
0010
0100
0010
2002
0000
3003
0000
,
0001
0010
1000
0000
,
0010
0000
0001
0000
,
1000
0010
0001
0000
,
0020
0000
0130
0000
,
0001
0010
0002
0000
,
1000
0000
0103
0001
,
1000
0000
0010
0000
1000
0000
0001
1000
,
0000
0001
0000
0001
,
1000
0100
0001
0000
,
0100
0000
1000
0000
,
0001
0100
1000
0000
,
0200
0000
0310
0000
,
1000
0010
1000
0000
,
0001
0100
0001
0000
,
0020
0100
0000
0130
,
1000
0001
1000
0001
,
0200
0000
0301
0000
0010
0001
1000
0000
,
0200
0000
1300
0000
0010
1000
0001
0000
,
2000
0000
3100
0000
1000
0010
1000
0000
,
0002
0000
0103
0000
0010
0100
0010
0100
,
0001
0000
1010
0000
,
1000
0100
0001
0100
,
0000
0110
0000
0010
,
0001
0100
1000
0100
,
0000
1001
0000
0001
,
0010
0001
0100
0010
,
0000
2001
0000
0000
,
3100
0010
0001
0200
,
0000
0301
0010
0000
,
0001
0100
0010
1000
,
0000
0100
1000
0000
0001
0000
1000
0001
,
0000
0100
0001
0000
0010
0000
0100
0000
,
1000
0000
0011
0000
,
0001
0100
1000
0100
,
0000
0110
0000
0010
,
1000
0100
0001
0100
,
0000
1001
0000
0001
,
0010
0001
1000
0010
,
0000
0102
0000
0000
,
1003
0100
1000
0020
,
0000
0130
0001
0010
,
0001
0001
1000
0100
,
2000
0010
0000
3010
,
0100
0001
0100
0001
,
0000
0011
0000
0011
,
0000
0001
1000
0001
,
0000
1010
0000
1010
,
0000
1000
0001
1000
,
0000
1001
0000
1001
,
0000
0010
0100
0010
,
1000
0000
0100
0000
1000
0000
0001
0000
0010
0000
0001
0000
,
0200
0320
0000
0000
,
0030
0200
0000
0000
,
0300
0002
0000
0000
,
0003
0000
2000
0000
0000
0000
3100
0010
,
0000
0010
0200
0000
0000
0000
0000
0000
,
0300
0100
0020
0000
0000
0000
0000
0000
,
0030
0010
0002
0000
0000
0000
0000
0000
,
0003
1000
0200
0000
0000
0000
1300
0010
,
0000
0010
1000
0000
0100
0000
1000
0000
,
0000
0002
0003
2000
,
3000
0001
0100
0001
,
0000
2000
3000
0002
,
0003
1000
0100
1000
,
0000
0020
0030
0200
,
0300
0001
0100
0001
,
0000
0200
0300
0020
,
0030
1000
0010
1000
,
0000
0200
0300
2000
,
3000
0001
0010
0001
,
0000
0200
0300
0002
,
0003
0010
0100
0010
,
0000
0100
0100
0010
,
0000
0001
1000
0000
,
1100
0000
0101
0000
,
0100
0000
0010
0000
0100
0001
0000
1000
,
0001
0000
0010
0000
0100
1000
0000
0001
,
1000
0020
1000
2030
,
0001
3002
0100
0203
,
0310
0000
1000
0010
1000
0000
0010
0000
,
0100
0000
0001
0010
0001
0000
0010
0000
,
0100
1000
0010
1000
,
0010
1000
0001
1000
,
0001
0100
0001
0100
,
0001
0100
0010
0100
,
0010
1000
0001
1000
,
0001
0010
0100
0010
,
0100
2000
0000
3002
,
0000
0203
0000
0310
,
0000
0000
0110
0000
0001
0000
1000
0100
,
0001
0100
1000
0000
0010
0000
0100
0001
,
0100
0010
0000
1001
,
0000
1000
0010
1000
,
0001
0000
0101
0000
,
0100
0001
0010
0001
,
1000
0000
1100
0000
,
1000
0010
0100
0100
,
0010
0000
0210
0000
,
0001
0301
0010
0100
,
2000
0000
3001
0010
,
0000
0001
0100
0010
,
0100
0000
0001
0010
0000
0000
0001
0000
,
1000
0100
0000
0000
1000
0000
0001
0000
,
0000
1000
0000
0110
,
0000
0010
1000
0100
,
0010
0000
0011
0000
,
0001
0010
0001
0100
,
0010
0000
1010
0000
,
1000
0100
1000
0001
,
0100
0000
0120
0000
,
1000
1030
0100
0010
,
0002
0000
1003
0100
,
0000
1000
0010
0100
,
0010
0000
1000
0010
0000
0000
1000
0000
,
0001
0100
0000
0000
0001
0000
1000
0000
,
0100
0010
0001
0002
,
0000
0103
0001
1000
,
2000
0000
0010
0000
,
3100
0010
0001
0100
,
0020
0000
0100
0000
,
0130
0001
0010
0100
,
0200
0000
1000
0000
,
1300
0010
1000
0001
,
0100
0020
0000
0000
,
0000
0000
0200
0000
,
0000
0330
0000
2002
,
0000
0000
0000
0000
,
0000
0000
0000
0000
,
0000
0000
0000
3003
;

//--------------- dance-single - 8Chasey ----------------
#NOTES:
     dance-single:
     8Chasey:
     Hard:
     9:
     0,0,0,0,0:
0000
0000
0000
0000
,
0000
0000
0000
0000
,
0000
0000
0000
0000
,
0000
0000
0000
0000
,
0001
0100
0001
0000
1000
0001
1000
0000
,
0010
1000
0010
0000
1000
1000
0100
0100
,
1000
0001
1000
0000
0010
1000
0010
0000
,
0100
0001
0100
0000
0001
0001
0010
0010
,
0001
0000
0100
0010
0100
0000
0010
0000
,
1000
0000
0100
1000
0100
0000
1000
0000
,
0010
0000
0100
0001
0100
0000
0010
0000
,
1000
1100
0011
0010
,
1001
0000
1000
0010
1000
0000
0010
0000
,
0100
0000
0001
0010
0001
0000
1000
0100
,
1000
0000
0100
1000
0010
0000
1000
0000
,
0010
0110
1001
1000
,
0001
0000
0010
0000
0001
0010
0100
0000
,
1000
0100
1000
0000
0010
1000
0010
1000
,
0001
0000
0100
0001
1000
0000
0010
0000
,
1000
1100
0101
0001
,
1001
0000
1000
0010
0100
0000
0001
0000
,
1000
0100
0001
0000
0100
0000
1000
0100
,
1000
0010
0110
0100
,
0101
0000
1100
0000
1000
0010
1000
0000
,
0002
0010
0100
0010
1003
0010
1000
0100
,
2000
0010
0100
0010
3001
0100
0001
0010
,
0200
1000
0010
1000
1300
0010
1000
0001
,
0020
0000
0100
0000
0001
0000
0031
0000
1000
0000
0010
0000
0100
0010
0100
0000
,
0110
0000
0010
1000
0020
0000
0000
0000
,
0130
0000
0001
0000
1000
0100
1000
0000
,
0010
0000
0220
0000
0330
0000
0100
0001
,
0100
0000
0001
0000
0010
0000
0001
1000
,
0001
0000
2002
0000
3003
0000
1000
0010
,
0100
0001
0100
0020
,
0000
0000
1030
0000
0010
1000
0100
0000
,
1000
0000
0001
0010
0001
0000
0022
0000
,
0033
0000
0010
0000
0001
0000
1000
0100
,
0000
1000
0100
0000
0010
0000
0001
0000
,
0100
0001
0100
0000
0010
0000
1000
0100
,
0000
1000
0010
0000
0100
0000
0010
0000
,
1001
0000
0100
0001
0200
0000
0000
0000
,
0310
0000
1000
0100
1000
0000
0001
0000
,
0100
0000
0220
0000
0330
0000
0010
1000
,
0010
1000
0100
1000
,
0001
0000
2002
0000
3003
0000
0001
0010
,
0100
0001
0100
1000
,
0010
1000
0100
0000
1000
0000
0001
0100
,
0001
0000
0100
0010
1000
0000
2200
0000
,
3300
0000
1000
0001
1000
0000
0001
0000
,
0010
0000
0001
0100
0001
0000
0100
0000
,
0010
2000
0100
3001
,
0010
0001
0010
0000
0001
1000
0001
0000
,
0200
0001
0001
0000
0302
1000
1000
0000
,
2003
0010
0010
0000
3020
0100
0100
0000
,
0130
0001
0100
1000
0100
0010
1000
0100
,
1000
0010
1000
0000
0001
0100
0001
0000
2002
0000
0000
0000
0000
0000
3003
0000
,
1000
0000
0010
0000
1000
0100
1000
0000
,
0001
0000
0010
0001
0000
0001
0100
0000
,
0001
0000
0010
0000
0001
0100
0001
0000
,
1000
1010
0001
0011
,
0110
0000
0100
1000
0100
0000
1000
0000
,
0001
0000
0010
0001
0010
0000
0001
0000
,
1000
0000
0010
1000
0100
0000
0010
0001
,
0100
0101
1100
1000
,
1001
0000
0001
0010
0100
0000
1000
0000
,
0100
0000
1000
0010
0100
0000
0001
0000
,
0010
0001
0010
0000
0001
1000
0001
0000
,
1000
1010
0101
0001
,
1000
0000
0010
1000
0001
0000
0010
0000
,
0001
0100
0001
0000
0100
0000
0010
0000
,
1000
0010
1000
0000
0010
0000
0200
0000
,
0001
0010
0310
0110
,
2010
0001
3001
0000
0020
0001
0031
0000
,
0012
1000
1003
0000
0020
1000
1030
0000
,
0200
1000
1000
0000
0320
0001
0001
0000
,
0130
0000
1000
0000
0001
0000
0000
0000
0100
0000
0110
0000
0010
0100
0010
0000
,
0110
0010
2000
0000
,
0100
0000
3001
0000
0010
0001
1000
0000
,
0001
0000
2002
0000
3003
0000
1000
0010
,
1000
0000
0100
0000
0010
0100
0000
0010
,
0100
0000
0220
0000
0330
0000
0100
1000
,
0001
0000
0010
0000
0001
0000
0100
0010
,
1000
0010
0200
0010
,
0310
0000
1000
0001
1000
0000
2020
0000
,
3030
0000
0010
0100
0001
0000
0100
0000
,
1000
0100
0100
0001
,
0010
0001
0010
0000
0001
0000
1000
0001
,
0000
1000
0010
0000
0100
0010
0100
0000
,
0010
1000
0001
0000
2000
0000
0000
0000
,
0100
0000
3010
0000
0100
0001
0100
0000
,
0001
0000
0022
0000
0033
0000
0010
0001
,
1000
0000
0010
0000
0100
0000
0001
0100
,
0000
0000
0202
0000
0303
0000
0100
0010
,
1000
0100
1000
0002
,
0000
0013
0001
0101
,
0100
0010
0100
0000
0010
0000
2002
0000
,
3003
0000
1000
0100
0001
0000
0100
0000
,
0010
0001
0010
0000
0001
0000
0100
1000
,
0000
0100
0010
0000
1000
0000
0100
0000
,
1000
0010
1000
0000
0001
0100
0001
0000
,
0000
1001
0000
1001
,
0000
0000
1000
0010
0000
1000
0001
0000
,
0000
0101
0000
0101
,
0000
0000
0001
0010
0000
0001
1000
0000
,
0000
1100
0000
1100
,
0000
0000
1000
0010
0000
0100
0010
0000
,
1000
0000
0010
0000
1000
0000
0001
0000
0100
0000
0001
0000
,
0020
0230
1000
0000
,
1300
0000
0002
0000
0010
0000
0000
0100
,
0103
0020
1000
0000
,
1030
0100
2000
0000
0000
0000
3001
1001
,
0000
0000
1001
0000
0200
0000
0000
0000
0301
0000
0000
0100
0000
0000
0001
0000
,
0000
0000
1000
0000
0200
0000
0000
0000
1300
0000
0000
0100
0000
0000
1000
0000
,
0000
0000
0001
0000
0020
0000
0000
0100
0000
0000
0130
0000
0000
0000
1000
0000
,
0100
1000
0002
0000
0000
0003
2000
0010
,
0000
3010
0100
0000
0001
0000
0100
0000
,
0000
0000
0001
1000
0000
0000
0001
0010
,
0000
0100
1000
0100
,
0000
0000
1000
0001
0000
0000
1000
0010
,
0000
0100
0010
0100
,
0000
0000
0010
1000
0000
0000
0010
0100
,
0000
0000
0001
0010
0000
0000
0010
0001
,
0000
0000
0010
0100
0010
0000
0100
0000
,
1001
1000
0010
1000
,
0001
0000
0010
0001
0000
0000
0100
0001
,
0000
0001
0010
0001
,
1000
0000
0010
1000
0000
0000
0100
1000
,
0000
0001
0001
1000
,
1000
0000
0010
1000
0000
0000
1000
0000
,
0001
0010
1001
0000
,
0110
0000
0100
1000
,
0001
0000
0200
0000
0301
1000
1010
0010
,
0010
1000
0200
0000
1300
0001
0101
0001
,
0000
1000
0020
0000
1000
0000
0100
0000
,
1030
0100
0020
0000
0001
0000
0100
0000
,
0031
0000
1000
0100
0100
1000
0001
0100
,
0100
0001
1000
0010
0010
1000
0001
0001
,
0001
0010
0001
0010
,
0001
0100
0001
0100
,
0001
1000
0001
1000
,
0001
1000
0010
1000
,
0010
1000
0100
1000
,
0100
0010
0100
0010
,
0100
0000
1000
0010
1000
0000
0001
0010
,
0001
0000
1000
0100
1000
0000
0002
0000
,
0003
0000
0000
0000
0100
0000
0001
0000
0100
0000
0010
0000
0000
0010
0000
0000
,
0010
0000
1000
0000
0100
0000
1000
0000
0100
0000
0010
0000
0000
0010
0000
0000
,
0020
0030
0100
0000
1000
0001
2000
0000
,
0000
3010
1000
0001
,
0100
0001
0100
0000
0202
0000
0303
0000
,
0001
0000
0010
0000
0001
0000
1000
0100
,
1000
0010
2020
3030
,
0100
0001
0100
0000
0001
0000
0010
0000
,
0010
0000
0000
0001
0100
0000
0001
0000
,
1000
0000
0100
0000
1000
0100
0010
0000
,
0220
0330
0100
1000
,
0001
1000
0001
0000
1000
0000
0010
0000
,
0100
0000
0001
0100
0000
0001
0100
0000
,
0010
1000
0000
0010
1000
0000
0100
0000
,
0010
0110
0100
2000
,
0000
0010
0001
3010
,
0100
0001
0000
0000
2200
0000
3300
0000
,
1000
0010
1000
0000
0010
0000
1000
0000
,
0001
0010
0022
0033
,
0001
0100
0001
0000
1000
0000
0100
0000
,
0001
0000
0000
0100
1000
0000
0100
0000
,
1000
0000
0001
0100
0001
0000
1000
0000
,
2002
0000
3003
0000
0001
0010
0001
0000
,
0010
0001
0100
0100
,
0010
0000
1000
0010
0000
1000
0001
0000
,
0100
0001
0000
0001
0100
0000
0001
0010
,
0001
2002
3003
2020
,
3030
0020
0100
1000
,
0130
0000
0001
0100
0001
0000
0010
0000
,
0001
0000
1000
0100
1000
0000
0010
0000
,
0220
0330
2002
3003
,
1000
0100
0001
0000
0100
0000
1000
0000
,
0020
0000
0100
1000
,
1030
0001
0010
0100
,
0110
0020
0000
0032
,
0000
2003
0200
0000
,
0000
3300
0000
2002
,
0000
0000
0000
0000
,
0000
0000
0000
0000
,
0000
0000
0000
3003
;
