#VERSION:0.83;
#TITLE:Misty Mountain;
#SUBTITLE:;
#ARTIST:8Chasey;
#TITLETRANSLIT:;
#SUBTITLETRANSLIT:;
#ARTISTTRANSLIT:;
#GENRE:;
#ORIGIN:;
#CREDIT:8Chasey Original Soundtrack;
#BANNER:Misty Mountain.png;
#BACKGROUND:Misty Mountain-bg.png;
#PREVIEWVID:;
#JACKET:;
#CDIMAGE:;
#DISCIMAGE:;
#LYRICSPATH:;
#CDTITLE:;
#MUSIC:Misty Mountain.ogg;
#OFFSET:-0.050000;
#SAMPLESTART:42.715000;
#SAMPLELENGTH:12.000000;
#SELECTABLE:YES;
#DISPLAYBPM:135.000000;
#BPMS:0.000=135.000,
176.000=125.000,
177.000=110.000,
178.000=90.000,
179.000=80.000,
179.500=55.000,
180.000=45.000;
#STOPS:;
#DELAYS:;
#WARPS:;
#TIMESIGNATURES:0.000=4=4;
#TICKCOUNTS:0.000=4;
#COMBOS:0.000=1;
#SPEEDS:0.000=1.000=0.000=0;
#SCROLLS:0.000=1.000;
#FAKES:;
#LABELS:0.000=Song Start;
#BGCHANGES:;
#KEYSOUNDS:;
#ATTACKS:
;

//---------------dance-single - ----------------
#NOTEDATA:;
#CHARTNAME:;
#STEPSTYPE:dance-single;
#DESCRIPTION:;
#CHARTSTYLE:;
#DIFFICULTY:Hard;
#METER:6;
#RADARVALUES:0.403748,0.474321,0.324322,0.393819,0.046332,244.000000,216.000000,28.000000,34.000000,0.000000,0.000000,0.000000,0.000000,0.000000,0.403748,0.474321,0.324322,0.393819,0.046332,244.000000,216.000000,28.000000,34.000000,0.000000,0.000000,0.000000,0.000000,0.000000;
#CREDIT:;
#DISPLAYBPM:135.000000;
#NOTES:
// measure 0
0000
0000
0000
0000
,  // measure 1
0000
0000
0000
0000
,  // measure 2
0020
0100
1000
0130
,  // measure 3
0002
0010
1000
0100
,  // measure 4
0023
0100
0001
0130
,  // measure 5
2000
0010
0001
3100
,  // measure 6
0010
0000
0101
0000
0010
0100
1000
0000
,  // measure 7
0100
1000
0001
1000
0010
0100
0010
0000
,  // measure 8
1000
0000
0011
0000
1000
0001
0100
0000
,  // measure 9
0001
0010
0100
1000
0010
0100
0001
0000
,  // measure 10
0020
0000
0031
0000
1000
0100
1000
0000
,  // measure 11
0100
0000
0020
0000
0000
0001
0000
0000
0130
0000
0000
0000
1001
0000
0000
0000
,  // measure 12
2000
0100
3002
0100
,  // measure 13
1003
0000
0010
0100
0010
0000
0110
0000
,  // measure 14
2002
0000
3003
0000
0001
0100
1000
0000
,  // measure 15
1000
0100
0001
0000
1000
0000
0010
0000
,  // measure 16
0110
0000
0000
1000
0100
0000
0010
0100
,  // measure 17
0000
1000
0001
0000
0101
0000
1100
0000
,  // measure 18
0010
0000
0000
0010
0000
0000
0020
0000
0000
0000
0000
0000
0230
0000
0000
0000
,  // measure 19
0000
0302
1000
0000
1000
0000
0103
0000
,  // measure 20
2002
0000
3003
0000
0010
0100
0001
0000
,  // measure 21
0010
0100
1000
0001
1000
0000
0010
0000
,  // measure 22
1001
0000
0000
0001
0010
0100
1000
0000
,  // measure 23
0110
0000
0101
0000
1100
0000
2002
0000
0000
3003
0000
0000
,  // measure 24
0010
0100
0001
0000
1100
0000
0011
0000
,  // measure 25
0100
0010
0100
0001
1000
0000
0100
0000
,  // measure 26
0022
0030
2000
3000
,  // measure 27
0103
0010
1000
0100
0010
0000
0101
0000
,  // measure 28
0010
0100
1000
0000
0101
0000
1010
0000
,  // measure 29
0001
0010
0001
0100
0010
0000
1001
0000
,  // measure 30
2020
0000
3030
0000
0001
0000
0001
1000
,  // measure 31
0200
0000
0300
0000
0001
1000
1000
1000
,  // measure 32
0010
0000
0000
0100
0010
0000
1000
0000
0100
0000
0000
0000
0001
0000
0000
0000
,  // measure 33
0020
0000
0130
0002
1000
0000
1003
0100
,  // measure 34
0010
0000
0100
1000
0001
0000
0100
0000
,  // measure 35
0110
0000
1000
0002
0100
0000
1003
0000
,  // measure 36
0010
0000
0100
0000
1000
0000
0100
0000
0010
0000
0000
0100
0010
0000
0001
0000
,  // measure 37
2000
0000
0000
0100
0000
0000
0002
0000
0000
0000
3003
0000
0010
0000
0100
0000
,  // measure 38
0110
0000
0001
0010
0100
1000
0001
0100
,  // measure 39
0020
0000
0200
0330
,  // measure 40
2002
0000
0000
3003
,  // measure 41
0100
0000
0101
0000
0010
1000
0100
1000
,  // measure 42
0001
0000
0000
1000
0000
0000
0010
0000
0100
0000
0000
0000
1001
0000
0000
0000
,  // measure 43
0001
0100
1000
0100
0001
0100
1000
0100
,  // measure 44
0001
0010
1000
0010
0001
0010
1000
0010
,  // measure 45
2002
0000
3003
0000
;

//---------------dance-double - ----------------
#NOTEDATA:;
#CHARTNAME:;
#STEPSTYPE:dance-double;
#DESCRIPTION:;
#CHARTSTYLE:;
#DIFFICULTY:Easy;
#METER:3;
#RADARVALUES:0.226694,0.289863,0.150578,0.289573,0.000000,137.000000,124.000000,13.000000,25.000000,0.000000,0.000000,0.000000,0.000000,0.000000,0.226694,0.289863,0.150578,0.289573,0.000000,137.000000,124.000000,13.000000,25.000000,0.000000,0.000000,0.000000,0.000000,0.000000;
#CREDIT:;
#DISPLAYBPM:135.000000;
#NOTES:
00000000
00000000
00000000
00000000
,
00000000
00000000
00000000
00000000
,
00020000
00001000
00000000
00032000
,
00100000
00000000
00103000
00000000
,
00200000
00010000
00000000
00320000
,
01000000
00000000
01030000
00000000
,
10000000
00100000
01000000
10000000
,
01000000
00010000
00100000
00001000
,
00010000
00001000
01000000
00001000
,
00010000
00000100
00000010
00000100
,
00000001
00001000
00000100
00001000
,
00000100
00010000
00001000
00010000
,
00002000
00100000
00000000
01003000
,
00020000
00000010
00000000
00030100
,
00022000
00000000
00033000
00010000
,
00000100
00001000
00000010
00000100
,
00000002
00000000
00001003
00000100
,
00000001
00000010
00000100
00001000
,
00011000
00000000
10010000
00000000
,
00100000
01000000
00010000
00000000
,
00200000
00000000
00010000
00000000
,
00301000
00010000
00001000
00010000
,
00011000
00000000
00000000
00000000
,
00000000
00000000
00000000
00000000
,
00100000
00010000
00100000
00001000
,
00010000
00000100
00001000
00000010
,
00000120
00000000
00001000
00000000
,
00002030
00000000
00003100
00000000
,
00012000
00010000
00010000
00103000
,
01000000
00100000
01000000
10000000
,
10020000
00000000
01000000
00130000
,
01100000
00000000
00000000
00000000
,
00010000
00000100
00000010
00000100
,
00020000
00030000
00002000
00003000
,
00110000
10000000
01000000
00010000
,
00010100
00000010
00000002
00000003
,
00001000
00000100
00010000
00001000
,
00100000
00100000
00200000
00300000
,
00101000
00010000
00000100
00001000
,
00002002
00000000
00000000
00000000
,
00000000
00000000
00000000
00003003
,
00000100
00001000
00000100
00010000
,
00001000
00100000
00200000
00300000
,
00002000
00000000
00000000
00000000
,
00020000
00000000
00000000
00033000
,
00022000
00000000
00033000
00000000
;

//---------------dance-single - ----------------
#NOTEDATA:;
#CHARTNAME:;
#STEPSTYPE:dance-single;
#DESCRIPTION:;
#CHARTSTYLE:;
#DIFFICULTY:Medium;
#METER:5;
#RADARVALUES:0.286264,0.368916,0.069498,0.324322,0.017374,173.000000,167.000000,6.000000,28.000000,0.000000,0.000000,0.000000,0.000000,0.000000,0.286264,0.368916,0.069498,0.324322,0.017374,173.000000,167.000000,6.000000,28.000000,0.000000,0.000000,0.000000,0.000000,0.000000;
#CREDIT:;
#DISPLAYBPM:135.000000;
#NOTES:
0000
0000
0000
0000
,
0000
0000
0000
0000
,
0002
0100
0000
0013
,
2000
0100
0000
3010
,
0200
0001
0000
0310
,
2000
3100
0020
0031
,
1000
0010
0000
0100
0000
0001
0000
1000
,
0000
0100
0000
0010
0000
0100
0000
1000
,
0001
1000
0000
0010
0000
0100
0000
0001
,
0000
0010
0000
0100
0000
1000
0000
0010
,
0100
0001
1000
0010
,
0100
0000
0001
0000
0000
0100
0000
0000
0001
0000
0000
0000
1000
0000
0000
0000
,
0020
0030
0100
0001
,
1000
0010
0100
0001
1000
0000
0001
0000
,
1001
0000
0000
0000
0010
0010
0010
0000
,
0100
0000
0001
1000
0001
0000
0010
0000
,
0010
0000
0000
1000
0000
0000
0001
0000
,
0100
0001
1000
0100
,
0010
0000
0000
0010
0000
0000
1000
0001
,
0000
1000
0002
0000
1000
0000
0103
0000
,
0020
0000
0030
0000
0001
1000
0001
0000
,
1000
0001
1000
0000
0010
0000
0010
0000
,
1001
0000
0000
0000
,
0010
0000
0010
0000
0010
0000
0010
0000
0000
0000
0000
0000
,
0200
0301
2000
3100
,
0010
0001
1000
0001
0100
0000
0000
0000
,
0020
0000
1030
0100
,
0001
0000
0100
0000
0010
0100
0010
0000
,
1000
0001
0020
0130
,
1000
0100
1000
0010
1000
0000
0000
0000
,
0002
0003
2000
3000
,
2002
3003
0000
0000
,
0010
0000
1000
0001
1000
0000
0000
0000
,
0002
0000
0000
2000
0000
0000
3003
0000
,
0100
0000
1000
0001
1000
0000
0010
0000
,
0020
0100
0200
0330
,
0001
0100
0010
0000
1000
0000
0001
0000
,
1000
0100
0010
0000
0001
0000
1000
0000
,
0200
0300
0020
0030
,
0220
0000
0000
0330
,
2002
0000
0000
3003
,
0010
0000
0100
0000
0001
0100
1000
0000
,
0100
0000
0100
1000
0001
0000
0010
0000
,
0001
1000
0001
0000
1000
0001
1000
0000
,
0010
0100
0010
0000
0100
0010
0100
0000
,
2002
0000
3003
0000
;

//---------------dance-single - ----------------
#NOTEDATA:;
#CHARTNAME:;
#STEPSTYPE:dance-single;
#DESCRIPTION:;
#CHARTSTYLE:;
#DIFFICULTY:Easy;
#METER:3;
#RADARVALUES:0.220076,0.263511,0.104246,0.289573,0.000000,133.000000,124.000000,9.000000,25.000000,0.000000,0.000000,0.000000,0.000000,0.000000,0.220076,0.263511,0.104246,0.289573,0.000000,133.000000,124.000000,9.000000,25.000000,0.000000,0.000000,0.000000,0.000000,0.000000;
#CREDIT:;
#DISPLAYBPM:135.000000;
#NOTES:
0000
0000
0000
0000
,
0000
0000
0000
0000
,
0200
0001
0000
0302
,
1000
0000
1003
0000
,
0020
1000
0000
2030
,
0001
0000
3001
0000
,
0010
0100
0001
1000
,
0100
1000
0001
0100
,
0010
1000
0100
0010
,
0100
1000
0001
0100
,
0001
1000
0100
1000
,
0010
0100
0001
1000
,
2000
0010
0000
3010
,
0200
0001
0000
0310
,
2002
0000
3003
0100
,
0001
0100
1000
0100
,
0020
0000
1030
0100
,
0010
0010
0100
0100
,
0110
0000
1001
0000
,
1000
0100
0010
0001
,
0200
0000
0010
0301
,
1000
0001
1000
0001
,
1001
0000
0000
0000
,
0000
0000
0000
0000
,
1000
0010
0100
0010
,
1000
0100
1000
0000
,
0020
0000
0100
0000
,
2030
0000
3100
0000
,
0001
0010
0002
0003
,
1000
0010
2000
3000
,
0002
0010
0100
1003
,
1001
0000
0000
0000
,
0001
0100
0010
0100
,
0002
0003
2000
3000
,
0011
0100
1000
0010
,
1010
0100
0001
0000
,
1000
0010
0010
0100
,
0001
1000
0010
0100
,
0001
1000
0020
0030
,
0220
0000
0000
0000
,
0000
0000
0000
0330
,
1000
0100
0001
0100
,
0001
1000
0020
0030
,
2000
0000
0000
0000
,
0002
0000
0000
3003
,
2002
0000
3003
0000
;
