#TITLE:月にいったミルク;
#SUBTITLE:;
#ARTIST:さとむら ひなた;
#TITLETRANSLIT:Milk On The Moon;
#SUBTITLETRANSLIT:;
#ARTISTTRANSLIT:Satomura Hinata;
#GENRE:Kids;
#CREDIT:;
#MUSIC:Milk on the Moon.ogg;
#BANNER:Milk on the Moon.png;
#BACKGROUND:Milk on the Moon-bg.png;
#CDTITLE:;
#SAMPLESTART:30.99;
#SAMPLELENGTH:12;
#SELECTABLE:YES;
#OFFSET:0.113;
#BPMS:0.000=135.000
,200.000=130.000
,202.000=100.000
,204.000=80.000
;
#STOPS:;
#DISPLAYBPM:135.000;
#BGCHANGES:;
#FGCHANGES:;

//--------------- dance-single - ----------------
#NOTES:
     dance-single:
     :
     Beginner:
     1:
     0,0,0,0,0:
0000
0000
0000
0000
,
0001
0000
0000
0000
,
0001
0000
0000
0000
,
1000
0000
0000
0000
,
1000
0000
0000
0000
,
0001
0000
0000
0000
,
1000
0000
0000
0000
,
0001
0000
1000
0000
,
0001
0000
1000
0000
,
0000
1001
0000
0000
,
1000
0000
0000
0000
,
1000
0000
0000
0000
,
0001
0000
0000
0000
,
0001
0000
0000
0000
,
1000
0000
0000
0000
,
0001
0000
0000
0000
,
1000
0000
0001
0000
,
1000
0000
1000
1000
,
0000
0000
0001
0001
,
0000
0000
0000
0000
,
1000
1000
0000
0000
,
0001
0001
0000
0000
,
1000
0000
0000
0000
,
1000
0000
0000
0000
,
0001
0000
0000
0000
,
0001
0000
0000
0000
,
1000
0000
0001
0000
,
1000
0000
0000
0000
,
0001
0000
0000
0000
,
1000
0000
0001
0000
,
1001
0000
0000
0000
,
0001
0000
0001
0000
,
0001
0000
0000
0000
,
1000
0000
1000
0000
,
1000
0000
0000
0000
,
0001
0000
0000
0000
,
1000
0000
0000
0000
,
0001
0000
1000
0000
,
0001
0000
0000
0000
,
1000
0000
1000
0000
,
1000
0000
0000
0000
,
0001
0000
0001
0000
,
0001
0000
0000
0000
,
1000
0000
0000
0000
,
0001
0000
0000
0000
,
1000
0000
0001
0000
,
1000
0000
0000
0000
,
0001
0000
0000
0000
,
1000
0000
0000
0000
,
0001
0000
1000
0000
,
1001
0000
0000
0000
,
1001
0000
0000
0000
;

//--------------- dance-single - ----------------
#NOTES:
     dance-single:
     :
     Easy:
     2:
     0,0,0,0,0:
0000
0000
0000
0001
,
1000
0000
0000
0001
,
1000
0000
0001
0000
,
2000
3000
0002
0003
,
2000
0000
3000
0000
,
0001
0001
0000
0001
,
1000
1000
0000
1000
,
0001
0000
1000
0000
,
1001
0000
0001
1000
,
0000
2002
0000
3003
,
0010
0000
0100
0000
,
0010
0000
0100
0000
,
0010
0010
0100
0000
,
0020
0000
0130
0000
,
0100
0010
0200
0300
,
0010
0100
0100
0000
,
0020
0030
0010
0100
,
0010
0000
1001
0110
,
0000
1000
0000
1000
,
0000
0001
0002
0003
,
1000
1000
0000
0000
,
0001
0001
0000
0000
,
1000
0000
0100
0000
,
1000
0001
1000
0000
,
0001
0000
0100
0000
,
0001
1000
0001
0000
,
0100
0000
0100
0000
,
0020
0000
0030
0010
,
0020
0000
0030
0010
,
0200
0000
0000
0300
,
0110
0000
0000
0000
,
0001
1000
0001
0000
,
0001
0000
1000
0000
,
1000
0001
1000
0000
,
0002
0000
0103
0000
,
0001
0000
0010
0000
,
0001
0000
1000
0000
,
0020
0000
1030
0000
,
0100
0000
2002
3003
,
1000
0000
1000
0000
,
0010
0000
1000
0000
,
0001
0000
0100
0000
,
0020
0000
0030
0000
,
0001
0000
0001
0000
,
1000
0000
1000
0000
,
0002
0000
2003
0000
,
3001
0000
0000
0000
,
0002
0000
0000
0003
,
2000
0000
0000
3000
,
0001
0000
1000
0000
,
1001
0000
0000
0000
,
2002
0000
0000
0000
,
3003
0000
0000
0000
;

//--------------- dance-single - ----------------
#NOTES:
     dance-single:
     :
     Medium:
     4:
     0,0,0,0,0:
0000
0000
0000
0001
,
1001
0000
0000
0000
0001
0000
1000
0100
,
1000
0001
2000
3000
,
0001
0100
0002
0003
,
0200
0010
0310
0100
,
0001
1000
0200
0300
,
1000
0001
1000
0000
0001
0000
1000
0000
,
0101
0000
0010
0001
,
1000
1000
0001
0001
,
0100
2002
0000
3003
,
0100
0100
0002
1003
,
0100
1000
0010
1000
,
0002
0013
2000
3100
,
1001
1000
0001
0100
,
0001
0000
1000
0001
1000
0000
0100
0000
,
0010
0000
0100
0000
0100
0000
1000
0001
,
1000
0001
0200
0000
,
0310
0000
1001
0110
,
0100
0000
0001
1000
0001
0000
1000
0000
,
0020
0100
0130
0010
,
1000
0100
1000
0100
0000
0000
1000
0000
,
0001
0100
0001
0100
0000
0000
0001
0000
,
1000
0001
1000
0100
,
0010
0000
0010
0000
0100
0010
0000
0100
,
0000
1000
0001
0100
,
0001
0001
1000
1000
,
0200
0000
0310
0100
,
2200
0000
3300
1100
,
0202
0000
0303
0101
,
0001
0000
0000
1000
0000
0000
0000
1001
,
0000
0000
0000
1000
,
1001
0000
0001
0000
0000
1000
0001
0000
,
0100
0100
0002
0003
,
1000
0010
2000
3000
,
0200
0010
0310
0100
,
1000
0010
1000
0001
,
0100
0100
0002
0003
,
2000
3000
0100
0010
,
0100
0000
2002
3003
,
0001
0001
1000
1000
,
0001
1000
0200
0300
,
1000
0001
0020
0030
,
0002
2003
3200
0300
,
1000
0010
1000
1000
,
0001
0100
0001
0000
,
1001
0000
0001
1000
,
0020
0000
1000
1030
,
0001
0000
0000
0002
0000
0000
0003
0000
,
1000
0000
0000
2000
0000
0000
3000
0000
,
0100
1000
0001
0100
,
0020
0000
0130
0000
,
0220
0000
0000
0000
,
0330
0000
0000
0000
;

//--------------- dance-single - ----------------
#NOTES:
     dance-single:
     :
     Hard:
     6:
     0,0,0,0,0:
0000
0000
0000
0000
0000
0000
0001
0100
,
0001
0001
0000
0000
1000
0000
0001
1000
,
0001
0000
1000
0100
2000
0000
3010
0000
,
0200
0000
0301
0100
0020
0000
1030
0000
,
1001
0000
1000
0001
0200
0000
0310
1000
,
0010
0010
0000
1000
0002
0000
0103
0001
,
0100
0100
0000
0010
2000
0000
3100
1000
,
0001
0100
0000
0100
0001
0000
1000
0000
,
0010
1010
0101
0100
,
0010
0000
2002
0000
0000
3003
0001
0010
,
0001
0001
0000
1001
0000
1000
0001
1000
,
0200
0000
1300
0001
0020
0100
0130
0010
,
0001
0100
0001
0000
1000
0010
1000
0000
,
1100
0000
0011
0000
1000
0010
0100
0000
,
0002
0000
0103
0001
0020
0000
0031
1000
,
0100
1000
0001
0001
2000
0000
3010
1000
,
0001
0000
0100
0000
0001
1000
0000
1000
,
0001
0000
1001
0110
,
0100
0001
1000
0001
0010
0000
0001
2000
,
0000
3010
1000
1000
0002
0000
0103
0000
,
0001
0010
0001
0010
0000
0001
0100
0000
,
1000
0010
1000
0010
0000
1000
0100
0000
,
0010
0000
0100
0000
0010
0001
1000
0000
,
0001
0000
1000
0001
1000
0010
0000
1010
,
0000
0000
0010
1000
0000
0001
1000
0001
,
0100
0001
1000
0100
,
0220
0000
0330
0000
0100
1000
0001
0000
,
0101
0001
0100
0001
0000
0000
1001
0000
,
1100
1000
0100
1000
0000
0000
0110
0000
,
1000
0010
0000
0001
0010
0000
0100
0010
,
0000
1100
0101
0010
,
1000
0010
1000
0001
0000
0100
0001
1000
,
0001
0000
0010
0001
2000
0000
3010
0000
,
0100
0001
1000
0000
0002
0000
0103
0000
,
1100
0000
0101
0000
0020
0000
0130
0001
,
1000
1000
0000
0010
1000
0000
0100
1000
,
0001
0001
0000
0000
0100
0000
1001
0000
,
1000
0010
1000
0000
0001
0100
0001
0000
,
1000
0000
0000
1001
2002
0000
3003
0000
,
0001
0100
0010
0100
0020
0000
1030
0000
,
0001
1000
0100
0000
1001
0000
0010
0000
,
0200
0000
0301
1000
0200
0000
0310
0000
,
0011
0000
1010
0000
0001
1000
0001
0000
,
1000
0100
1000
0010
0100
0000
0100
0001
,
0100
0001
0010
0000
0001
0000
1100
0000
,
1000
0010
1000
0000
0001
0010
0000
0010
,
0200
0000
1300
0000
0001
1000
0001
1000
,
0010
0000
1000
2200
0000
0000
3300
0000
,
0010
0000
0001
0202
0000
0000
0303
0000
,
1000
0000
0001
1000
0001
0001
0000
0100
,
0020
0000
0230
0300
,
2002
0000
0000
0000
,
3003
0000
0000
0000
;

//--------------- dance-double - ----------------
#NOTES:
     dance-double:
     :
     Easy:
     2:
     0,0,0,0,0:
00000000
00000000
00000000
00001000
,
00010000
00000000
00001000
00000000
,
00010000
00000000
00001000
00000000
,
00100000
00000000
00100000
00000000
,
00200000
00000000
00300000
00000000
,
01000000
00000000
01000000
00000000
,
10000000
00000000
00010000
00000000
,
10000000
00010000
10000000
00000000
,
01000000
00000000
00010000
00001000
,
00000000
00022000
00000000
00033000
,
00000100
00000000
00001000
00000000
,
00000100
00000000
00001000
00000000
,
00000001
00000000
00000100
00000000
,
00000002
00000000
00000003
00000000
,
00001000
00000001
00002000
00003000
,
00000001
00000000
00000002
00000003
,
00000010
00000000
00000200
00000000
,
00000310
00000000
00001001
00000110
,
00000000
00001000
00000000
00000001
,
00000000
00000010
00000100
00000000
,
00010000
00010000
00000000
00000000
,
00001000
00001000
00000000
00000000
,
00100000
00000000
00100000
00000000
,
01000000
00000000
01000000
00000000
,
10000000
00010000
10000000
00000000
,
00010000
10000000
00010000
00000000
,
02000000
00000000
03100000
00000000
,
20000000
00000000
30000000
10000000
,
00020000
00000000
00030000
00010000
,
00200000
00000000
00300000
00000000
,
00011000
00000000
00000000
00000000
,
00000100
00000000
00001000
00000000
,
00000100
00000000
00001000
00000000
,
00000001
00000000
00000100
00000000
,
00000002
00000000
00000013
00000000
,
00001000
00000000
00000001
00000000
,
00001000
00000000
00000100
00000000
,
00020000
00000000
00031000
00000000
,
00001000
00010000
00022000
00033000
,
00100000
00000000
00010000
00000000
,
00010000
10000000
00010000
00000000
,
10000000
00000000
01000000
00000000
,
20000000
00000000
30100000
00000000
,
01000000
00000000
00010000
00000000
,
00100000
00000000
00001000
00000000
,
00010000
00000000
00001000
00000000
,
00011000
00000000
00000000
00000000
,
00002000
00000000
00000000
00003000
,
00020000
00000000
00000000
00030000
,
00001000
00000000
00010000
00000000
,
00011000
00000000
00000000
00000000
,
00022000
00000000
00000000
00000000
,
00033000
00000000
00000000
00000000
;

//--------------- dance-double - ----------------
#NOTES:
     dance-double:
     :
     Medium:
     3:
     0,0,0,0,0:
00000000
00000000
00000000
00001000
,
00010000
00001000
00000000
00010000
,
00000100
00000010
00000200
00000300
,
00001000
00000001
00001000
00000001
,
00000200
00000000
00000320
00000000
,
00001030
00000010
00020000
00030000
,
00001000
00000000
00010000
00001000
00020000
00000000
00030000
00000000
,
00001000
00100000
01000000
00100000
,
01000000
10000000
00010000
01000000
,
00100000
20020000
00000000
30030000
,
10000000
00100000
20000000
30000000
,
00010000
01000000
00020000
00030000
,
00100000
00001000
00010000
00000100
,
00000020
00000100
00000130
00000010
,
00000001
00000100
00000001
00000010
,
00000100
00010000
00002000
00013000
,
00001000
00100000
02000000
10000000
,
03100000
00000000
10010000
01100000
,
01000000
00000000
00010000
10000000
00010000
00000000
00000000
00000000
,
10000000
00010000
10000000
00000000
02000000
00000000
03000000
00000000
,
00100000
00001000
00100000
00001000
00000000
00000000
00010000
00000000
,
00000010
00010000
00000010
00010000
00000000
00000000
00000100
00000000
,
00000010
00000001
00000100
00001000
,
00022000
00000000
00033000
00000000
00010000
00001000
00000000
00010000
,
00000000
00100000
00100000
01000000
,
00010000
10000000
00010000
00000000
10000000
00000000
10000000
00000000
,
02000000
00000000
13000000
00010000
,
00110000
00000000
00000000
00011000
,
00001010
00000000
00000000
00011000
,
00000100
00000000
00000000
00001000
00000000
00000000
00000000
00002002
,
00000000
00000000
00003003
00000001
,
00000100
00000001
00001000
00000010
,
00010000
00001000
00010000
00001000
,
00200000
00300000
02000000
03000000
,
00100000
00200000
02000000
03300000
,
00100000
00100000
00001000
00001000
,
00100000
00001000
00010000
00000100
,
00000020
00000030
00000200
00000300
,
00000010
00000000
00002002
00003003
,
00001000
00000100
00002000
00003000
,
00000001
00000100
00000002
00000003
,
00000020
00000030
00000100
00010000
,
00001000
00010000
00022000
00033000
,
00100000
00100000
00020000
00030000
,
10000000
00100000
20000000
30000000
,
01000000
00100000
00010000
00000000
,
02000000
00000000
00001000
03001000
,
00010000
00000000
00000000
00000020
00000000
00000000
00000030
00000000
,
00001000
00000000
00000000
00200000
00000000
00000000
00300000
00000000
,
01000000
10000000
00010000
00000000
,
02000000
00000000
03100000
00000000
,
02200000
00000000
00000000
00000000
,
03300000
00000000
00000000
00000000
;

//--------------- dance-double - ----------------
#NOTES:
     dance-double:
     :
     Hard:
     5:
     0,0,0,0,0:
00000000
00000000
00000000
00000000
00000000
00000000
10000000
00010000
,
10000000
01000000
10000000
00010000
,
01000000
00010000
01000000
00000000
00001000
00000000
00010000
00000000
,
00000100
00000010
00000200
00000300
,
00001000
00000001
00002002
00003003
,
00000010
00000000
00000001
00000000
00000100
00000001
00000100
00000000
,
00000010
00000000
00001000
00000000
00000100
00010000
00000100
00000000
,
00010000
00001000
00100000
01000000
,
10000000
00100000
10000000
00000000
00010000
00100000
00010000
00000000
,
01000000
02200000
00000000
03300000
,
01000000
00010000
10000000
00000000
00100000
00000000
01000000
00000000
,
00010000
00010000
00200000
00301000
,
00010000
00000100
00001000
00000100
,
00001010
00001001
00000102
00001003
,
00000100
00010000
00001000
00000000
00100000
00010000
00100000
00000000
,
00010000
10000000
00010000
10000000
01000000
00000000
10000000
00000000
,
00010000
01000000
00200000
00000000
,
01300000
00000000
10010000
01100000
,
01000000
00000000
00010000
00100000
00010000
00000000
00100000
00001000
,
00100000
00001000
00022000
00033000
,
00010000
00000100
00010000
00000100
00000000
00000100
00010000
00000000
,
00001000
01000000
00001000
01000000
00000000
01000000
00001000
00000000
,
00100000
00010000
10000000
00100000
,
20020000
00000000
30030000
00000000
10000000
00010000
00000000
00100000
,
00000000
01000000
00010000
00000000
00001000
00000000
00010000
00000000
,
00000100
00001000
00000100
00000000
00000010
00000000
00000100
00000000
,
00001000
00000001
00000100
00000110
,
00002002
00000000
00003003
00001100
,
00022000
00000000
00033000
00110000
,
10010000
00000000
00000000
01000000
00000000
00000000
00002000
00020000
,
00000000
00000000
00033000
00000000
00001000
00000000
00010000
00000100
,
00010000
00000100
00000000
00000000
00010000
00000000
00001000
00000000
,
01000000
00100000
10000000
01000000
,
20000000
30100000
02000000
03010000
,
00200000
00301000
00020000
00031000
,
00010000
00000100
00010000
00000000
00000010
00000000
00000100
00000000
,
00000001
00000100
00000001
00000000
00000010
00000000
00000100
00000000
,
00002000
00003000
00000002
00000003
,
00000010
00000000
00000000
00001001
00002002
00000000
00003003
00000000
,
00000001
00000100
00001000
00100000
,
00010000
10000000
00100000
01000000
,
00010000
00100000
00010000
00000000
10000000
00000000
01000000
00000000
,
20000000
00100000
30020000
00130000
,
00002000
00000000
00013000
00000000
00000100
00001000
00000100
00000000
,
00000010
00000001
00000010
00000000
00000200
00000000
00000310
00000000
,
00000001
00000100
00000001
00000000
00001000
00000010
00000000
00010000
,
00002000
00013000
00010100
01001000
,
00200000
00000000
00001000
00002000
00300000
00000000
00013000
00000000
,
00000020
00000000
00010000
00020000
00000030
00000000
00031000
00000000
,
01001000
00000000
00010100
00000000
00010000
00001000
00000000
00010000
,
00001000
00000000
00000200
00000300
,
00002002
00000000
00000000
00000000
,
00003003
00000000
00000000
00000000
;
