#TITLE:MEGA CLIPART;
#SUBTITLE:;
#ARTIST:PEANUT BUTTER GAMER;
#TITLETRANSLIT:;
#SUBTITLETRANSLIT:;
#ARTISTTRANSLIT:;
#GENRE:;
#CREDIT:;
#MUSIC:MEGA CLIPART.ogg;
#BANNER:MEGA CLIPART.png;
#BACKGROUND:MEGA CLIPART-bg.png;
#CDTITLE:;
#SAMPLESTART:1.250;
#SAMPLELENGTH:15.000;
#SELECTABLE:YES;
#OFFSET:-0.205;
#BPMS:0.000=172.000;
#STOPS:;
#BGCHANGES:-0.075=MEGA CLIPART.avi=1.000=0=0=0=StretchNoLoop==CrossFade_Fastest==,
113.000=MEGA CLIPART-bg.png=1.000=0=0=1===CrossFade_Faster==,
99999.000=-nosongbg-=1.000=0=0=0=StretchNoLoop====
;
#FGCHANGES:;

//--------------- dance-single - ----------------
#NOTES:
     dance-single:
     :
     Beginner:
     1:
     0.212243,0.277331,0.173332,0,0,60,53,7,0,0,0,0.212243,0.277331,0.173332,0,0,60,53,7,0,0,0:
0000
0000
0000
0000
,
0001
0000
0001
0000
,
0001
0001
0001
0000
,
1000
0000
1000
0000
,
1000
1000
1000
0000
,
0010
0000
0010
0000
,
0010
0010
0010
0000
,
1001
0000
0000
0000
,
1001
0000
0000
0000
,
1000
0000
1000
0000
,
1000
1000
1000
0000
,
0001
0000
0001
0000
,
0001
0001
0001
0000
,
0100
0000
0100
0000
,
0100
0100
0100
0000
,
0110
0000
0000
0000
,
0110
0000
0000
0000
,
1000
0000
0100
0000
,
1000
0000
1000
0000
,
0001
0000
0100
0000
,
0001
0000
0001
0000
,
0010
0000
0000
0000
,
0010
0000
0000
0000
,
0100
0000
0010
0000
,
0100
0000
0000
0000
,
0100
0000
0000
0000
,
0100
0000
0000
0000
,
0010
0000
1001
1001
,
1001
0000
0000
0000
;

//--------------- dance-single - ----------------
#NOTES:
     dance-single:
     :
     Easy:
     4:
     0.275916,0.276093,0.024762,0,0,78,77,1,0,0,0,0.275916,0.276093,0.024762,0,0,78,77,1,0,0,0:
0000
0000
0000
0000
,
0001
1000
0001
0000
,
1000
0000
0100
0000
,
1000
0001
1000
0000
,
0001
0000
0010
0000
,
0100
0010
0100
0000
,
0010
0000
0010
0000
,
0001
0000
0000
0100
0000
0000
1000
0000
,
1000
0000
0000
0010
0000
0000
0001
0000
,
1000
0010
0001
0000
,
0100
0000
0010
0000
,
0001
0010
1000
0000
,
0100
0000
0001
0000
,
0010
0001
0001
0000
,
0010
1000
1000
0000
,
0100
0000
0000
1000
0000
0000
0100
0000
,
0010
0000
0000
0001
0000
0000
0010
0000
,
1000
1000
0001
0001
,
0010
0010
0010
0000
,
0001
0100
1000
0000
,
0001
0100
1000
0000
,
0010
0000
0010
0000
,
0010
0100
0010
0000
,
0100
0000
0100
0000
,
0001
1000
0010
0010
,
0100
0000
0001
0001
,
0100
0000
1000
1000
,
0010
0000
0100
0000
0000
0010
0000
1001
;

//--------------- dance-single - ----------------
#NOTES:
     dance-single:
     :
     Medium:
     6:
     0.406799,0.379627,0.173332,0,0,115,108,7,0,0,0,0.406799,0.379627,0.173332,0,0,115,108,7,0,0,0:
0000
0000
0000
0000
,
0001
0010
0001
1000
,
0010
1000
0100
0100
,
1000
0100
1000
0001
,
0100
0001
0010
0010
,
0001
1000
0001
1001
,
1000
0001
1000
1001
,
1000
0000
0100
1000
0000
0000
0001
0000
,
0001
0000
0100
0001
0000
0000
1000
0000
,
0010
1000
0100
1000
,
0010
0100
0001
0001
,
0010
0001
0100
0001
,
0010
0100
1000
1000
,
0010
0010
1000
1000
,
0001
0001
0100
0100
,
0001
0000
1000
0100
0000
0000
1100
0000
,
1000
0000
0001
0100
0000
0000
0101
0000
,
1000
1000
0001
0001
,
1000
0010
0001
0100
,
0010
1000
0100
0100
,
0010
0001
0100
0100
,
0001
0000
1001
0000
,
1000
0100
1001
0000
,
1000
1000
0001
0001
,
0010
0000
0100
0000
0010
0100
0010
0000
,
0001
0100
0100
0001
,
1000
0100
0100
1000
,
0010
1000
0001
0000
0100
0010
0000
0110
;

//--------------- dance-single - ----------------
#NOTES:
     dance-single:
     :
     Hard:
     8:
     0.505846,0.552185,0.470472,0,0,143,124,19,0,0,0,0.505846,0.552185,0.470472,0,0,143,124,19,0,0,0:
0000
0000
0000
0000
,
1000
0010
0001
0010
,
0100
0010
0100
0001
0000
1000
1000
0000
,
0001
1000
0010
0010
,
0100
1000
0001
0010
0000
0100
0100
0000
,
0010
1000
0010
0001
,
0100
0001
1000
0100
0000
0000
0000
0000
,
0100
0100
1000
0001
0000
0000
1001
0000
,
0100
0100
0001
1000
0000
0000
1001
0000
,
0000
0101
1100
0000
,
0010
1000
0000
0101
0000
0000
0000
0000
,
0000
1100
0101
0000
,
0010
0001
0000
1100
0000
0000
0000
0000
,
0000
0110
1001
0000
,
0010
0100
0000
1001
0000
0000
0000
0000
,
1000
0100
0010
0001
0000
1000
1000
0000
,
0001
0100
0010
1000
0000
0001
0001
0000
,
0010
1100
0010
0101
,
0010
0100
0010
0100
0001
1000
0001
0000
,
0110
0000
0010
0100
0010
0000
0110
0000
,
0001
1000
0100
0100
0010
0000
0010
0000
,
0010
0000
0100
0000
,
0001
0100
1000
0100
0010
0000
1001
0000
,
0001
0001
0001
0000
1000
1000
1000
0000
,
0010
0010
0100
0100
0010
0000
0100
0000
,
0001
0000
0100
0010
1000
0000
1010
0000
,
1000
0000
0100
0010
0001
0000
0011
0000
,
0010
0010
0100
0100
1000
0001
0000
1001
;

//--------------- dance-double - ----------------
#NOTES:
     dance-double:
     :
     Easy:
     5:
     0,0,0,0,0:
00000000
00000000
00000000
00000000
,
00001000
00010000
00000100
00010000
,
00001000
01000000
00100000
00000000
,
10000000
01000000
00010000
00001000
,
00100000
00001000
00010000
00000000
,
00000100
00000010
00000001
00000100
,
00001000
00010000
00000100
00000000
,
00000010
00000000
00000000
00000100
00000000
00000000
00011000
00000000
,
00010000
00000000
00000000
00001000
00000000
00000000
10010000
00000000
,
01000000
00010000
00000100
00001000
,
00000010
00000100
00000001
00000000
,
00001000
00000100
00010000
00100000
,
10000000
01000000
00010000
00000000
,
00001000
00100000
00010000
01000000
,
00001000
00000100
00000010
00000000
,
00001000
00000000
00000000
00001100
00000000
00000000
00011000
00000000
,
00010000
00000000
00000000
01010000
00000000
00000000
01100000
00000000
,
10000000
00100000
10000000
00000000
,
00010000
00100000
00010000
00000000
,
00001000
00000010
00001000
00000000
,
00000001
00000010
00000001
00000000
,
00000001
00000000
00000100
00000000
,
00001000
00000000
00000000
00000000
,
00010000
00000000
01000000
00000000
,
10000000
00000000
00000000
00000000
,
00100000
10000000
01000000
00010000
,
00001000
00000100
00000001
00000010
,
00000100
00000000
00000100
00000000
00000000
00011000
00000000
00011000
;
