#TITLE:METBLAST (I Did Not Cheat);
#SUBTITLE:from Windows 3.0 Multimedia Edition;
#ARTIST:Microsoft Windows MIDI;
#TITLETRANSLIT:;
#SUBTITLETRANSLIT:;
#ARTISTTRANSLIT:;
#GENRE:MIDI;
#CREDIT:8Chasey 2026;
#MUSIC:METBLAST (I Did Not Cheat).ogg;
#BANNER:METBLAST-bn.png;
#BACKGROUND:METBLAST-bg.png;
#CDTITLE:cdtitle;
#SAMPLESTART:20.31;
#SAMPLELENGTH:12;
#SELECTABLE:YES;
#OFFSET:0;
#BPMS:0.000=130
,186.000=127
,188.000=125
,204.000=126
,212.000=129
,220.000=130
,261.000=110
,264.000=130
;
#STOPS:;
#DISPLAYBPM:130;
#BGCHANGES:;
#FGCHANGES:;

//--------------- dance-single - 8Chasey ----------------
#NOTES:
     dance-single:
     8Chasey:
     Beginner:
     1:
     0,0,0,0,0:
0000
0000
0000
0000
,
0001
0000
0001
0000
,
0000
0000
1000
1000
,
1000
0000
0000
0000
,
0001
0000
0000
0000
,
0100
0000
0000
0000
,
1001
0000
0000
0000
,
0001
0000
0000
0000
,
1000
0000
0000
0000
,
0010
0000
0000
0000
,
0110
0000
0000
0000
,
0100
0000
0000
0000
,
0010
0000
0000
0000
,
1000
0000
0001
0000
,
1000
0000
0000
0000
,
0010
0000
0000
0000
,
0100
0000
0000
0000
,
0001
0000
1000
0000
,
0001
0000
0000
0000
,
1000
0000
1000
0000
,
1000
0000
0000
0000
,
0001
0000
0000
0000
,
1000
0000
0000
0000
,
0001
0000
0001
0000
,
0001
0000
0000
0000
,
1000
0000
0001
0000
,
1000
0000
0000
0000
,
0010
0000
0010
0000
,
0100
0000
0100
0000
,
0001
0000
1000
1000
,
0000
0000
0000
0000
,
0001
0000
0000
0000
,
1000
0000
0000
0000
,
0100
0000
0000
0000
,
1001
0000
0000
0000
,
1000
0000
0000
0000
,
0001
0000
0000
0000
,
0010
0000
0000
0000
,
0110
0000
0000
0000
,
1000
0000
1000
0000
,
0001
0001
0001
0000
,
0001
0000
0001
0000
,
1000
1000
1000
0000
,
0010
0000
0010
0000
,
0100
0100
0100
0000
,
0100
0000
0100
0000
,
0010
0010
0010
0010
,
0010
0000
0000
0000
,
0100
0000
0000
0000
,
0001
0000
0000
0000
,
1001
0000
0000
0000
,
1000
0000
1000
0000
,
0001
0000
0001
0000
,
0100
0000
0010
0000
,
0100
0000
0010
0000
,
0100
0000
0000
0000
,
0010
0000
0000
0000
,
1000
0000
0001
0000
,
1000
0000
0000
0000
,
0010
0000
0000
0000
,
0100
0000
0000
0000
,
0001
0000
1000
0000
,
0001
0000
0000
0000
,
0010
0000
0000
0000
,
0100
0000
0000
0000
,
1001
0000
0000
0000
;

//--------------- dance-single - 8Chasey ----------------
#NOTES:
     dance-single:
     8Chasey:
     Easy:
     3:
     0,0,0,0,0:
0000
0000
0000
0000
,
0001
0000
1000
0000
,
0010
0100
0000
0110
,
0100
0000
0000
0010
0000
0000
0000
0000
,
0010
0000
0000
0100
0000
0000
0000
0000
,
0001
0000
0000
1000
0000
0000
0000
0000
,
1000
0000
0000
1001
0000
0000
0000
0000
,
0100
0000
0000
0010
0000
0000
0000
0000
,
0010
0000
0000
0100
0000
0000
0000
0000
,
1000
0000
0000
0001
0000
0000
0000
0000
,
0100
0010
0100
0010
,
1000
0000
0000
1000
0000
0000
1000
0000
,
0001
0000
0000
0001
0000
0000
0001
0000
,
0200
0300
0020
0030
,
1001
0000
1000
0001
,
0100
0000
0000
0100
0000
0000
0100
0000
,
0010
0000
0000
0010
0000
0000
0010
0000
,
2000
3000
0002
0003
,
0110
0000
0010
0100
,
0001
0000
1000
0000
,
0001
0100
0001
0000
,
1000
0000
0001
0000
,
1000
0100
1000
0000
,
0010
0000
0100
0000
,
0010
0100
0010
0000
,
0100
0000
0000
0100
0000
0000
0010
0000
,
0100
0010
0100
0000
,
1001
0000
0001
0100
,
0001
0000
1000
0100
,
1000
0000
0010
0110
,
0000
0000
0000
0100
,
0001
0000
0000
0001
0000
0000
0001
0000
,
1000
0000
0000
1000
0000
0000
1000
0000
,
0020
0030
0200
0300
,
1001
0000
1000
0001
,
1000
0000
0000
1000
0000
0000
1000
0000
,
0001
0000
0000
0001
0000
0000
0001
0000
,
2000
3000
0002
0003
,
0110
0000
0100
0010
,
0100
0000
0010
0000
,
1000
0001
0000
1001
,
0001
0000
1000
0000
,
0010
0100
0000
0110
,
0010
0000
0100
0000
,
0001
1000
0000
1001
,
1000
0000
0001
0000
,
0100
0010
0000
0110
,
0010
0000
0000
0100
0000
0000
0000
0000
,
0100
0000
0000
0010
0000
0000
0000
0000
,
1000
0000
0000
0001
0000
0000
0000
0000
,
0001
0000
0000
1001
0000
0000
0000
0000
,
0010
0000
0000
0100
0000
0000
0000
0000
,
0100
0000
0000
0010
0000
0000
0000
0000
,
0001
0000
0000
1000
0000
0000
0000
0000
,
0010
0100
0010
0100
,
0001
0000
0000
0001
0000
0000
0001
0000
,
1000
0000
0000
1000
0000
0000
1000
0000
,
0020
0030
0200
0300
,
1001
0000
0001
1000
,
0010
0000
0000
0010
0000
0000
0010
0000
,
0100
0000
0000
0100
0000
0000
0100
0000
,
0002
0003
2000
3000
,
0110
0000
0100
0010
,
0100
0000
0000
1001
0000
0000
0000
0000
,
0001
0001
1000
1000
,
1001
0000
0000
0000
;

//--------------- dance-single - 8Chasey ----------------
#NOTES:
     dance-single:
     8Chasey:
     Medium:
     5:
     0,0,0,0,0:
0000
0000
0000
0000
,
0001
0000
0000
0001
0000
0000
0000
0000
1000
0000
0000
1000
0000
0000
0000
0000
,
0000
0000
0010
0000
0000
0100
0000
0000
0010
0000
0000
0000
0110
0000
0000
0000
,
0100
0000
0100
0002
0000
0000
0003
0000
,
1000
0000
0001
0020
0000
0000
0030
0000
,
0100
0000
0100
2000
0000
0000
3000
0000
,
0100
0000
0010
0200
0000
0000
0300
0000
,
1000
0000
0010
2000
0000
0000
3000
0000
,
0100
0000
0100
0020
0000
0000
0030
0000
,
0001
0000
0100
0002
0000
0000
0003
0000
,
0101
0000
0000
1100
0000
0000
1000
0001
,
1000
0000
1000
0010
0000
0000
1000
0000
,
0001
0000
0001
0100
0000
0000
0001
0000
,
0100
0000
0010
0100
0000
0000
0010
0000
,
1000
0000
0000
1001
0000
0000
0001
0000
,
0010
0000
0010
0001
0000
0000
0100
0000
,
0010
0000
0010
1000
0000
0000
0100
0000
,
1000
0000
0000
0001
0000
0000
0100
0000
,
0010
0000
0000
0110
0000
0000
0100
0000
,
0001
0000
0100
0000
0010
0000
0000
0010
,
0000
1000
0100
0100
,
1000
0000
0001
1000
0000
1000
0000
0001
,
0100
0000
0010
0000
0100
0010
0100
0000
,
0010
0000
1000
0000
0100
0000
0000
0100
,
0000
0010
0100
0010
,
0001
0000
0000
0001
0000
0000
1000
0000
,
0001
0000
0000
0000
1000
0000
0000
0000
0010
0000
0000
0010
0000
0000
0100
0000
,
0010
0000
0100
0000
0001
0100
0001
0000
,
0010
0000
0100
0000
1000
0100
1000
0000
,
0001
0000
0100
0000
0010
0000
1000
0020
,
0000
0130
0000
1001
,
0001
0000
0001
0010
0000
0000
0001
0000
,
1000
0000
1000
0100
0000
0000
1000
0000
,
0010
0000
0010
0100
0000
0000
0010
0000
,
1000
0000
0000
1001
0000
0000
0001
0000
,
1000
0000
1000
0010
0000
0000
1000
0000
,
0001
0000
0001
0100
0000
0000
0001
0000
,
0010
0000
0100
0010
0000
0000
0001
0000
,
0100
0000
0000
0110
0000
0000
0010
0000
,
1000
0000
0100
0000
0010
0100
0010
0000
,
0001
0001
0000
0000
1000
0010
1000
0000
,
0100
0010
0010
0100
,
1000
0000
0000
0100
0000
0000
0010
0100
0010
0100
0000
0000
,
0010
0001
1000
0000
0010
0000
0100
0010
,
0100
0000
0001
0000
1000
0100
1000
0000
,
0010
0100
0000
0100
0010
0000
1000
0001
,
0000
0001
1000
0001
1000
0000
1001
0000
,
0001
0000
0001
0020
0000
0000
0030
0000
,
0001
1000
0001
2000
0000
0000
3000
0000
,
0100
0000
1000
0200
0000
0000
0300
0000
,
1000
0001
1000
0002
0000
0000
0003
0000
,
0100
0000
0001
0100
0001
0000
0100
0000
,
0010
0000
1000
0010
1000
0000
0010
0000
,
0100
0000
0010
0100
0010
0000
0100
0000
,
1010
0000
0000
0011
0000
0000
0110
0000
,
0100
0000
0100
0010
0000
0000
0001
0000
,
0100
0000
0100
0010
0000
0000
1000
0000
,
0010
0000
0100
0010
0000
0000
0100
0000
,
0110
0000
0000
1001
0000
0000
1000
0000
,
0001
0000
0100
0001
0000
0100
0010
0000
,
1000
0000
0100
1000
0000
0100
0010
0000
,
0001
0000
0100
0010
0000
0000
1000
0000
,
1001
0000
0000
0110
0000
0000
1001
0000
,
0001
1000
0001
2000
0000
0000
3000
0000
,
1001
0000
0000
0110
0000
0000
0100
0000
,
0010
0200
0000
0000
0000
0000
0000
0000
,
0300
0000
0000
0000
;

//--------------- dance-single - 8Chasey ----------------
#NOTES:
     dance-single:
     8Chasey:
     Hard:
     7:
     0,0,0,0,0:
0000
0000
0000
0000
,
0001
0000
0000
0001
0000
0000
0100
0000
1000
0000
0000
1000
0000
0000
0100
0000
,
0000
0000
0010
0100
0000
0010
0000
0000
1000
0000
0001
0000
1001
0000
0000
0000
,
1000
1000
1000
0020
0000
0000
0000
0000
,
0130
0100
0100
0002
0000
0000
0000
0000
,
0013
0100
0010
0200
0000
0000
0000
0000
,
1300
0010
0100
2000
0000
0000
3000
0000
,
0001
0001
0001
0020
0000
0000
0000
0000
,
0130
0100
0100
2000
0000
0000
0000
3100
,
0100
0010
0100
0020
0000
0000
0000
0000
,
0031
0000
0000
0001
0000
0000
1000
0000
0000
1000
0000
0000
0001
0000
1000
0000
,
0001
0000
0100
0001
0000
0100
0010
0000
,
1000
0000
0100
1000
0000
0100
0010
0000
,
0010
0100
1000
0001
0000
0000
1001
0000
,
1000
0001
0100
0010
0000
0000
0110
0000
,
0010
0000
1000
0100
0000
1000
0001
0000
,
0100
0000
0001
0010
0000
0001
1000
0000
,
0010
0100
0001
1000
0000
1000
0001
0000
,
0100
0010
0000
0110
0000
0010
0100
0000
,
0001
0000
1001
0000
1000
0010
0000
1000
,
0000
0100
0010
0100
0010
0000
0110
0000
,
0100
1000
0001
1000
0000
0001
0100
0000
,
0001
0000
0100
0010
0100
0000
0010
1000
,
0000
0010
1000
0000
1000
0001
0000
1001
,
0000
1000
0010
1000
0001
0100
0001
0000
,
0010
0000
0000
0100
0000
0000
1000
0000
0000
0000
0001
0000
1000
0000
0000
0000
,
0001
0000
0100
0000
0001
0000
0000
0000
1000
0000
0000
0010
0000
0000
1000
0000
,
0100
0000
0110
0000
0010
0001
0010
0000
,
0001
0000
1000
0100
0000
1000
0001
0000
,
1000
0000
0001
0010
0001
0000
0100
0010
,
0000
0010
1000
0100
2000
0000
3001
0000
,
1000
0000
0010
1000
0000
0010
0100
0000
,
0001
0000
0010
0001
0000
0010
0100
0000
,
0010
0001
1000
0010
0000
0000
0110
0000
,
0100
0010
1000
0001
0000
0000
1001
0000
,
0001
0000
0100
0010
0000
1000
0100
0000
,
1000
0000
0010
0100
0000
0001
0010
0000
,
0001
1000
0010
0100
0000
0000
0101
0000
,
1010
0000
1000
0001
0000
0000
1001
0000
,
1000
0100
1000
0000
0001
0010
0001
0000
,
0100
0000
0010
0000
0000
0100
0000
0000
0010
0000
0000
0000
0110
0000
0000
0000
,
0100
0000
0000
1000
0000
0000
1000
0000
0100
0000
0000
0001
0000
0000
0001
0000
,
0000
0000
0000
0000
0000
0000
1000
0000
0000
0001
0000
0000
0000
0000
0000
1000
0000
0000
0000
0000
0000
0000
0000
0000
0001
0000
0000
0000
0010
0000
0000
0000
0100
0000
0000
0000
1000
0000
0000
0000
0010
0000
0000
0000
0100
0000
0000
0000
,
0001
0000
0000
0100
0001
0000
0000
0000
1000
0000
0000
0100
1000
0000
0100
0000
,
0010
0000
0100
0000
0000
0010
0000
0000
0100
0000
0000
0000
1001
0000
0000
0000
,
1000
0100
0000
1000
0001
0100
0001
0010
,
0000
0000
0100
0010
0000
0100
0000
0000
1000
0000
0001
0000
1001
0000
0000
0000
,
0001
1000
0001
2000
0000
0000
3010
0100
,
0001
0001
1000
0002
0000
0000
0003
0000
,
0010
0001
0001
0200
0000
0000
0000
0000
,
0310
1000
0001
0020
0000
0000
0000
0000
,
0130
1000
0100
2000
0100
0000
3100
0000
,
0010
0001
0010
0002
0010
0000
0013
0100
,
1000
0010
1000
0002
0100
0000
0103
0000
,
0010
0000
0000
0010
0000
0000
0100
0000
0000
0100
0000
0000
0001
0000
1000
0000
,
0001
0000
0100
0001
0000
0100
0010
0000
,
1000
0000
0100
1000
0000
0100
0010
0000
,
0010
0100
1000
0001
0000
0000
1001
0000
,
1000
0001
0100
0010
0000
0000
0110
0000
,
0010
0000
1000
0100
0000
1000
0001
0000
,
0100
0000
0001
0010
0000
0001
1000
0000
,
0100
0010
0100
0010
0000
0001
1000
0000
,
0010
0100
0000
0110
0000
0100
0010
0000
,
1000
0001
0010
0200
0000
0000
0000
0300
,
0010
0000
0000
0100
0000
0000
0010
0000
0000
0100
0000
0000
1000
0000
0001
0000
,
1001
2002
0000
0000
0000
3003
0000
0000
,
0100
0000
0000
0000
;

//--------------- dance-single - 8Chasey ----------------
#NOTES:
     dance-single:
     8Chasey:
     Challenge:
     9:
     0,0,0,0,0:
0000
0000
0000
0000
,
0001
0100
0001
0200
0000
0000
0310
0000
1000
0100
1000
0200
0000
0000
0310
0000
,
0000
0000
0001
1000
0000
0001
0000
0000
0010
0100
0010
0100
2000
0000
0000
0000
,
3100
1000
0100
0022
0000
0000
0033
0000
,
0001
0100
0001
2002
0000
0000
3003
0000
,
1000
0010
1000
0202
0000
0000
0303
0000
,
0001
0100
0010
0220
0000
0000
0330
0000
,
0100
0001
0100
2020
0000
0000
3030
0000
,
1000
0000
0100
0000
1000
0000
2002
0000
0000
0000
0000
0000
3003
0000
0001
0100
,
0001
0010
0001
2200
0000
0000
3300
0000
,
1000
0001
0000
1000
0001
0000
0100
0010
0000
0100
0010
0000
0100
0010
0100
0000
,
0001
0010
0001
1002
0000
0100
0103
0001
,
1000
0100
1000
1002
0000
0100
0103
0001
,
0010
0100
1000
1002
0000
0010
0013
0100
,
1000
0000
0100
0000
0010
0000
0001
1000
0002
0000
0010
0000
0013
0000
0001
0000
,
1000
0010
1000
2001
0000
0100
3100
0010
,
0001
0100
0001
2001
0000
3100
1000
0010
,
0100
0010
0100
0000
0001
0000
2001
0000
0000
0000
0010
0000
3010
0000
0100
0000
,
0001
0010
0002
2000
0003
3010
0110
0000
,
0100
0001
0010
0000
0001
1000
0000
1100
,
0000
0000
0100
0000
1000
0000
0001
1000
0001
0000
0100
0000
0001
0000
0010
0000
,
0100
0010
0100
0000
1000
0000
2000
0000
0001
0000
3001
0000
0010
0000
0001
0000
,
1000
0000
0001
1000
0001
0000
0100
0001
0100
0000
0010
0000
0110
0000
0100
0000
,
0001
0000
0010
0001
0020
0000
0100
0000
0130
0000
1000
0000
0001
0000
2001
0000
,
0000
0000
0100
0000
3100
0000
0010
0100
0010
0000
0001
0000
0001
0000
0000
0000
,
1001
0000
0000
1100
0000
0000
0101
0000
0000
0000
0001
0000
0010
0000
0001
0000
,
1000
0000
0100
1000
0100
0000
0010
0000
0001
0000
0000
1000
0001
0000
0010
0000
,
0100
0000
1000
0100
0010
0000
0001
0000
0200
0000
0001
0000
0301
0000
0000
0000
,
0010
0000
0100
0010
0100
0000
1000
0000
0001
0000
0100
0000
1000
0000
0100
0000
,
0002
0000
0010
0013
0001
1000
1010
0102
,
0000
0000
0013
0000
0100
0000
1000
0000
0001
0010
0100
1000
0001
0000
1001
0000
,
1000
0001
0010
0210
0000
1300
0010
0100
,
0001
0100
0010
2010
0000
3100
0001
0100
,
1000
0100
1000
0000
0001
0000
0021
0000
0000
0000
0130
0000
1000
0000
0001
0000
,
0100
0010
1000
1002
0000
0013
0001
1000
,
0100
1000
0010
0210
0000
0301
0010
0100
,
1000
0001
1000
1020
0000
0130
0001
0010
,
0001
1000
0001
0000
0100
0000
0120
0000
0000
0000
1030
0000
0100
0000
0010
0000
,
0001
0000
0002
0000
0000
0000
2000
0000
0000
0000
3003
0000
1000
0001
0000
0000
,
1000
0000
0010
1000
0010
0000
0100
0000
0001
0000
1000
0001
1000
0000
0100
0000
,
1000
0000
0001
0100
0000
0010
0000
0000
1000
0001
1000
0001
0020
0000
0000
0000
,
0130
1000
0100
1000
0000
0000
0010
0000
0100
0001
0100
0001
0000
0000
0010
0000
,
0100
0000
0000
0000
0000
0000
0010
0000
0000
0001
0000
0000
0000
0000
0000
1000
0000
0000
0000
0000
0000
0000
0000
0000
1000
0000
0000
0000
0100
0000
0000
0000
1000
0000
0000
0000
0001
0000
0000
0000
0001
0000
0000
0000
0001
0000
0000
0000
,
1000
0000
0001
0000
2000
0000
0000
0000
0100
0000
0000
3100
0000
0000
1000
0000
,
0010
0000
0100
0001
0000
0100
0000
0000
0010
1000
0010
1000
0002
0000
0000
0000
,
0013
0000
0001
2000
0000
0000
0100
0000
3100
0010
0100
0010
0002
0000
0000
0000
,
0103
0000
0001
1000
0000
0001
0000
0000
1000
0010
1000
0010
0200
0000
0000
0000
,
0301
0000
0010
0000
0100
0000
2200
0000
0000
0000
0000
0000
3300
0000
0000
0100
,
1000
0000
0001
0000
1000
0002
2000
0000
0000
0000
0000
3003
0000
0000
0000
0000
,
0001
0100
0001
0000
1000
0000
2020
0000
0000
0000
0000
0000
3030
0000
0000
0000
,
1000
0001
0010
0220
0000
0000
0330
0000
,
0001
1000
0001
0021
0001
0000
0031
0000
,
1000
0000
0001
0000
1000
0000
1200
0000
1000
0000
0000
0000
1300
0000
0001
0100
,
0010
1000
0010
2010
0100
0000
3100
0000
,
1000
0100
0000
0010
0001
0000
0010
0100
1000
0100
1000
0000
0001
0100
0001
0000
,
1000
0100
0010
0012
0100
0103
0010
0100
,
0001
0010
0100
2100
0010
3010
0100
0001
,
0010
0001
0010
0000
0100
0000
0120
0000
0001
0000
0031
0000
1000
0000
0010
0000
,
0100
0001
0010
0210
1000
1300
0010
0100
,
0001
0010
0100
2100
0010
3010
0100
0001
,
1000
0100
0010
0012
0100
0103
0010
0100
,
0001
0100
0001
0000
1000
0000
1020
0000
0100
0000
0130
0000
0010
0000
1000
0000
,
0001
0010
0100
0120
0000
0100
0130
1000
,
0001
0010
0100
2200
0000
0000
0000
3300
,
1000
0100
0000
1000
0100
0000
0010
0001
0000
0010
0001
0000
0100
0010
0100
0000
,
0101
2002
0000
0000
0000
0000
0000
3003
,
0100
0000
0000
0000
;

//--------------- dance-double - 8Chasey ----------------
#NOTES:
     dance-double:
     8Chasey:
     Easy:
     3:
     0,0,0,0,0:
00000000
00000000
00000000
00000000
,
00001000
00000000
00010000
00000000
,
00000010
00000100
00000000
00000110
,
00000100
00000000
00000000
00000010
00000000
00000000
00000000
00000000
,
00000010
00000000
00000000
00000100
00000000
00000000
00000000
00000000
,
00001000
00000000
00000000
00010000
00000000
00000000
00000000
00000000
,
00010000
00000000
00000000
00011000
00000000
00000000
00000000
00000000
,
00000100
00000000
00000000
00000010
00000000
00000000
00000000
00000000
,
00000010
00000000
00000000
00000100
00000000
00000000
00000000
00000000
,
00010000
00000000
00000000
00001000
00000000
00000000
00000000
00000000
,
01000000
00100000
01000000
00100000
,
10000000
00000000
00000000
10000000
00000000
00000000
10000000
00000000
,
00010000
00000000
00000000
00010000
00000000
00000000
00010000
00000000
,
00100000
00000000
00000000
01000000
00000000
00000000
00100000
00000000
,
01000000
00000000
00000000
01000000
00000000
00000000
00000000
00000000
,
00010000
00000000
00000000
00010000
00000000
00000000
00010000
00000000
,
00001000
00000000
00000000
00001000
00000000
00000000
00001000
00000000
,
00000100
00000000
00000000
00000010
00000000
00000000
00000100
00000000
,
00000010
00000000
00000000
00000010
00000000
00000000
00000000
00000000
,
00001000
00000100
00001000
00000000
,
00000100
00000100
00010000
00000000
,
00001000
00010000
00001000
00000000
,
00100000
00100000
00010000
00000000
,
01000000
00000000
00100000
00000000
,
01000000
00100000
01000000
00000000
,
00010000
00000000
00000000
00010000
00000000
00000000
10000000
00000000
,
10000000
00000000
01000000
00000000
,
01100000
00000000
00100000
00010000
,
00100000
00000000
01000000
10000000
,
01000000
00000000
10000000
10010000
,
00000000
00000000
00000000
00010000
,
01000000
00000000
00000000
01000000
00000000
00000000
01000000
00000000
,
00100000
00000000
00000000
00100000
00000000
00000000
00100000
00000000
,
10000000
00000000
00000000
00010000
00000000
00000000
10000000
00000000
,
00001000
00000000
00000000
00010000
00000000
00000000
00000000
00000000
,
00000100
00000000
00000000
00000100
00000000
00000000
00000100
00000000
,
00000010
00000000
00000000
00000010
00000000
00000000
00000010
00000000
,
00000001
00000000
00000000
00001000
00000000
00000000
00000001
00000000
,
00010000
00000000
00000000
00001000
00000000
00000000
00000000
00000000
,
01000000
00000000
00100000
00000000
,
10000000
00010000
00000000
10010000
,
00010000
00000000
10000000
00000000
,
01000000
00100000
00000000
00011000
,
00010000
00000000
00001000
00000000
,
00000100
00000010
00000000
00000110
,
00000100
00000000
00000010
00000000
,
00001000
00000001
00000000
00001001
,
00000001
00000000
00000000
00001000
00000000
00000000
00000000
00000000
,
00010000
00000000
00000000
10000000
00000000
00000000
00000000
00000000
,
01000000
00000000
00000000
00100000
00000000
00000000
00000000
00000000
,
00001000
00000000
00000000
00011000
00000000
00000000
00000000
00000000
,
00010000
00000000
00000000
00001000
00000000
00000000
00000000
00000000
,
00001000
00000000
00000000
00010000
00000000
00000000
00000000
00000000
,
00000100
00000000
00000000
00000010
00000000
00000000
00000000
00000000
,
00000001
00001000
00000001
00001000
,
00000100
00000000
00000000
00000100
00000000
00000000
00000100
00000000
,
00000010
00000000
00000000
00000010
00000000
00000000
00000010
00000000
,
00000002
00000003
00002000
00003000
,
00001001
00000000
00000100
00001000
,
00010000
00000000
00000000
00010000
00000000
00000000
00010000
00000000
,
00001000
00000000
00000000
00001000
00000000
00000000
00001000
00000000
,
00200000
00300000
02000000
03000000
,
10010000
00000000
00000000
00000000
,
10000000
00000000
00000000
10010000
00000000
00000000
00000000
00000000
,
00010000
00010000
10000000
10000000
,
10010000
00000000
00000000
00000000
;
