#TITLE:MBAO;
#SUBTITLE:;
#ARTIST:Charlles;
#TITLETRANSLIT:;
#SUBTITLETRANSLIT:;
#ARTISTTRANSLIT:;
#GENRE:;
#CREDIT:8Chasey 2025;
#MUSIC:MBAO.ogg;
#BANNER:;
#BACKGROUND:;
#CDTITLE:;
#SAMPLESTART:142.8;
#SAMPLELENGTH:12;
#SELECTABLE:YES;
#OFFSET:0.009;
#BPMS:0.000=121.000;
#STOPS:159.000=1.983;
#BGCHANGES:4=MBAO.avi=1.000=0=0=0=StretchNoLoop==CrossFade==,
415.25=MBAO-bg.png=1.000=0=0=0=====,
99999.000=-nosongbg-=1.000=0=0=0=StretchNoLoop====
;

//--------------- dance-single - 8Chasey ----------------
#NOTES:
     dance-single:
     8Chasey:
     Beginner:
     1:
     0,0,0,0,0:
0000
0000
0000
0000
,
0000
0000
0000
0000
,
0000
0000
0000
0000
,
0000
0000
0000
0000
,
0000
0000
0000
0000
,
0000
0000
0000
0000
,
0000
0000
0000
0000
,
0000
0000
0000
0000
,
1000
0000
0000
0000
,
1000
0000
0000
0000
,
0001
0000
0000
0000
,
0001
0000
0000
0000
,
0100
0000
0000
0000
,
0100
0000
0000
0000
,
0010
0000
0000
0000
,
0010
0000
0000
1000
,
1000
0000
0000
0001
,
0001
0000
0000
0000
,
0001
0000
0000
0000
,
0001
0000
0000
0000
,
0000
0000
0000
0000
,
1000
0000
0000
0000
,
1000
0000
0000
0000
,
1000
0000
0000
0000
,
0000
0000
0000
0000
,
0001
0000
0000
0000
,
1000
0000
0000
0000
,
0001
0000
0000
0000
,
0000
0000
0000
0000
,
1000
0000
0000
0000
,
0001
0000
0000
0000
,
1000
0000
0000
0000
,
0010
0000
0000
0000
,
0110
0000
0000
0000
,
0100
0000
0100
0000
,
0001
0000
0000
0100
,
0000
0000
0000
0000
,
0110
0000
0000
0000
,
0010
0000
0010
0000
,
1000
0000
0000
0010
,
0010
0000
0000
0000
,
0100
0000
0000
0000
,
0010
0000
0100
0000
,
0010
0000
0000
0000
,
0100
0000
0000
0000
,
0010
0000
0000
0000
,
0100
0000
0010
0000
,
0100
0000
0000
0000
,
0001
0000
0000
0000
,
1000
0000
0000
0000
,
0001
0000
1000
0000
,
0001
0000
0000
0000
,
1000
0000
0000
0000
,
0001
0000
0000
0000
,
1000
0000
0001
0000
,
1000
0000
0000
0000
,
0001
0000
0000
0000
,
0001
0000
0000
0000
,
0001
0000
0000
0000
,
0000
0000
0001
0000
,
1000
0000
0000
0000
,
1000
0000
0000
0000
,
1000
0000
0000
0000
,
0000
0000
0001
0000
,
0100
0000
0100
0000
,
0100
0000
0100
0000
,
0010
0000
0010
0000
,
0010
0000
0010
0000
,
1000
0000
1000
0000
,
1000
0000
1000
0000
,
0001
0000
0001
0000
,
0001
0000
0001
0000
,
0000
0000
0000
0000
,
1000
1000
1000
0000
,
1000
0000
0000
0000
,
0001
0001
0001
0000
,
0001
0000
0000
0000
,
0100
0100
0100
0000
,
0100
0000
0010
0000
,
0100
0000
0010
0000
,
1000
0000
1000
0000
,
0001
0000
0001
0000
,
1000
0000
0001
0000
,
1000
0000
0001
0000
,
0100
0000
0100
0000
,
0010
0000
0010
0000
,
0100
0000
0010
0000
,
0100
0000
0010
0000
,
0010
0000
0000
0000
,
0100
0000
0000
0000
,
0010
0000
0100
0000
,
0010
0000
0000
0000
,
0100
0000
0000
0000
,
0010
0000
0000
0000
,
0100
0000
0010
0000
,
0100
0000
0010
0010
,
0010
0000
0000
0000
,
0000
0000
0000
0000
,
0000
0000
0000
0000
,
0000
0000
0100
0100
,
0100
0000
0000
0000
,
0000
0000
0000
0000
,
0000
0000
0000
0000
,
0001
0001
0001
0001
;

//--------------- dance-single - 8Chasey ----------------
#NOTES:
     dance-single:
     8Chasey:
     Easy:
     3:
     0,0,0,0,0:
0000
0000
0000
0000
,
0000
0000
0000
0000
,
0000
0000
0000
0000
,
0000
0000
0000
0000
,
0000
0000
0000
0000
,
0000
0000
0000
0000
,
0000
0000
0000
0000
,
0000
0000
0000
0000
,
0000
0000
0000
0000
,
1000
0000
0001
1000
,
0001
0000
1000
0100
,
1000
0000
0001
0100
,
0001
0000
0010
0100
,
0000
0110
0000
0100
,
0010
0000
0001
0001
,
0100
0000
1000
1000
,
0100
0000
0010
0010
,
0220
0000
0330
0000
,
2000
0000
3100
1000
,
0001
0002
0000
0103
,
0020
0000
0130
0010
,
2000
3000
0002
0003
,
0020
0030
0200
0300
,
1000
0010
1000
0000
,
0001
0100
0001
0000
,
1000
0000
0010
1000
,
0001
0000
0100
0001
,
2000
0000
3001
0000
,
0002
0000
1003
0000
,
0010
1000
0010
0000
,
0100
0001
0100
0000
,
0020
0000
0000
0030
,
0200
0000
0000
0300
,
1001
0010
0001
0001
,
1000
0100
1000
1000
,
0010
0100
0010
0110
,
0000
1000
0001
0000
,
1001
0010
1000
1000
,
0001
0100
0001
0001
,
0010
0100
0010
0110
,
2002
3003
0001
0100
,
0001
0001
1000
0000
,
0010
0000
1000
0100
,
1000
1000
0001
0000
,
0220
0330
0001
0010
,
0100
0000
1000
0000
,
0010
0000
1000
0010
,
0100
0000
0001
0000
,
2002
3003
1000
0010
,
1000
1000
0100
0000
,
0010
0000
0001
0010
,
0001
0001
0100
0000
,
0220
0330
0010
1000
,
0001
0000
0100
0000
,
0001
0000
0010
0001
,
1000
0000
0100
0000
,
2000
0000
3010
0000
,
1000
0001
1000
0000
,
0002
0000
0100
0000
,
0103
0000
0010
0100
,
0020
0000
1030
0000
,
0001
1000
0001
0000
,
0200
0000
0010
0000
,
0310
0000
0100
0000
,
0001
0100
0001
0000
,
0100
0001
0100
0000
,
0001
1000
0001
0000
,
1000
1000
0001
0000
,
1000
0010
1000
0000
,
0010
1000
0010
0000
,
1000
0001
1000
0000
,
0002
0000
0000
0003
,
1001
0000
1000
0000
,
0001
1000
0001
0000
,
0010
0010
0100
0100
,
1000
0001
1000
0001
,
2000
3000
0100
1000
,
0002
0003
0100
0001
,
0020
0030
0200
0300
,
0020
0000
0030
0000
,
1000
0000
0001
1000
,
0001
0000
0100
0001
,
0100
0000
0010
0100
,
0010
0000
1001
0000
,
0001
1000
0001
1000
,
0010
0000
0100
0000
0001
1000
0001
1000
,
0001
0001
1000
1000
,
0010
0000
0110
0000
,
2002
3003
1000
0000
,
0010
1000
0010
0000
,
0100
0001
0100
0000
,
0001
0000
1000
0000
,
0101
0000
1100
0000
,
0010
0100
0010
0100
,
0010
1000
0001
0100
,
0220
0330
0000
0001
,
0002
0000
0000
0003
,
2000
0000
0000
3000
,
0020
0000
0000
0030
,
0100
0000
0010
0000
,
2000
0000
0000
3000
,
0002
0000
0000
0003
,
0200
0000
0000
0300
,
0010
0100
0010
1001
;

//--------------- dance-single - 8Chasey ----------------
#NOTES:
     dance-single:
     8Chasey:
     Medium:
     6:
     0,0,0,0,0:
0000
0000
0000
0000
,
0000
0000
0000
0000
,
0000
0000
0000
0000
,
0000
0000
0000
0000
,
0000
0000
0000
0000
,
0000
0000
0000
0000
,
0000
0000
0000
0000
,
0000
0000
0000
0000
,
0000
0000
0000
0000
,
1000
0000
0001
0000
0100
0001
0100
0000
,
0001
0000
1000
0000
0010
1000
0010
0000
,
0100
0000
0001
0000
0010
0100
0010
0000
,
0100
0000
1000
0000
0010
0100
0010
0000
,
0100
0000
0101
0000
0001
0010
0001
1000
,
0100
0000
1100
0000
1000
0010
1000
0001
,
0100
0000
0010
0000
1000
0100
0010
0010
,
0100
0000
0010
0000
0001
0100
0010
0010
,
0200
0001
0301
0010
,
0200
1000
1300
0010
,
1000
0100
1000
0000
0001
0000
0100
0002
,
0010
0000
0100
0000
1003
0000
0010
1000
,
0020
0000
1030
0100
2000
0000
3010
0100
,
0002
0000
0103
0010
0200
0000
0310
0000
,
1000
0000
0100
0000
1000
0010
1000
0000
,
0001
0000
0100
0000
0001
0010
0001
0000
,
1000
0000
0010
1000
0100
0000
1000
0000
,
0001
0000
0010
0001
0200
0000
0310
0000
,
0110
0000
0100
0000
0001
0010
0001
0000
,
0010
0000
0100
0000
1000
0010
1000
0000
,
0100
0000
0001
0100
1000
0000
0010
0000
,
0100
0000
1000
0100
0001
0000
0010
0000
,
0001
0100
0001
0000
1000
0000
0020
0000
,
0200
0000
0000
0330
,
0110
0000
0100
0001
0200
0000
0301
0000
,
0020
0000
0130
0000
1000
1000
0010
1000
,
0001
0000
0010
0000
0001
0000
2002
3003
,
2000
0000
0100
0000
0001
0000
3001
0010
,
0001
0000
0100
0010
0100
0000
0020
0000
,
1030
0000
0100
1000
0001
0001
1000
0000
,
0002
0100
1003
1001
,
0110
0010
0000
0100
0001
0100
0001
0000
,
0010
0000
0001
0000
1000
0100
1000
0000
,
0010
1000
0010
0000
0100
0001
0100
0000
,
0001
0000
1000
0000
0010
0100
0010
0000
,
0110
0100
0000
0010
1000
0010
1000
0000
,
0100
0000
1000
0001
0100
0001
0010
0000
,
0100
1000
0100
0000
1000
0010
1000
0000
,
0001
0000
0100
0000
0010
0010
0100
0000
,
1001
1000
0000
0010
1000
0010
1000
0000
,
0100
0000
1000
0001
1000
0000
0001
0000
,
0010
0001
0010
0000
0100
1000
0100
0000
,
1000
0000
0001
0000
1000
0001
1000
0000
,
1001
0001
0000
0100
0001
0100
0001
0000
,
1000
0100
0010
0000
0100
0000
1000
0000
,
0001
0100
0010
0000
0100
0000
0001
0000
,
1000
0010
1000
0000
0010
0000
0100
0000
,
0001
0000
0010
0000
0001
0000
0010
0000
0000
0001
0000
0000
,
1000
0010
1000
0100
0000
1000
0000
0002
,
0000
0000
0100
0000
0000
0000
0103
0010
,
0100
0010
0000
1000
0000
1000
0001
0000
,
1000
0000
0010
0000
1000
0000
0010
0000
0000
1000
0000
0000
,
0001
0010
0001
0100
0000
0001
0000
2000
,
0000
0100
0000
3100
,
0010
0001
0000
1000
0010
0100
0010
0100
,
0010
1000
0100
0101
,
0010
0001
0100
1100
,
1000
0000
0010
0000
0100
0001
0010
0000
,
0001
0000
0010
0000
0100
1000
0010
0000
,
0100
0000
0101
0000
0001
0010
1000
0010
,
0100
0000
1100
0000
1000
0010
0001
0010
,
0100
0000
0110
0000
0010
1000
0001
0000
,
0200
0010
0020
0330
,
1000
0000
0100
0000
1000
0001
1000
0000
,
0001
0010
0001
0010
0100
1000
0100
1000
,
0001
0010
0100
1000
,
0010
0100
0010
0000
0100
0010
0100
0000
,
0001
0000
0100
0000
1000
0100
0001
0000
,
1000
0000
0100
0000
0001
0100
1000
0000
,
0010
1000
0010
0000
0100
0000
0001
0000
,
0010
0001
0010
0000
0100
0000
1000
0000
,
0001
0000
1000
0100
1000
1000
0001
0000
,
1000
0000
1001
0000
0001
0010
0001
0000
,
0100
0000
0001
0001
1000
0001
1000
0000
,
0001
0000
0000
0001
0000
0000
0000
0000
1000
0000
0001
0000
1000
0000
0000
0000
,
0001
1000
0001
1010
,
0001
0000
1000
0000
0001
0000
1000
0000
0001
1000
0010
0000
1000
0001
0100
0000
,
0001
0100
0010
1000
0001
0100
0001
1000
,
0100
0000
0001
0000
0000
0001
0000
0000
1000
0000
0002
0000
0003
0000
0000
0000
,
1001
1000
0000
0010
1000
0010
1000
0000
,
0100
1000
0100
0000
1000
0000
0001
0000
,
0100
0001
0100
0000
0001
0000
1000
0000
,
0010
0000
0100
0000
0010
0100
0010
0100
,
0001
0010
0001
0100
0001
1000
0010
0000
,
1100
0101
1002
0013
,
1000
0010
1000
0000
0001
0100
0001
0000
,
1001
0000
0000
1001
0000
0000
0010
0000
0100
0000
0000
0000
0101
0000
0000
0000
,
2010
0000
3001
0010
,
0002
0000
1003
0100
,
0020
0000
0130
1000
,
0200
0000
0000
0000
1300
0001
1000
0001
,
2000
0000
3010
0100
,
0002
0000
0013
0100
,
0020
0000
0031
0100
,
0001
0100
0001
0100
0010
1000
0010
1000
;

//--------------- dance-single - 8Chasey ----------------
#NOTES:
     dance-single:
     8Chasey:
     Hard:
     9:
     0,0,0,0,0:
0000
0000
0000
0000
,
0000
0000
0000
0000
,
0000
0000
0000
0000
,
0000
0000
0000
0000
,
0000
0000
0000
0000
,
0000
0000
0000
0000
,
0000
0000
0000
0000
,
0000
0000
0000
0000
,
0000
0000
0000
0000
,
1000
0000
0001
0100
0001
0001
0010
0000
,
0001
0000
1000
0100
1000
1000
0010
0000
,
0100
0000
0001
0010
0001
0001
1000
0000
,
0100
0000
1000
0010
1000
1000
0001
0000
,
0010
0000
0000
0000
0110
0000
0000
0000
0100
0000
1000
0100
1000
0000
0001
0100
,
0001
0000
0010
0001
1000
0010
0110
0100
,
0110
0000
0010
1000
0100
1000
1001
0001
,
1001
0000
1000
0100
1000
0010
0101
0001
,
2100
0000
0010
0010
0001
0000
3010
0100
,
0002
0000
0010
0010
1000
0000
0103
0010
,
1000
0000
0100
0000
0020
0000
0000
0000
0001
0000
0000
0000
0130
0000
1000
0100
,
1000
0001
0100
0001
0010
0100
1000
0010
,
0200
0000
0000
0000
0301
0000
0010
0001
0000
0010
0001
0000
1000
0000
0100
1000
,
0200
0000
0000
0000
1300
0000
0010
1000
0000
0010
1000
0000
0001
0000
0010
0001
,
0020
0000
0000
0000
0130
0000
1000
0001
0000
1000
0001
0000
0100
0000
0010
0100
,
0020
0000
0000
0000
1030
0000
0001
1000
0000
0001
1000
0000
0100
0000
0010
0000
,
0002
0000
0100
0000
0100
0000
1003
0000
0010
1000
0010
0000
1000
0000
0100
0000
,
2000
0000
0100
0000
0100
0000
3001
0000
0010
0001
0010
0000
0001
0000
0100
0000
,
0020
0000
0000
0000
0130
0000
0001
0010
0000
0001
0010
0000
0100
0000
0010
0100
,
0020
0000
0000
0000
0130
0000
1000
0010
0000
1000
0010
0000
0100
0000
0010
0100
,
0020
0000
1000
0000
1000
0000
0130
0001
0000
0100
0001
0000
0010
0000
0100
0000
,
0020
0000
0001
0000
0001
0000
0130
1000
0000
0100
1000
0000
0010
0000
0100
0000
,
0001
0000
0010
0000
1000
0000
0010
0100
0000
0010
0100
0000
1000
0000
0001
0000
,
0200
0000
0020
0000
0030
0000
0310
0100
,
2002
0000
3003
0000
0001
0000
0100
0010
0200
0000
0310
0000
1000
0000
0100
0000
,
0100
0000
1000
0000
0001
0100
0001
0000
0010
0000
0100
0010
0100
0000
1000
0000
,
0002
0000
0203
0000
0301
0000
0010
0100
1000
0000
0001
0000
2002
0000
3003
0000
,
2000
0000
0100
0100
0100
3100
1000
0001
,
2002
0000
3003
0000
0001
0000
1000
0010
2000
0000
3100
0000
0010
0000
0100
0000
,
0100
0000
0001
0000
0100
1000
0100
0000
1000
0000
0001
0010
0001
0000
1000
0000
,
0020
0000
2030
0000
3100
0000
0010
0001
0100
0000
0010
0000
0110
0000
0100
0000
,
0001
1001
1000
0100
0100
1000
0010
1000
,
0001
0100
0001
0000
0010
0000
0001
0000
1000
0000
0010
0000
0100
0000
0010
0000
,
1000
0100
1000
0000
0010
0000
0100
0000
0001
0100
0001
0000
0010
0000
0100
0000
,
0010
0100
0010
0000
0100
0000
1000
0000
0001
0000
0001
0000
1000
0000
1000
0000
,
1001
0000
1001
0000
0001
0000
0100
0000
0010
0100
0010
0000
2000
0000
0000
0000
,
0100
0000
3100
0000
1000
0010
0000
1000
0010
0000
1000
0000
0001
0000
0101
0000
,
0101
0000
0100
0000
0010
0000
1000
0000
0001
0100
0000
0001
0100
0000
0110
0000
,
0010
0100
0000
0010
0100
0000
0010
0000
1000
0100
1000
0000
0002
0000
0000
0000
,
0013
0110
0100
1000
1000
0010
1000
0001
,
0100
0001
0100
0000
0001
0000
0010
0000
0100
0000
0010
0000
0100
0000
1000
0000
,
0100
1000
0100
0000
1000
0000
0010
0000
0100
0010
0100
0000
0010
0000
1000
0000
,
0001
1000
0001
0000
1000
0000
0010
0000
1000
0000
1000
0000
0001
0000
0001
0000
,
1001
0000
1001
0000
1000
0000
0010
0000
0100
0010
0100
0000
0002
0000
0000
0000
,
0010
0000
0013
0000
0001
0100
0000
0001
0100
0000
0010
0000
1000
0000
1100
0000
,
1100
0000
0100
0000
0010
0000
0001
0000
0100
0001
0000
0100
0001
0000
0100
0000
,
0010
1000
0000
0010
1000
0000
0010
0000
1000
0000
0100
0000
0020
0000
0000
0000
,
0031
0000
0000
0000
0100
0000
0000
0000
0001
0000
0000
0000
1000
0000
0000
0100
0000
0000
1000
0000
0000
0010
0000
0000
,
0100
0000
0100
0000
0001
0000
0010
0000
0001
0100
0000
0001
1000
0000
0020
0000
,
0000
0000
0100
0000
0000
0000
1030
0100
0000
1000
0100
0000
0010
0000
0001
0000
,
0100
0000
0001
0000
0000
0000
1000
0000
0010
0100
0000
0010
0100
0000
0001
0000
,
1000
0000
0000
0000
0100
0000
0000
0000
1000
0000
0000
0000
0001
0000
0000
0010
0000
0000
0001
0000
0000
0100
0000
0000
,
0010
0000
0010
0000
1000
0000
0100
0000
0010
0001
0000
0100
0001
0000
2000
0000
,
0000
0000
0010
0000
0000
0000
3001
0100
0000
0001
0100
0000
0010
0000
1000
0000
,
0100
0000
0010
0000
0100
0000
1000
0000
0010
0100
0000
0010
0100
0000
0001
0000
,
0010
0000
0000
0010
0001
0000
0100
0000
0001
1000
0000
0000
1100
0000
0000
0000
,
0100
0000
0000
1000
0010
1000
0001
0000
0100
0001
0000
0000
0101
0000
0000
0000
,
0001
0000
0000
0001
0010
0000
0001
0000
1000
0010
0000
0000
1010
0000
0000
0000
,
1000
0000
0000
1000
0010
1000
0001
0000
0100
0001
0000
0000
0011
0000
0000
0000
,
0010
0000
0000
0010
0100
0000
1000
0000
0010
0100
0000
0000
0110
0000
0000
0000
,
0100
0000
0001
0100
0001
0010
0000
0001
1000
0001
0000
0000
1001
0000
0000
0000
,
0001
0000
0000
0100
1000
0000
0100
0000
0010
1000
0000
0000
1001
0000
0000
0000
,
0110
1001
0110
1001
,
0001
0010
0001
1000
0100
1000
0010
0100
,
0001
0010
0001
0000
0100
0000
0010
0100
0010
0000
1000
0100
1000
0000
0001
0000
,
0010
0000
0010
0000
0001
0000
0100
0000
0010
0000
1000
0000
0100
0000
0010
0100
,
0010
0010
0100
0100
1000
0001
1000
0001
,
2000
3200
0302
2003
3020
0032
0103
0110
,
0020
2030
3200
0320
0032
0203
0310
0110
,
1000
1100
0100
0110
0010
0011
0001
1001
,
0001
0101
0100
0110
0010
1010
1000
1001
,
0001
0100
0001
0000
0010
0000
0010
0000
0001
0000
1000
0001
2000
0000
0000
0000
,
3100
0000
1000
0000
0010
0000
0000
0010
1000
0000
0001
1000
0002
0000
0000
0000
,
0103
0000
0010
0000
0100
0000
0100
0000
0010
0000
0100
0001
0200
0000
0000
0000
,
0310
0000
1000
0010
0000
1000
0000
1000
0001
0000
0010
0001
0020
0000
0000
0000
,
0031
0001
1000
1000
0001
0100
0101
0000
,
0001
0000
1000
0000
0100
0000
1000
0000
0010
0100
0001
0100
0010
1000
0100
0010
,
0001
0000
1000
0000
0110
0000
0100
0001
0010
0000
1000
0000
1001
0000
1000
0000
,
0001
0000
0100
0001
0000
1000
0000
0100
1000
0000
0001
0000
0100
0010
0100
0000
,
0001
0101
0100
0010
1000
0100
0100
1000
,
0010
1000
0010
0000
1000
0000
0100
0000
0010
0000
0001
0000
0100
0000
0001
0000
,
0010
0001
0010
0000
0001
0000
0100
0000
0010
0000
1000
0000
0100
0000
1000
0000
,
0001
0100
0001
0000
1000
0100
1000
0000
0010
0000
1000
0000
0100
0000
0100
0000
,
1000
0100
0020
0000
0001
0000
0031
0000
0001
0010
0200
0000
1000
0000
1300
0000
,
0010
0000
1000
0100
1000
0000
0001
0000
0001
0000
0010
0001
0010
0000
0100
0000
,
1000
0001
1000
0000
0001
0000
0000
0000
0100
0010
0100
0000
0010
0000
0000
0000
,
1001
0000
0000
1001
0000
0000
0001
0100
0001
1000
0010
0000
0100
0001
0200
0000
,
0001
0000
0000
0000
0001
0000
0000
0001
0000
0000
0001
0000
0301
0000
0010
0000
,
0200
0000
0000
0000
1000
0000
0000
1000
0000
0000
1000
0000
1300
0000
0010
0000
,
2000
0000
0000
0000
0001
0000
0000
0001
0000
0000
0001
0000
3001
0000
0010
0000
,
0002
0000
0000
0000
1000
0000
0000
1003
0010
0100
0010
0000
0100
0010
0100
0000
,
0020
0000
0000
0000
1000
0000
0000
1000
0000
0000
1000
0000
1030
0000
0100
0000
,
0020
0000
0000
0000
0001
0000
0000
0001
0000
0000
0001
0000
0001
0030
0100
0000
,
0002
0000
0000
0000
1000
0000
0000
1000
0000
0000
1000
0000
1003
0000
0010
0000
,
1000
0100
1000
0100
0010
0001
0010
0001
1000
0100
0010
0001
1000
0100
0010
0001
;
