#TITLE:Love Is Strong To The Sky;
#SUBTITLE:;
#ARTIST:SAORI;
#TITLETRANSLIT:;
#SUBTITLETRANSLIT:;
#ARTISTTRANSLIT:;
#GENRE:Girly;
#CREDIT:Vivaldi Amuro (Battoken) Originals - Pop'nMusic 2 Mix;
#MUSIC:Love Is Strong To The Sky.ogg;
#BANNER:Love Is Strong To The Sky-bn.png;
#BACKGROUND:Love Is Strong To The Sky-bg.png;
#CDTITLE:cdtitle.png;
#SAMPLESTART:30.953;
#SAMPLELENGTH:12;
#SELECTABLE:YES;
#OFFSET:0.000;
#BPMS:0.000=120.100;
#STOPS:;
#DISPLAYBPM:120.000;
#BGCHANGES:;
#FGCHANGES:;

//--------------- dance-single - 8Chasey ----------------
#NOTES:
     dance-single:
     8Chasey:
     Beginner:
     1:
     0,0,0,0,0:
0000
0000
0000
0000
,
0000
0000
0000
0000
,
0000
0000
0000
0000
,
0000
0000
0000
0000
,
1000
1000
0000
0001
,
0000
0000
0000
0001
,
0000
0000
0000
0001
,
0000
0000
1000
0000
,
0001
0001
0000
1000
,
0000
0000
0000
1000
,
0000
0000
0000
1000
,
0000
0000
0001
0000
,
0100
0100
0000
0100
,
0000
0000
0000
0100
,
0100
0000
0010
0000
,
0010
0010
0010
0000
,
0001
0000
0000
0000
,
1000
0000
0000
0000
,
1001
0000
0000
0000
,
0100
0000
0010
0010
,
0010
0000
0000
0000
,
0001
0000
0001
0000
,
0001
0000
0000
0000
,
0100
0000
0000
0000
,
0010
0000
0000
0000
,
1000
0000
1000
0000
,
1000
0000
0000
0000
,
1001
0000
0000
0000
,
0001
0001
0000
1000
,
0000
0000
0000
1000
,
0000
0000
0000
1000
,
0000
0000
0001
0000
,
1000
1000
0000
0001
,
0000
0000
0000
0001
,
0000
0000
0000
0001
,
0000
0000
1000
0000
,
0100
0100
0000
0100
,
0000
0000
0000
0100
,
0100
0000
0010
0000
,
0010
0010
0010
0000
,
0001
0000
0000
0000
,
1000
0000
0000
0000
,
0110
0000
0000
0000
,
1001
0000
0000
0000
;

//--------------- dance-single - 8Chasey ----------------
#NOTES:
     dance-single:
     8Chasey:
     Easy:
     4:
     0,0,0,0,0:
0000
0000
0000
0000
,
0000
0000
0000
0000
,
0000
0000
0000
0000
,
0000
0000
0000
0000
,
1001
0000
1001
0000
0000
0000
0001
0001
,
0000
0000
1000
0000
0000
0000
0001
0001
,
0000
0000
0100
0000
0000
0000
0001
0001
,
0000
0010
1001
1001
,
0110
0000
1001
0000
0000
0000
1000
1000
,
0000
0000
0001
0000
0000
0000
1000
1000
,
0000
0000
0010
0000
0000
0000
1000
1000
,
0000
0000
0000
0000
0100
0000
0000
0000
1000
0000
0000
0001
0000
0000
1000
0000
,
0001
0000
1001
0000
0000
0001
0000
0000
,
0001
0000
0000
0001
0000
0000
0001
0000
,
0001
0000
1000
0010
,
1000
0001
0100
0001
,
0010
0000
0001
0010
,
0100
0000
1000
1000
,
0101
0000
0000
0000
,
1100
0000
0000
0000
1000
0010
1000
0010
,
1000
0000
0001
0000
,
0000
0001
0000
1000
0001
0000
0000
0001
,
1000
0001
1000
0001
,
1001
0000
0110
0000
,
0001
0001
0010
0000
,
0001
1000
0100
0010
,
1001
0000
0000
0000
,
1001
0000
0000
0000
,
1001
0000
1001
0000
0000
0000
0010
0010
,
0000
0000
1000
0000
0000
0000
0010
0010
,
0000
0000
0001
0000
0000
0000
0010
0010
,
0000
1001
0100
0010
,
0110
0000
1001
0000
0000
0000
0100
0100
,
0000
0000
0001
0000
0000
0000
0100
0100
,
0000
0000
1000
0000
0000
0000
0100
0100
,
0000
1001
0000
0100
,
0010
0000
1000
0000
0000
0000
0001
0001
,
0000
0000
1000
0000
0000
0000
1000
1000
,
0000
0000
0001
0000
0000
0000
0100
0100
,
0000
0010
0000
0010
,
0010
0000
1000
0001
,
0001
0000
1000
0000
,
1001
0000
0001
0000
,
0100
0000
0100
0000
1001
1001
0000
0000
;

//--------------- dance-single - 8Chasey ----------------
#NOTES:
     dance-single:
     8Chasey:
     Medium:
     6:
     0,0,0,0,0:
0000
0000
0000
0000
,
0000
0000
0000
0000
,
0000
0000
0000
0000
,
0000
0000
0000
0000
,
1001
0000
1010
0000
0000
0000
0001
0010
,
0000
0001
1000
0000
0000
0000
1000
0010
,
0000
1000
0001
0000
0000
0000
0100
0010
,
0000
0000
0010
0000
1000
0000
0000
0000
0001
0000
0000
1000
0000
0000
0001
0000
,
1000
0000
0010
0000
0000
0000
1000
0001
,
0000
0001
0010
0000
0000
0000
0001
0100
,
0000
0001
1000
0000
0000
0000
0100
1000
,
0000
0000
0010
0000
1000
0000
0010
0000
1000
0000
0000
0001
0000
0000
0100
0000
,
0001
0000
1001
0000
0000
1000
0000
0000
,
1000
0000
0000
0001
0000
0000
0001
0000
,
0010
0001
0010
0100
,
1000
0000
0010
0000
1000
0001
1000
0001
,
0100
0000
0001
0000
1000
0100
0010
0000
,
0100
1000
0010
0000
0100
0000
0001
0000
,
1001
1000
1010
0001
,
0011
0000
0100
0100
1000
0001
0100
0001
,
0010
0000
0001
0000
1000
0001
1000
0100
,
1000
0000
0010
0000
1000
0010
0100
0001
,
1000
0000
0001
1000
0001
0000
0010
0000
,
0110
0000
0100
0000
1000
0010
1000
0000
,
0001
0100
0001
0000
0010
0001
1000
0001
,
1000
0000
0100
0000
0000
0100
0000
0000
0100
0000
0000
0000
1001
0000
0000
0000
,
0110
0000
0000
0000
,
0110
0000
0000
0000
0000
0000
0001
0010
,
0001
1000
0100
0000
1000
0000
0010
0010
,
0000
1000
0001
0000
0000
0000
0100
0100
,
0000
0001
1000
0000
0000
0000
0010
0010
,
1000
0010
1000
0000
0000
0000
0001
0010
,
0001
0010
0100
0000
0000
0000
1000
0001
,
1000
0001
0100
0000
0000
0000
0010
0010
,
1000
0010
0100
0000
0001
0000
0010
0010
,
0001
1000
0100
1000
0001
0000
1001
0000
,
0101
0000
0100
0000
0001
0000
0100
0100
,
1010
0000
0010
0000
1000
0000
0010
0010
,
1001
0001
1001
1000
,
1100
0000
0010
0000
0101
0001
0000
0000
,
1001
0000
0000
0000
1010
0010
0000
0000
,
0101
0000
0000
0000
0101
0100
0000
0000
,
0110
1000
1000
1000
,
0110
0000
0001
0000
1001
1000
0100
0000
;

//--------------- dance-single - 8Chasey ----------------
#NOTES:
     dance-single:
     8Chasey:
     Hard:
     8:
     0,0,0,0,0:
0000
0000
0000
0000
,
0000
0000
0000
0000
,
0000
0000
0000
0000
,
0000
0000
0000
0000
,
1001
0000
0000
0000
1100
0000
0000
0000
0000
0000
0000
0000
0001
1000
0001
0000
,
1000
0000
0010
0000
0010
0000
0000
0000
0000
0000
0000
0000
0001
1000
0001
0000
,
1000
0000
0100
0000
0100
0000
0000
0000
0000
0000
0000
0000
1000
0001
1000
0000
,
0001
0000
0100
0000
0100
0000
0000
0000
0010
0000
0000
0010
0000
0000
0100
0000
,
0001
0000
0000
0000
1100
0000
0000
0000
0000
0000
0000
0000
0001
1000
0001
0000
,
1000
0000
0100
0000
0100
0000
0000
0000
0000
0000
0000
0000
1000
0001
1000
0000
,
0001
0000
0010
0000
0010
0000
0000
0000
0000
0000
0000
0000
0001
1000
0001
0000
,
0000
0000
0100
0001
0100
0001
0100
0001
0100
0000
0000
0010
0000
0000
0100
0000
,
0001
0000
1001
0000
0000
0100
0010
0000
,
0100
0000
0000
0000
0000
0000
0010
0000
0000
0000
1000
0000
0100
1000
0100
0000
,
0010
0001
1000
0010
,
1000
0000
0001
0000
0100
0100
0001
1000
,
0011
0000
0000
0000
0001
0100
0010
0000
,
1010
0000
1000
0001
,
0110
0000
1000
1000
0001
0001
1000
0000
,
1001
0000
0000
0000
0100
0100
0010
0000
,
1000
0000
0100
0000
1000
0000
0000
0001
0000
0000
0001
0000
1000
0000
0000
0000
,
0001
0100
0010
0010
1000
0000
1001
0001
,
0010
0000
0001
0100
0001
0000
1000
0000
,
1010
0000
0000
0000
0000
0000
0000
0000
1001
0000
0000
0000
0001
1000
0001
0000
,
1000
0000
0010
0000
0100
0100
0010
0000
,
1000
0000
0100
0000
0000
0100
0000
0000
0010
0000
0000
0000
0010
0000
0000
0000
,
0011
0000
0000
0000
,
1100
0000
0000
0000
0000
0000
0000
0000
0000
0000
0000
0000
0001
1000
0001
0000
,
1010
0000
0000
0000
0110
0000
0000
0000
0000
0000
0000
0000
0100
0001
0100
0000
,
0001
0000
1000
0000
0100
0000
0000
0000
0000
0000
0000
0000
1000
0010
1000
0000
,
0001
0000
1000
0000
0010
0000
0000
0000
0000
0000
0000
0000
0100
0010
0100
0000
,
0010
0000
1000
0000
0001
0000
0000
0000
0010
0000
0000
0000
0001
0010
0001
0000
,
1000
0000
0100
0000
0010
0000
0000
0000
0100
0000
0000
0000
1000
0100
1000
0000
,
0001
0000
1000
0000
0010
0000
0000
0000
1000
0000
0000
0000
0001
1000
0001
0000
,
1000
0000
0001
0000
0100
0000
0000
0000
0100
0000
0000
0000
0010
1000
0010
0000
,
1000
0100
1000
0000
0001
0000
1001
0000
,
0100
0000
0000
0000
0001
0000
0000
1000
0000
0000
1000
0000
0001
1000
0001
0000
,
0010
0000
0001
0000
1000
0000
0000
1000
0000
0000
0010
0000
1000
0010
1000
0000
,
0001
0000
0000
0000
0000
0000
0000
0000
1010
0000
0000
0000
1000
0010
1000
0000
,
0001
0000
0001
0000
0001
0100
0010
0000
,
0110
0000
0100
0000
0001
0010
0001
1000
,
1001
0000
0100
0000
1000
0010
0001
0000
,
0110
0000
0000
0000
0000
0000
0000
0000
0001
0000
0000
0000
1000
0001
1000
0000
,
0100
0100
1000
0000
0001
1001
1001
0000
;

//--------------- dance-single - Vivaldi ----------------
#NOTES:
     dance-single:
     Vivaldi:
     Challenge:
     8:
     0,0,0,0,0:
0000
0000
0000
0000
,
0000
0000
0000
0000
,
0000
0000
0000
0000
,
0000
0000
0000
0000
,
0001
0000
1000
0000
0100
0000
0000
0000
0100
0000
1000
0000
0001
1000
0001
0000
,
1000
0000
0001
0000
0100
0000
0000
0000
0001
0000
1000
0000
0100
1000
0100
0000
,
1000
0000
0001
0000
0100
0000
0000
0000
0001
0000
1000
0000
0100
1000
0100
0000
,
1000
0000
1000
0000
0001
0000
0001
0000
0100
0000
0000
0010
0000
0000
1000
0000
,
0001
0000
0001
0000
0010
0000
0010
0000
0100
0000
0100
0000
0100
1000
0100
0000
,
1000
0000
1000
0000
0100
0000
0100
0000
0010
0000
0010
0000
0001
0010
0001
0000
,
0010
0001
0010
0100
1000
0001
1000
0001
,
0000
0000
0001
1000
0001
1000
0001
0000
1000
0000
0000
0100
0000
0000
0010
0000
,
0001
0010
0100
0000
1001
0000
0100
0000
,
1000
0001
0100
0000
0001
0000
0010
0100
,
1000
0100
1100
0000
1000
0100
0011
0000
,
0001
0010
0001
0000
0001
1000
0000
0000
,
1001
0000
0001
0000
0010
0100
1000
0000
,
1001
0000
0100
0000
0010
0001
1000
0000
,
0001
0000
1000
0000
0001
0000
1000
0001
0000
1000
0001
0000
0001
0000
0001
0000
,
0001
0000
0010
0000
0100
0000
0100
1000
0000
0100
1000
0000
0100
0000
1000
0000
,
1001
0000
0001
0010
0100
1000
0100
0010
,
0001
1000
0000
0001
1000
0000
0000
0010
,
1000
0100
0001
1001
,
0200
1000
0010
0001
,
0310
1000
0100
0000
1000
0100
0010
0000
,
0001
0000
0010
0000
0000
1000
0000
0000
0002
0000
0000
0000
0103
0000
0000
0000
,
0101
0000
1001
0000
0001
0010
0100
0000
,
2000
0000
0000
0000
0100
0000
0000
0000
0010
0000
0010
3000
0001
0000
0000
0000
,
1001
0000
1000
0000
1100
0000
0001
1000
0000
0001
1000
0000
0100
0000
0010
0000
,
1100
0000
1000
0000
0011
0000
0001
0010
0000
0100
1000
0000
1000
0000
0100
0000
,
1000
0000
0001
0000
0001
0000
1000
0001
0000
1000
0001
0000
1000
0000
0001
0000
,
1000
0000
0001
0000
2000
0000
0000
0000
0100
0000
0000
0010
0000
0000
0001
0000
,
0010
3000
0100
0000
1100
0000
0000
0000
0001
0000
0010
0000
0200
0000
0000
0000
,
0010
0000
0010
0000
0010
0300
0000
0000
1001
0000
0000
0000
1100
0000
0000
0000
,
0002
1000
0100
0000
1000
0100
1000
0100
,
0000
0003
1100
0000
1100
0000
0000
0000
0001
0000
0000
0000
0010
0000
0000
0000
,
0100
0000
1000
0000
0001
0000
0100
0000
0010
0000
1000
0000
0010
1000
0010
1000
,
0000
0000
0001
0000
0100
0000
0001
0000
0100
0000
0001
0100
0001
0100
0000
0000
,
0100
1100
0001
1001
,
0001
0000
0010
0000
0100
1000
0100
1000
,
1001
0100
0110
0000
0100
0010
0001
0010
,
0011
0000
0110
0000
0100
1000
0020
0000
,
0230
0000
0000
0000
0001
0000
0000
0001
0000
0000
0001
0000
0001
0000
0001
0000
,
0302
0000
0000
0000
1000
0000
0000
1000
0000
0000
1000
0000
1000
0000
1000
0000
,
2003
3100
0000
0000
;

//--------------- dance-double - 8Chasey ----------------
#NOTES:
     dance-double:
     8Chasey:
     Easy:
     5:
     0,0,0,0,0:
00000000
00000000
00000000
00000000
,
00000000
00000000
00000000
00000000
,
00000000
00000000
00000000
00000000
,
00000000
00000000
00000000
00000000
,
00011000
00000000
00011000
00000000
00000000
00000000
00010000
00010000
,
00000000
00000000
00000100
00000000
00000000
00000000
00010000
00010000
,
00000000
00000000
00000010
00000000
00000000
00000000
00010000
00010000
,
00000000
00000000
00000000
00000000
00000001
00000000
00000000
00000000
00001001
00000000
00000000
00010000
00000000
00000000
00000010
00000000
,
00000100
00000000
00011000
00000000
00000000
00000000
00001000
00001000
,
00000000
00000000
00100000
00000000
00000000
00000000
00001000
00001000
,
00000000
00000000
01000000
00000000
00000000
00000000
00001000
00001000
,
00000000
00000000
00000000
00000000
10000000
00000000
10000000
00000000
00010000
00000000
00000000
10000000
00000000
00000000
00010000
00000000
,
00010000
00000000
00011000
00000000
00000000
00000100
00000000
00000000
,
00011000
00000000
00000000
01000000
00000000
00000000
00011000
00000000
,
01100000
00000000
00000000
00000000
00100000
00001000
00000000
00000000
,
00010000
00000000
00000000
00000000
00000100
00010000
00000000
00000000
,
00001010
00000000
00000000
00000000
00000001
00000010
00000000
00000000
,
00000110
00000000
00000000
00000000
00010000
00001000
00000000
00000000
,
00011000
00010000
00011000
00001000
,
00101000
00000000
00100000
00000000
00010000
00100000
00001000
00010000
,
00001000
00000000
00010000
00001000
,
00010000
00000100
00000010
00000101
,
00001000
00000010
00000100
00001000
,
00101000
10000000
01010000
00100000
,
11000000
00010000
00001000
00000100
,
00000101
00001000
00010000
00100000
,
01100000
00000000
00000000
00000000
,
01100000
00000000
00000000
00000000
,
00101000
00000000
00010010
00000000
00000000
00000000
00010000
00010000
,
00000000
00000000
00000010
00000000
00000000
00000000
00001000
00001000
,
00000000
00000000
00100000
00000000
00000000
00000000
00010000
00001000
,
00000000
00000000
00011000
00000000
00010000
00100000
00001000
00000100
,
00010000
00000000
00001000
00000000
00000000
00000000
00010000
00000100
,
00000000
00000000
00010000
00000000
00000000
00000000
00001000
01000000
,
00000000
00000000
00001000
00000000
00000000
00000000
00000010
00000010
,
00000000
00001100
00011000
01010000
,
00100000
00000000
00010000
00000000
00000000
00000000
10000000
10000000
,
00000000
01000000
00010000
00000000
00000000
00000000
00001000
00001000
,
00000000
00000100
00000001
00000000
00000000
00000000
00010000
00000000
,
00001000
00100000
00000000
00001000
,
00010000
00000000
00000010
00000000
00000100
00000010
00000000
00000000
,
00001001
00000000
00000000
00000000
00000100
00000010
00000000
00000000
,
00001001
00000000
00011000
00000000
,
10010000
00000000
00000000
00000000
00011000
00011000
00000000
00000000
;

//--------------- dance-double - 8Chasey - 2025 chart ----------------
#NOTES:
     dance-double:
     8Chasey - 2025 chart:
     Medium:
     6:
     0,0,0,0,0:
00000000
00000000
00000000
00000000
,
00000000
00000000
00000000
00000000
,
00000000
00000000
00000000
00000000
,
00000000
00000000
00000000
00000000
,
00011000
00000000
00010100
00000000
00000000
00000000
00001000
00000100
,
00000000
00001000
00000010
00000000
00000000
00000000
00001000
00000010
,
00000000
00001000
00000100
00000000
00000000
00000000
00001000
00000001
,
00000000
00000000
00000100
00000000
00000010
00000000
00000000
00000000
00001001
00000000
00000000
00010000
00000000
00000000
00001000
00000000
,
00100000
00000000
00101000
00000000
00000000
00000000
00001000
00100000
,
00000000
00001000
01000000
00000000
00000000
00000000
00001000
01000000
,
00000000
00001000
00100000
00000000
00000000
00000000
00010000
10000000
,
00000000
00000000
00100000
00000000
01000000
00000000
00100000
00000000
01000000
00000000
00000000
00010000
00000000
00000000
10000000
00000000
,
00010000
00000000
00011000
00000000
00010000
00000100
00000000
00000000
,
00011000
00000000
00001000
01000000
00000000
00000000
00011000
00000000
,
01100000
10000000
00010000
01000000
,
00001000
00000000
00010000
00000000
00000100
00010000
00000010
00001000
,
00001010
00000000
00000100
00000000
00000001
00001000
00000001
00000000
,
00000110
00000000
00000000
00000000
00010000
00001000
00010000
00000000
,
00011000
00010000
00011000
00001000
,
00110000
00010000
00100000
00000000
00010000
01000000
00001000
00010000
,
00001000
00000000
00010000
00000000
00000100
00001000
00000010
00001000
,
00000100
00000000
00000010
00000000
00000001
00001000
00000001
00000010
,
00000001
00000000
00000010
00000100
00010000
00000000
00001000
00000000
,
00101000
00000000
10000000
00000000
00010000
01000000
00001000
00000000
,
00010000
00000100
00001000
00000000
00000100
00000010
00000001
00001000
,
00000100
00000000
00010000
00000000
00000000
00001000
00000000
00000000
00100000
00000000
00000000
00000000
01000000
00000000
00000000
00000000
,
01100000
00000000
00000000
00000000
,
00000110
00000000
00000000
00000000
00000000
00000000
00000000
00000000
00000000
00000000
00000000
00000000
00010000
00001000
00010000
00000000
,
00001000
00000000
00101000
00000000
00001000
00010000
00000100
00000100
,
00000000
00010000
00001000
00000000
00000000
00000000
01000000
01000000
,
00000000
00001000
00010000
00000000
00000100
00000010
00000100
00000100
,
00000000
00010000
00001000
00000000
00010000
00100000
00001000
00000100
,
00011000
00000000
00000110
00000000
00000001
00001000
00000100
00001000
,
00000001
00000000
00010000
00000000
00001000
01000000
00001000
00010000
,
00001000
00000000
00100000
00000000
00001000
00010000
00000010
00000010
,
00001000
00000100
00001100
00000000
00011000
00000000
01010000
00000000
,
11000000
00000000
10010000
00000000
00010000
00000000
10000000
10000000
,
10010000
00010000
00100000
00000000
00001000
00010000
00001000
00000100
,
00000001
00001001
00001000
00001001
,
00011000
00000000
00100000
00000000
00010100
00000100
00000000
00000000
,
00010010
00000000
00000000
00000000
00000010
00000010
00000000
00000000
,
01001000
00000000
00000000
00000000
01000000
01000000
00000000
00000000
,
00011000
00000100
00011000
00100000
,
01100000
00000000
10000000
00000000
10010000
00010000
01000000
00000000
;

//--------------- dance-double - 8Chasey - 2025 chart ----------------
#NOTES:
     dance-double:
     8Chasey - 2025 chart:
     Hard:
     9:
     0,0,0,0,0:
00000000
00000000
00000000
00000000
,
00000000
00000000
00000000
00000000
,
00000000
00000000
00000000
00000000
,
00000000
00000000
00000000
00000000
,
00011000
00000000
00000000
00000000
00000110
00000000
00000000
00000000
00000010
00000000
00000000
00000000
00000001
00000100
00000001
00000000
,
00001000
00000000
00000100
00000000
00010000
00000000
00000000
00000000
00001000
00000000
00000000
00000000
00100000
00010000
00100000
00000000
,
00010000
00000000
10000000
00000000
01000000
00000000
00000000
00000000
10000000
00000000
00000000
00000000
00100000
10000000
00100000
00000000
,
01000000
00000000
00001000
00000000
00010000
00000000
00000000
00000000
00000100
00000000
00000000
00000100
00000000
00000000
00000010
00000000
,
00000001
00000000
00001000
00000000
00001001
00000000
00000000
00000000
00000001
00000000
00000000
00000000
00000100
00000010
00000100
00000000
,
00000010
00000000
00010000
00000000
00001000
00000000
00000000
00000000
00100000
00000000
00000000
00000000
01000000
00100000
01000000
00000000
,
10000000
00000000
00010000
00000000
01000000
00000000
00000000
00000000
00100000
00000000
00000000
00000000
10000000
00010000
10000000
00000000
,
00010000
00000000
00100000
00001000
00100000
00001000
00100000
00001000
00100000
00000000
00001000
00010000
00000000
00001000
00010000
00000000
,
00000100
00000010
00000110
00000000
00000001
00000101
00000000
00001000
,
00001010
00000000
00000100
00010100
00000000
00010000
00011000
00000000
,
00001000
00100000
01000000
00000000
10000000
01000000
00010000
00001000
,
00011000
00000000
00000000
00000000
00010000
00000000
00000000
00000100
00010000
00000000
00000100
00000000
00000010
00000000
00000000
00000000
,
00001001
00001000
00000001
00000000
00000010
00000001
00000100
00000000
,
00000110
00000010
00010000
00000000
00001000
00010000
00001000
00000000
,
00110000
00000000
00000000
00000000
00100000
00000000
00001000
00100000
00000000
00001000
00100000
00000000
00001000
00000000
10000000
00000000
,
10100000
00000000
00000000
00000000
10000000
00000000
01000000
10000000
01000000
00000000
00100000
00000000
00010000
00100000
00010000
00100000
,
00001000
00000000
00010000
00000000
00000100
00000000
00000010
00000001
00000000
00000010
00001000
00000000
00000010
00000000
00000100
00000000
,
00010000
00000000
00001000
00000000
00100000
00001000
00100000
00000000
00010000
01000000
00010000
00000000
10000000
00000000
00100000
00000000
,
01100000
01000000
00001000
00010000
00011000
00000000
00000100
00000000
,
00000110
00000000
00000010
00000000
00000001
00000000
00000010
00000001
00000000
00001000
00000001
00000000
00001000
00000010
00001000
00000000
,
00000100
00000000
00010000
00000000
00010000
00000000
00001000
00010000
00000000
00001000
00100000
00000000
00010000
00000000
00100000
00000000
,
01000000
00000000
10000000
00000000
01000000
10000000
00000000
00010000
00100000
00010000
00100000
00000000
00001000
00000000
00010000
00000000
,
00001100
00000000
00010000
00001000
00100000
01000000
10000000
00000000
,
11000000
00000000
00000000
00000000
10000000
00000000
00100000
10000000
00000000
00000000
00010000
01000000
00010000
00000000
10000000
00000000
,
01000000
00000000
00100000
00000000
00010000
00000000
00100000
00001000
00000000
00100000
00001000
00000000
00010000
00000000
00010100
00000000
,
00000100
00000000
00001000
00000000
00000010
00000000
00001000
00000001
00000000
00001000
00000001
00000000
00000100
00000000
00000110
00000000
,
00000010
00000000
00001000
00000000
00000100
00000000
00010000
00001000
00000000
00010000
00001000
00000000
00100000
00000000
01100000
00000000
,
01000000
00000000
10000000
00000000
01000000
00000000
00010000
00001000
00000000
00010000
00001000
00000000
00100000
00010000
00100000
00000000
,
01100000
00000000
01000000
00000000
10000000
00000000
00010000
01000000
00000000
00010000
01000000
00000000
00100000
01000000
00100000
00000000
,
10000000
00000000
01000000
00000000
00010000
00000000
00001000
00010000
00000000
00000100
00000010
00000000
00000001
00000010
00000001
00000000
,
00000011
00000000
00000010
00000000
00000001
00000000
00000100
00000010
00000000
00001000
00000010
00000000
00001000
00000100
00001000
00000000
,
00000100
00000000
00010000
00000000
00001000
00000000
00100000
00000000
00010000
00100000
00000000
10000000
00100000
00000000
01000000
00100000
,
01000000
10000000
11000000
00000000
00100000
00110000
00000000
01000000
,
01010000
00000000
00000000
00000000
00100000
00000000
10100000
00000000
00000000
00000000
01000000
00000000
00001000
00010000
00001000
00000000
,
00010000
00000100
00000010
00000000
00000110
00000010
00000001
00000100
,
00000001
00000000
00001100
00000000
00010000
00001000
00100000
00000000
,
00110000
00010000
01000000
00000000
00001000
00010000
00000100
00000000
,
00000110
00000001
00001000
00000000
00000010
00000100
00000010
00000000
,
00001001
00000000
00000000
00000000
00000100
00000000
00010000
00001000
00000000
00010000
00001000
00000000
00100000
00000000
01000000
00000000
,
11000000
10000000
00010000
00000000
01100000
10010000
01100000
00000000
;

//--------------- dance-couple - 8Chasey ----------------
#NOTES:
     dance-couple:
     8Chasey:
     Easy:
     4:
     0,0,0,0,0:
00000000
00000000
00000000
00000000
,
00000000
00000000
00000000
00000000
,
00000000
00000000
00000000
00000000
,
00000000
00000000
00000000
00000000
,
10010110
00000000
10010110
00000000
00000000
00000000
10000000
10000000
,
00000000
00000000
00010000
00000000
00000000
00000000
00001000
00001000
,
00000000
00000000
00000001
00000000
00000000
00000000
00010001
00010001
,
00000000
10001000
10010110
10010110
,
01101001
00000000
01101001
00000000
00000000
00000000
00001000
00001000
,
00000000
00000000
00000001
00000000
00000000
00000000
10000000
10000000
,
00000000
00000000
00010000
00000000
00000000
00000000
00010001
00010001
,
00000000
10001000
01101001
01101001
,
10000001
00000000
10011001
00000000
00000000
10000000
00000000
00000000
,
00001000
00000000
00000000
00010000
00000000
00000000
00000001
00000000
,
10000000
00100000
10000001
00000010
,
00010001
01000000
00001000
00000100
,
00100010
00000000
10000001
00100010
,
01000100
00000000
00011000
00011000
,
11000101
00000000
00000000
00000000
,
01011100
00000000
00000000
00000000
00011000
00100010
00011000
00100010
,
00011000
00000000
10000001
00000000
,
00010000
10000000
00010000
00010000
,
10010000
00000000
01100000
00000000
,
10010000
00000000
01000000
00100000
,
00100010
00000000
01000100
00000000
,
00000001
00001000
00000001
00000001
,
00001001
00000000
00000110
00000000
,
00001001
00000000
00000100
00000010
,
01101001
00000000
01101001
00000000
00000000
00000000
00000010
00000010
,
00000000
00000000
00001000
00000000
00000000
00000000
00100000
00100000
,
00000000
00000000
00010000
00000000
00000000
00000000
00100010
00100010
,
00000000
10011001
01000010
00100100
,
10010110
00000000
10010110
00000000
00000000
00000000
01000000
01000000
,
00000000
00000000
00010000
00000000
00000000
00000000
00000100
00000100
,
00000000
00000000
00001000
00000000
00000000
00000000
01000100
01000100
,
00000000
10011001
00000000
01000100
,
00100010
00000000
01000100
00000000
00000000
00000000
00010000
00010000
,
00000000
00000000
10000000
00000000
00000000
00000000
00001000
00001000
,
00000000
00000000
00000001
00000000
00000000
00000000
01000100
01000100
,
00000000
00100010
00000000
00100000
,
00100000
00000000
01000000
00000010
,
00000010
00000000
00000100
00000000
,
10011001
00000000
10000001
00000000
,
01000100
00000000
01000100
00000000
10011001
10011001
00000000
00000000
;
