#TITLE:Love Is All;
#SUBTITLE:-Just Dance 2015 Mix-;
#ARTIST:The Sunlight Shakers;
#TITLETRANSLIT:;
#SUBTITLETRANSLIT:;
#ARTISTTRANSLIT:;
#GENRE:;
#CREDIT:8Chasey 2025;
#MUSIC:Love Is All (Just Dance 2015 Mix).ogg;
#BANNER:;
#BACKGROUND:;
#CDTITLE:;
#SAMPLESTART:43.57;
#SAMPLELENGTH:12;
#SELECTABLE:YES;
#OFFSET:-1.480;
#BPMS:0.000=113.000
,5.000=117.000
,9.000=115.000
,12.000=108.000
,17.000=111.000
,21.000=111.500
,26.000=112.100
,29.000=112.300
,40.000=113.000
,44.000=115.000
,45.000=114.500
,46.000=118.200
,48.000=112.000
,50.000=111.000
,52.000=111.400
,60.000=111.800
,62.000=112.100
,64.000=115.000
,65.000=111.400
,68.000=110.800
,70.000=112.600
,72.000=114.600
,73.000=113.200
,76.000=120.600
,77.000=118.700
,80.000=112.400
,84.000=109.800
,86.000=112.200
,87.000=109.500
,88.000=112.500
,92.000=113.800
,98.000=109.900
,100.000=110.400
,104.000=113.400
,108.000=111.300
,112.000=110.600
,124.000=107.500
,128.000=112.000
,136.000=112.900
,140.000=112.700
,156.000=114.200
,160.000=112.600
,164.000=111.400
,176.000=116.000
,180.000=112.300
,184.000=112.000
,188.000=114.800
,191.000=112.800
,194.000=112.200
,196.000=111.700
,206.000=112.300
,212.000=112.500
,216.000=112.200
,220.000=112.900
;
#STOPS:;
#DISPLAYBPM:114.000;
#BGCHANGES:;
#FGCHANGES:;

//--------------- dance-single - 8Chasey ----------------
#NOTES:
     dance-single:
     8Chasey:
     Beginner:
     1:
     0,0,0,0,0:
0000
0000
0000
0000
,
0000
0000
0000
0000
,
0000
0000
0000
0000
,
0000
0000
0000
0000
,
0001
0000
1000
0000
,
0001
0000
0001
0000
,
1000
0000
0001
0000
,
1000
0000
1000
0000
,
0010
0000
0010
0000
,
0100
0000
0100
0000
,
1000
0000
0001
0000
,
1000
0000
0001
0000
,
1000
0000
0001
0000
,
1000
0000
1000
0000
,
0001
0000
1000
0000
,
0001
0000
0001
0000
,
0010
0000
0010
0000
,
0100
0000
0100
0000
,
0001
0000
1000
0000
,
0001
0000
1000
0000
,
0001
0000
0000
0000
,
1000
0000
0000
0000
,
0001
0001
0001
0000
,
1000
1000
1000
0000
,
0010
0010
0010
0000
,
0100
0100
0100
0000
,
0010
0000
0100
0000
,
1001
0000
0000
0000
,
1000
1000
1000
0000
,
0001
0001
0001
0000
,
0100
0000
0010
0000
,
1001
0000
0000
0000
,
1000
0000
1000
0000
,
0001
0000
1000
0000
,
0001
0000
0001
0000
,
1000
0000
0001
0000
,
1000
0000
0010
0000
,
0100
0000
0001
0000
,
1000
0000
0001
0000
,
1001
0000
0000
0000
,
0010
0000
0000
0000
,
0100
0000
0000
0000
,
0010
0000
0010
0000
,
0100
0000
0100
0000
,
0000
0001
0000
0001
,
0000
1000
0000
1000
,
0000
0000
0100
0100
,
0100
0000
0000
0000
,
0000
1000
0000
1000
,
0000
0001
0000
0001
,
0000
0000
0010
0010
,
0010
0000
0100
0000
,
0001
0000
0001
0000
,
1000
0000
1000
0000
,
0110
0000
0000
0000
,
1001
0000
0000
0000
;

//--------------- dance-single - 8Chasey ----------------
#NOTES:
     dance-single:
     8Chasey:
     Easy:
     3:
     0,0,0,0,0:
0000
0000
0000
0000
,
0000
0000
0000
0000
,
0000
0000
0000
0000
,
0000
0000
0000
0000
,
0001
0000
0100
0000
,
0001
0100
0001
0000
,
1000
0000
0010
0000
,
1000
0010
1000
0000
,
0100
1000
0010
0000
,
0100
0001
0010
0000
,
0100
0000
0010
0000
,
0001
1000
0001
1000
,
0010
0000
1000
0000
,
0010
1000
0100
0000
,
0010
0000
0001
0000
,
0010
0001
0100
0000
,
0001
1000
0100
0000
,
1000
0001
0010
0000
,
0100
1000
0100
1000
,
0001
0010
0001
0010
,
0100
0000
1000
0010
,
0100
0000
0001
0010
,
0001
0000
1000
0000
,
0010
0010
0100
0100
,
0001
0100
0001
0000
,
1000
0010
1000
0000
,
0100
0000
0010
0000
,
1001
0000
0000
0000
,
0001
0000
1000
0000
,
0010
0100
0010
0000
,
1000
0000
0001
0000
,
1001
0000
0000
0000
,
0001
0000
0010
0000
,
0100
1000
0100
0000
,
1000
0000
0010
0000
,
0100
0001
0100
0000
,
0010
0000
0100
0100
,
0001
0000
1000
0001
,
0010
0010
0100
0100
,
1000
0001
1000
0001
,
0000
1001
0000
0010
,
0100
0010
0100
0000
,
0001
0100
0001
0000
,
1000
0010
1000
0000
,
0000
0110
0000
1001
,
0000
1000
0000
0001
,
0000
1000
0001
0100
,
0010
0000
0100
0010
,
0000
1001
0000
0110
,
0000
0010
0100
0100
,
0001
1000
0100
0000
,
0010
0001
1000
0000
,
0000
1001
0000
0110
,
0000
1001
1000
0001
,
0000
0100
0010
1000
,
0001
0000
0000
0000
;

//--------------- dance-single - 8Chasey ----------------
#NOTES:
     dance-single:
     8Chasey:
     Medium:
     5:
     0,0,0,0,0:
0000
0000
0000
0000
,
0000
0000
0000
0000
,
0000
0000
0000
0000
,
0000
0000
0000
0000
,
0001
0000
0000
1000
0000
0000
0001
0000
1000
0100
0000
0000
,
0010
0000
0000
0001
0000
0000
0100
0000
0001
0100
0000
0000
,
0010
0000
0000
1000
0000
0000
0100
0000
1000
0100
0000
0000
,
1000
0000
0000
0001
0000
0000
0100
0000
0100
0010
0000
0000
,
0100
0000
0000
0001
0000
0000
0010
0000
0001
1000
0000
0000
,
0100
0000
0000
1000
0000
0000
0010
0000
0100
0001
0000
0000
,
1000
1000
0001
0001
,
0100
0000
0000
0010
0000
1000
0001
0000
1000
0001
0000
0000
,
1001
0100
1000
0100
,
0001
0000
0000
0010
0000
0000
0100
0000
0100
0010
0000
0000
,
0100
1000
0001
0100
,
0010
1000
0001
1001
,
1000
0010
1000
0001
,
0100
0000
0000
0001
0000
0000
0010
0000
0100
0010
0000
0000
,
0001
0010
1000
0010
,
0100
0000
0010
0100
0000
0010
0100
0000
0000
0001
0000
0000
,
1100
1000
0010
0100
,
0101
0001
0010
0100
,
1000
0000
0000
0010
0000
1000
0010
0000
0000
0100
0000
0000
,
0001
0000
0000
0010
0000
0001
0010
0000
0000
0100
0000
0000
,
1000
0000
0001
1000
0000
0000
0010
0000
0000
0100
0000
0000
,
0001
0000
1000
0001
0000
0000
0010
0000
0000
0100
0000
0000
,
1000
0001
0010
0100
,
0110
0000
0100
0100
,
1000
0000
0000
0000
0000
1000
0001
0000
1000
0000
0000
0001
,
0000
0000
0010
0000
0000
0001
0000
0000
1000
0010
0000
0000
,
0100
0000
0000
0000
0000
0000
0010
0000
1000
0001
0000
0000
,
1001
0000
0000
0100
,
0010
0000
0000
1000
0000
0000
0010
0000
1000
0001
0000
0000
,
0010
0000
0000
0100
0000
0000
1000
0000
1000
0100
0000
0000
,
0010
0000
0000
0001
0000
0000
0010
0000
0001
1000
0000
0000
,
0010
0000
0000
0100
0000
0000
0001
0000
1000
0010
0000
0000
,
0100
0001
0010
0100
,
1000
0000
0100
1000
0000
0000
0001
0000
0000
0010
0000
0000
,
0100
0100
0010
0010
,
0001
0000
1000
0001
0000
1000
0010
0000
0000
0100
0000
0000
,
0010
0000
0000
0110
0000
0000
0100
0000
0000
0001
0000
1000
,
0010
1000
0100
0010
,
0001
0000
0010
0001
0000
0000
1000
0000
0100
1000
0000
0000
,
0010
0100
0100
0010
,
1000
1001
0001
1001
,
1000
0010
0100
0001
,
0010
0010
0100
0100
,
1000
0000
0000
0010
0000
0000
0100
0000
0001
0100
0000
0000
,
0010
0110
0100
0110
,
0010
1000
0100
0001
,
0010
0010
0100
0100
,
1001
0000
0000
0000
0000
0000
1000
0000
0010
1000
0000
0000
,
0001
1001
1000
0010
,
0100
0000
0001
0100
0000
0000
0010
0000
0000
1000
0000
0000
,
0001
0000
0000
0010
0000
0000
0100
0000
0010
0100
0000
0000
,
1000
0001
0000
0000
;

//--------------- dance-single - 8Chasey ----------------
#NOTES:
     dance-single:
     8Chasey:
     Hard:
     7:
     0,0,0,0,0:
0000
0000
0000
0000
,
0000
0000
0000
0000
,
0000
0000
0000
0000
,
0000
0000
0000
0000
,
0001
0000
0000
1000
0000
0010
1000
0000
0100
0010
0000
0000
,
0001
0000
0000
0010
0000
0001
1000
0000
0010
0100
0000
0100
,
0010
0000
0000
0100
0000
0001
0100
0000
0010
1000
0000
1000
,
0100
0000
1000
0001
0000
0100
0010
0000
0010
0100
0000
0000
,
1001
0000
1000
0100
0000
0010
0100
0000
0100
1000
0000
0001
,
0100
0000
0000
0010
0000
0010
1000
0000
0010
0100
0000
0000
,
0101
0000
0000
0001
0000
0010
0001
0000
0000
1000
0000
0100
,
1000
0000
0000
0010
0000
0100
0010
0100
0010
0100
0000
0000
,
0110
0000
0000
0010
0000
1000
0010
0000
0100
0001
0000
1000
,
0001
0000
0010
0100
0000
0000
1000
0000
0100
0010
0000
0100
,
0010
0000
0000
0001
0000
1000
0010
0000
0100
0001
0000
1000
,
0100
0000
0010
0100
0000
0100
0010
0000
0000
1001
0000
0000
,
1000
0000
0000
0010
0000
1000
0010
0000
0010
0100
0000
0001
,
0100
0000
0000
0001
0000
1000
0100
0000
0010
0100
0000
0100
,
0010
0000
0001
0010
0000
0001
1000
0000
0100
1000
0000
0010
,
0100
0001
0100
0001
1000
0100
1000
0000
0000
0010
0100
0001
,
1000
0000
0000
1010
0000
0000
0010
0000
0100
0001
1000
0001
,
0010
0000
0000
0011
0000
0010
0100
0000
0000
1000
0000
0100
,
0010
0000
0000
0001
0000
0100
0010
0000
1000
0010
0000
1000
,
0100
0000
0000
1000
0000
0100
0010
0001
0010
0100
0000
0100
,
1000
0000
0010
1000
0000
0001
0100
0000
0000
0110
0000
0000
,
0010
0000
0000
1000
0000
0010
0100
0000
0001
0100
0000
0010
,
1000
0000
0000
0100
0000
1000
0100
0000
0010
0001
0000
0000
,
1010
0000
0000
0010
0000
0100
0001
0000
0010
0001
0000
0001
,
0100
0000
0000
0010
0000
1000
0100
0000
1000
0001
0000
0010
,
0001
0000
0100
0010
0000
1000
0100
0000
0010
0100
0000
0000
,
1100
0000
0000
0010
0000
0000
0101
0000
0001
1000
0000
0000
,
1001
0001
0000
1000
,
0100
0000
0000
1000
0000
0010
1000
0000
0001
0100
0000
0000
,
0001
0000
0010
0100
0000
1000
0100
0000
0010
0001
1000
0100
,
1000
0000
0010
1000
0000
1000
0010
0000
0000
0100
0000
0001
,
1000
0000
0000
0100
0000
0010
0100
0000
0010
0001
1000
0100
,
1000
0000
0000
0010
0000
0100
0001
0000
0010
0001
0000
0100
,
0010
0000
1000
0010
0000
0100
0001
0000
0010
0100
0000
0000
,
0110
0000
0000
1000
0000
0100
0010
0000
0001
1000
0000
0001
,
0010
0001
0010
0100
1000
0100
1000
0010
1000
0001
0100
0001
,
0010
0000
0000
1001
0000
0000
0001
0000
0010
0001
0000
1000
,
0010
0000
0000
0110
0000
0000
0100
0000
0001
1000
0000
0000
,
0100
1000
0100
1000
0000
0000
0010
0000
0000
1000
0000
0010
,
0100
0000
0000
0001
0000
0000
1000
0010
1000
0001
0010
0001
,
0100
1001
0010
1001
,
1000
0000
0100
0010
0000
0000
0001
0000
1000
0010
0000
0000
,
0100
0000
0000
0101
0000
0001
1000
0010
1000
0010
0000
0100
,
0010
0000
0000
1010
0000
0000
0011
0000
0001
1000
0000
1000
,
0100
0000
0000
0110
0000
0000
0010
0000
0001
1000
0000
0100
,
0010
0000
0000
0100
0000
1000
0001
0000
0100
0010
0000
0100
,
0001
0000
1000
0100
0000
0010
0100
0000
0010
0001
0000
1000
,
0010
0000
0100
0001
0000
0000
1000
0000
0010
0100
0000
0100
,
0010
0000
0000
1001
0000
0000
0100
0000
0010
1000
0000
0100
,
0010
0000
0000
0001
0000
0010
0001
0000
0100
1000
0000
0100
,
0010
0000
0000
1000
0000
0100
1000
0001
1000
0001
0000
0010
,
0100
1001
0000
0000
;
