#TITLE:LOVE FIRE;
#SUBTITLE:;
#ARTIST:長沢ゆりか;
#TITLETRANSLIT:Love Fire;
#SUBTITLETRANSLIT:;
#ARTISTTRANSLIT:Yurika Nagasawa;
#GENRE:Idol Girl;
#CREDIT:Vivaldi Amuro (Battoken) Originals - Pop'nMusic 2 Mix;
#MUSIC:Love Fire.mp3;
#BANNER:Love Fire-bn (new).png;
#BACKGROUND:Love Fire-bg (new).png;
#CDTITLE:;
#SAMPLESTART:0.950;
#SAMPLELENGTH:12.000;
#SELECTABLE:YES;
#OFFSET:-0.957;
#BPMS:0.000=107.900;
#STOPS:;
#BGCHANGES:;
#FGCHANGES:;

//--------------- dance-single - 8Chasey ----------------
#NOTES:
     dance-single:
     8Chasey:
     Beginner:
     1:
     0,0,0,0,0:
0000
0000
0000
0000
,
0000
0000
0000
0000
,
0000
0000
0000
0000
,
0000
0000
0000
0000
,
0000
0000
0000
0001
,
0000
0000
0000
0001
,
0000
0000
0000
1000
,
0000
0000
0000
1000
,
0000
0000
0000
0000
,
0010
0000
0010
0000
,
0001
0000
0001
0000
,
0010
0000
0010
0000
,
1000
0000
1000
0000
,
1001
0000
0000
0000
,
0100
0000
0000
0000
,
0001
0000
0000
0000
,
0100
0000
1000
1000
,
1000
0000
0000
0000
,
1000
0000
0000
0000
,
0010
0000
0001
0000
,
0100
0100
0100
0100
,
0100
0000
0000
0000
,
0001
0000
1000
0000
,
0001
0000
0000
0000
,
1000
0000
1000
1000
,
1000
0000
0100
0000
,
0010
0000
0001
0000
,
0100
0000
0100
0000
,
0010
0010
0010
0010
,
0010
0000
0000
0000
,
1001
0000
0000
0000
,
1000
1000
1000
0000
,
0100
0000
0000
0000
,
1000
0000
0001
0000
,
1000
0000
0000
0000
,
0001
0001
0001
0000
,
0010
0000
0010
0000
,
0001
0000
1000
0000
,
0100
0000
0000
0000
;

//--------------- dance-single - 8Chasey ----------------
#NOTES:
     dance-single:
     8Chasey:
     Easy:
     3:
     0,0,0,0,0:
0000
0000
0000
0000
,
0000
0000
0000
0000
,
0000
0000
0000
0000
,
0000
0000
0000
0000
,
0001
0000
1000
1000
,
0001
0001
0000
0000
0000
0000
1000
0000
,
0100
0000
0010
0000
,
0100
1000
0100
1000
,
0001
0000
0000
1001
,
0010
0000
0010
0000
,
0001
1000
0001
1000
,
0100
0000
0100
0000
,
1000
0001
1000
0001
,
1001
0000
0000
0000
,
1000
0000
0100
0000
,
1000
0000
0000
0000
,
0001
0000
0010
0001
,
0010
0000
0000
0000
,
0100
0010
0100
0000
,
0010
0000
0001
0000
,
1000
0001
1000
0010
,
0100
0000
0100
0000
,
0100
0001
0100
0001
,
0001
0000
0010
0000
,
0001
0000
1000
1000
,
1000
0000
0001
0001
,
1000
0000
0001
0000
,
0110
0010
0010
0010
,
0000
0100
0100
0000
0100
0000
0100
0000
,
0100
0000
0000
0000
,
0010
0000
0001
1000
,
0001
0001
0000
0000
0000
0000
1000
0000
,
0100
0100
1000
0000
,
0010
0000
0100
0100
,
0001
0000
1000
1000
,
0001
0001
0000
0000
1000
0000
1001
0000
,
0001
0000
1000
0000
,
0001
1000
0100
0010
,
0100
0000
0000
0000
;

//--------------- dance-single - 8Chasey ----------------
#NOTES:
     dance-single:
     8Chasey:
     Medium:
     5:
     0,0,0,0,0:
0000
0000
0000
0000
,
0000
0000
0000
0000
,
0000
0000
0000
0000
,
0000
0000
0000
0000
,
1000
0001
1000
0001
,
1000
0001
1000
0000
0010
0100
0010
0000
,
1000
0000
0001
0000
0100
0001
1000
0000
,
0100
0000
0010
0000
0100
0000
0000
0010
0000
0000
0100
0000
0010
0000
0000
0000
,
1001
0000
0000
0000
0000
0001
1000
0001
,
1000
0000
0000
1000
0000
0000
0000
0000
0010
0000
0000
0000
0100
0000
0000
0000
,
0001
0000
0000
0001
0000
0000
0000
0000
0100
0000
0000
0000
1001
0000
0000
0000
,
0010
0000
0000
0010
0000
0000
0000
0000
1000
0000
0000
0000
0001
0000
0000
0000
,
0100
0000
0000
0100
0000
0000
0000
0000
0001
0000
1000
0000
0001
0000
1000
0000
,
0100
0100
1000
0001
,
0100
0010
0100
1001
,
0001
0010
0100
0010
,
1000
1000
0001
1001
,
0110
0000
0000
1001
0000
0000
1000
0000
,
0001
0010
0100
1000
,
0010
1000
0010
0000
0100
0001
0100
0000
,
1010
0000
0011
0000
1100
0000
0010
0100
,
0010
0000
0001
0000
,
1000
0000
0010
0010
,
1010
0000
1000
0100
,
0010
0000
0011
0000
0001
1000
0001
0000
,
1000
0100
1000
0000
0001
0100
0001
0000
,
1000
0010
1000
0001
0000
0010
0100
0000
,
0000
0001
0000
0000
0010
0000
0000
0100
0000
0000
1000
0000
0010
0000
0000
0000
,
0000
0000
0010
0000
0100
0000
0000
0000
0010
0000
0000
0100
0000
0000
0000
0000
,
0010
0000
0000
0000
,
0001
0000
1000
0000
1000
0001
1000
0000
,
0010
0010
0100
0000
0001
1000
0100
0000
,
0010
0100
1000
0010
,
1000
0001
1000
0000
0101
0000
1100
0000
,
0010
0000
1000
0000
0010
1000
0001
0000
,
0010
0001
0010
0000
0100
0100
0010
0000
,
0001
0000
0100
0000
0001
0000
1000
0100
,
1000
0000
0010
0000
1000
0001
0100
0010
,
0100
0000
0001
0000
,
1000
0000
0100
0000
0010
0010
0010
0000
;

//--------------- dance-single - 8Chasey ----------------
#NOTES:
     dance-single:
     8Chasey:
     Hard:
     7:
     0,0,0,0,0:
0000
0000
0000
0000
,
0000
0000
0000
0000
,
0000
0000
0000
0000
,
0000
0000
0000
0000
,
1001
0000
0001
0000
1000
0001
1000
0000
,
0001
0100
0001
0000
0000
0000
0000
0000
0010
0000
0001
0000
0100
0000
0000
0000
,
0010
0000
1000
0000
0001
0000
0000
1000
0000
0000
1000
0000
0001
0000
0000
0000
,
0100
0000
0000
0000
0001
1000
0001
1000
0000
0000
0001
0000
1000
0000
0001
0000
,
0100
0000
0000
0000
0000
0000
0000
0000
0000
0100
0010
0100
0010
0100
0010
0000
,
1000
0000
0000
1000
0000
0000
0000
0100
1000
0000
0001
0000
0100
0000
0000
0000
,
0001
0000
0000
0001
0000
0000
0000
0010
0000
0001
1000
0000
0001
0000
0000
0000
,
0100
0000
0000
0100
0000
0000
0000
0001
1000
0000
0100
0000
0010
0000
0000
0000
,
0010
0000
0000
0001
0000
0000
0000
1000
0000
0001
1000
0000
0001
0000
1000
0000
,
1001
0000
0000
1000
0000
0000
1000
0000
0000
1000
0000
0000
1000
0000
0100
0000
,
0110
0000
0000
0010
0000
0100
0000
0010
0000
0100
0000
0000
0100
0000
0000
0000
,
0101
0000
0000
0001
0000
0000
0001
0000
0000
1001
0000
0000
1000
0000
0001
0000
,
1100
0000
0000
1000
0000
0000
1000
0000
0010
0000
0000
0000
0010
0000
0000
0000
,
1001
0000
0001
0101
0000
0001
1000
0000
,
1001
0000
0000
0000
1000
0010
0000
0010
0000
0000
1000
0000
0100
0000
0010
0000
,
0100
0000
0000
0000
0010
0001
0000
0000
1000
0010
0000
0000
0100
0010
0000
0000
,
0000
0011
0000
0000
1100
0000
0000
0001
1000
0000
0010
0000
0100
0010
0100
0010
,
0100
0000
0100
0000
0100
0001
0010
0001
,
1000
0100
1001
0010
,
1001
1000
0100
0001
,
0010
0000
0001
0000
1000
0000
0000
0000
1001
0000
0000
1001
0000
0000
0000
0000
,
0001
0000
1000
0001
0000
0000
0000
0000
1000
0000
0001
1000
0000
0000
0000
0000
,
0010
1000
0100
1000
0001
0010
0100
0000
,
0000
1100
0000
0000
0110
0000
0000
0011
0000
0000
0110
0000
0000
1001
0000
0000
,
0000
0000
0001
0000
0001
0000
0000
0000
1000
0000
0000
1000
0000
0000
0000
0000
,
0110
0000
0000
0000
,
0110
0000
0100
0000
0010
0001
0100
0010
,
1000
0100
1000
0000
0000
0000
0000
0000
0010
0000
1000
0000
0100
0000
0000
0000
,
1001
0000
0001
0000
1000
0100
0010
0000
,
0100
0010
0001
1000
0010
0000
0110
0000
,
0011
0001
0000
0000
1000
0100
0001
0000
,
0100
0010
0100
0000
0010
0000
0000
0000
0001
0000
1000
0000
0010
0000
0000
0000
,
1001
0000
0000
0000
0000
0000
0000
1000
0001
0000
1000
0000
0001
0000
0000
0000
,
0010
0000
0000
0000
1000
0000
0000
0000
0001
0000
0010
0000
0100
0010
0100
0010
,
0100
0000
0000
1000
0001
0000
0010
0000
,
0001
0100
1000
0100
0001
1000
0100
0000
;

//--------------- dance-single - Vivaldi ----------------
#NOTES:
     dance-single:
     Vivaldi:
     Challenge:
     8:
     0,0,0,0,0:
0000
0000
0000
0000
,
0000
0000
0000
0000
,
0000
0000
0000
0000
,
0000
0000
0000
0000
,
0001
0000
1001
0000
0100
0000
1000
0000
0010
0000
1000
0010
0000
0000
0100
0000
,
1000
0000
0001
0000
1000
0000
0100
1000
0100
1000
0000
0001
0000
0000
1000
0000
,
0100
0000
0000
0000
1001
0000
0000
0000
0100
0100
0000
0000
1000
0000
0001
0000
,
1000
0000
0000
0000
0001
0001
0010
0100
0000
0100
0000
1000
0000
0001
0000
0000
,
1000
0000
0010
2000
0000
0000
0000
0000
0100
0000
0100
0000
0001
0000
0001
3000
,
0001
0000
1000
0100
0000
1000
0000
0001
0000
0000
1000
0000
0100
0000
0010
0000
,
0001
0000
0010
0100
0000
1000
0000
0100
0000
1000
0100
0000
1000
0000
1000
0000
,
0001
0000
1000
0001
0000
0100
0000
0010
0000
0000
1000
0000
0100
0000
1000
0000
,
0001
0000
1000
0100
0000
1000
0000
0001
0000
0010
0100
0000
1000
0001
1000
0010
,
0100
0000
0020
0000
0100
0000
0000
0100
0000
0000
0130
0000
0001
0000
1000
0000
,
0001
0000
1000
0001
0000
1000
0000
1000
0000
0100
1000
0000
0001
0000
1000
0000
,
0010
0000
0100
0010
0000
0100
0000
0100
0000
0001
1000
0000
0100
0000
1000
0000
,
1001
0000
0000
0100
0000
0100
0000
0000
0001
0000
1000
0000
0020
0000
0000
0000
,
1030
0000
1000
0000
0100
0000
0010
0001
0000
0001
0010
0000
0100
0000
1000
0000
,
0010
0000
1000
0010
0000
1000
0000
0020
0000
0000
0000
0000
1000
0000
1030
0000
,
0100
0000
1000
0001
0000
1000
0000
0002
0000
0000
0100
0000
0100
0003
0100
0000
,
0001
0010
0100
1000
0100
0010
0001
0010
0100
1000
0001
0010
0000
0010
0010
0000
,
0001
0000
1000
0001
0000
1000
0001
0000
0000
0000
1000
0000
0001
0000
1000
0000
,
0010
0000
0000
1000
0001
0000
1000
0000
0200
0000
1000
0000
1300
0000
0100
0000
,
1100
0001
1001
0000
0001
0000
0100
1000
,
0002
0000
0203
0000
0320
0000
1030
0001
,
1000
0000
0100
1000
0000
0000
0001
0000
1000
0100
0000
1000
0000
0000
0001
0000
,
1000
0000
0010
0100
0000
0020
0000
0000
0100
0000
0000
0000
0130
0000
0001
0000
,
1000
0100
1000
0001
1000
0010
0100
0001
1000
0100
0010
0001
1000
0000
0020
0000
,
1000
0000
1030
0000
1001
0000
0100
0000
1001
0000
0100
1001
0000
0000
0001
0000
,
1001
0000
0001
0001
1000
1000
1100
0000
,
0100
0000
1000
0000
0001
0000
0100
0000
0010
0000
1000
0010
0000
0000
0010
0000
,
1000
0010
1000
0000
0001
1000
0001
0000
1000
0001
0000
0001
0000
0000
0001
0000
,
0010
0000
0000
0000
0100
1000
0000
0000
1000
0001
0000
0000
0001
0000
0100
0000
,
0010
0000
1000
0020
0000
0000
1000
0030
1100
0000
0000
0000
1001
0000
0000
0000
,
0001
0000
0010
0000
0100
0000
1000
0000
0100
0000
1000
0100
0000
0000
1000
0000
,
0001
0000
0001
0000
0100
0000
0001
0100
0001
0100
0000
0002
0000
0000
1000
0000
,
1000
0003
0000
0000
0001
1000
0000
0000
1001
0000
1000
0000
0001
0000
0010
0000
,
0100
0000
1000
0100
0000
1000
0100
0000
1000
0002
0000
0000
0100
0000
0103
0000
,
0010
0000
1000
0010
0000
1000
0000
0001
0000
0000
0001
0000
1000
0000
0100
0000
,
1000
0000
0001
1000
0000
0100
0000
1000
0000
0100
1000
0000
0001
0000
0100
0000
,
1001
0000
0000
0000
;

//--------------- dance-double - 8Chasey ----------------
#NOTES:
     dance-double:
     8Chasey:
     Easy:
     4:
     0,0,0,0,0:
00000000
00000000
00000000
00000000
,
00000000
00000000
00000000
00000000
,
00000000
00000000
00000000
00000000
,
00000000
00000000
00000000
00000000
,
00000001
00001000
00000001
00001000
,
00010000
10000000
00010000
10000000
,
01000000
00000000
10010000
00000000
,
01000000
00100000
01000000
00100000
,
00001000
00000000
00000000
00000110
,
00001001
00000000
00000001
00001000
,
00000001
00000000
00010000
00001000
,
00010000
00000000
00100000
01000000
,
00100000
10000000
00010000
10000000
,
10010000
00000000
00100000
00001000
,
00010000
00000000
00000100
00000100
,
00000010
00000000
00001000
00010000
,
00001000
00000000
00100000
00010000
,
10000000
00000000
01000000
00100000
,
00010000
00000000
00000010
00000100
,
00001000
00000000
00000001
00001000
,
00001001
00000000
00011000
00000000
,
01010000
00000000
01000000
00000000
,
00100000
10000000
00100000
10000000
,
01000000
00000000
00010000
00000000
,
00001000
00000000
00000100
00000010
,
00000100
00000000
00001001
00000000
,
00000010
00000010
00000100
00000100
,
00000001
00000100
00001000
00010000
,
00000000
01000000
10000000
00000000
00010000
00000000
01000000
00000000
,
00100000
00000000
00000000
00000000
,
10000000
01000000
00100000
00010000
,
01000000
00001000
00010000
00000100
,
00000010
00000001
00000010
00000000
,
00000100
00001000
00000100
00000000
,
00010000
00001000
00100000
01000000
,
10000000
01000000
10000000
00010000
,
00011000
00000000
00001001
00000000
,
00000001
00001000
00000010
00000100
,
00001001
00000000
00000100
00000000
,
00010000
00000000
10000000
00000000
;

//--------------- dance-double - 8Chasey ----------------
#NOTES:
     dance-double:
     8Chasey:
     Medium:
     6:
     0,0,0,0,0:
00000000
00000000
00000000
00000000
,
00000000
00000000
00000000
00000000
,
00000000
00000000
00000000
00000000
,
00000000
00000000
00000000
00000000
,
01100000
00000000
00010000
00000000
00100000
00001000
00100000
00000000
,
00000100
00001100
00000000
00000000
00100000
00001000
01000000
00000000
,
10000000
01000000
00010000
00000000
00100000
00010000
00100000
00000000
,
00001000
00000000
00010000
00000000
00000100
00000000
00000000
00001000
00000000
00001000
00000000
00000000
00000010
00000000
00001000
00000000
,
00000001
00000000
00000000
00000000
00000000
00000100
00000010
00000100
,
00000010
00000000
00000000
00000010
00000000
00000000
00000000
00001000
00000000
00000000
00000010
00000000
00001000
00000000
00000000
00000000
,
00000100
00000000
00000000
00010000
00000000
00000000
00000000
00000100
00000000
00000000
00010000
00000000
00001000
00000000
00000000
00000000
,
00100000
00000000
00000000
00100000
00000000
00000000
00000000
00010000
00000000
00000000
00100000
00000000
00010000
00000000
00000000
00000000
,
01000000
00000000
00000000
00001000
00000000
00000000
00000000
01000000
00000000
00000000
00001000
00000000
00010000
00000000
00000000
00000000
,
00011000
00000000
00001000
00000000
00010000
00001000
00010000
00000000
,
00000100
00000000
00000010
00000000
00000001
00001000
00000001
00000000
,
00000100
00001000
00010000
00000000
01000000
00010000
00001000
00000000
,
00100000
01000000
01010000
11000000
,
01100000
00000000
00000000
10010000
00000000
00000000
01000000
00000000
,
00010000
00100000
00010000
00000000
00100000
00001000
00100000
00000000
,
00001000
00000100
00000001
00001000
,
00001000
00000100
00000010
00000001
00000010
00000000
00000110
00000000
,
00001001
00000000
00001000
00000000
00000010
00000100
00001000
00000000
,
00010000
00001000
00010000
00000000
00100000
00000000
10010000
00000000
,
01000000
00010000
01000000
00000000
00001000
00010000
00001000
00000000
,
00000100
00000000
00000001
00000000
00001000
00000000
00000000
00000000
00000010
00000000
00000000
00001001
00000000
00000000
00000000
00000000
,
00000001
00000100
00000001
00000000
00001000
00000100
00001000
00000000
,
00010000
01000000
00010000
00000000
10000000
01000000
10000000
00000000
,
00000000
00100000
00000000
00000000
00010000
00000000
00000000
00001000
00000000
00000000
00000100
00000000
00000000
00000001
00000000
00000000
,
00000000
00000000
00001000
00000000
00000001
00000000
00000000
00000000
00001000
00000000
00000000
00000001
00000000
00000000
00000000
00000000
,
00001001
00000000
00000000
00000000
,
00110000
00000000
00100000
00000000
01000000
00010000
00001000
00000000
,
00100000
00010000
00100000
00000000
01000000
10000000
01000000
00000000
,
00010000
00000000
00001000
00000000
00000100
00000010
00000100
00000000
,
00001000
00100000
00010000
10010000
,
01000000
01000000
00010000
00000000
00100000
01000000
00010000
00000000
,
00001000
00010000
00000100
00000000
00001000
00000001
00001000
00000000
,
00001001
00000000
00000110
00000000
00000001
00001000
00000100
00000000
,
00000010
00000001
00000010
00000100
00001000
00000100
00010000
00000000
,
00011000
00000000
00000000
00001000
00100000
00000000
00010000
00000000
,
10000000
01000000
00010000
01000000
10000000
00100000
10000000
00000000
;

//--------------- dance-double - 8Chasey ----------------
#NOTES:
     dance-double:
     8Chasey:
     Hard:
     9:
     0,0,0,0,0:
00000000
00000000
00000000
00000000
,
00000000
00000000
00000000
00000000
,
00000000
00000000
00000000
00000000
,
00000000
00000000
00000000
00000000
,
00001001
00000000
00000001
00000000
00001000
00000000
00000100
00000000
00010000
00000000
00001000
00010000
00000000
00001000
00100000
00000000
,
00010000
00100000
00010000
00000000
10000000
00000000
00100000
10000000
00100000
10000000
00000000
01000000
10000000
00000000
01000000
00000000
,
00100000
00000000
00100000
00000000
00010000
00100000
00000000
00010000
00000000
10000000
01000000
00000000
10000000
00100000
10000000
00000000
,
01000000
00000000
00010000
00000000
00001000
00010000
00000100
00010000
00000000
00001000
00000000
00000010
00001000
00000000
00000001
00000000
,
00000101
00000000
00000000
00000000
00000000
00000000
00000000
00000000
00000000
00000010
00001000
00000010
00001000
00000010
00001000
00000010
,
00000100
00000000
00000001
00000010
00000000
00000001
00000000
00001000
00000100
00000000
00010000
00000000
00011000
00000000
00001000
00000000
,
00100000
00000000
00010000
00100000
00000000
01000000
00000000
10000000
00000000
00100000
10000000
00000000
10100000
00000000
00000000
00000000
,
00110000
00000000
00100000
00010000
00000000
01000000
00000000
00010000
00000000
00000000
00100000
00000000
00001000
00000000
00010000
00000000
,
00000100
00000000
00000100
00001000
00000000
00000010
00000000
00001000
00000000
00000001
00000100
00000000
00000010
00000000
00000100
00000000
,
00001001
00000000
00000000
00000000
00000001
00000000
00001000
00000000
00000010
00001000
00000010
00000000
00001000
00000000
00000100
00001000
,
00000100
00000000
00010000
00001000
00000000
00001000
00000000
00100000
00000000
00010000
10000000
00000000
00010000
00000000
01000000
00000000
,
00100000
00000000
10000000
00100000
00000000
10000000
01000000
00000000
00010000
00001000
00000000
00010000
00000000
00000100
00010000
00000000
,
00010100
00000000
00000000
00000000
00000010
00000000
00001000
00000000
00000001
00000010
00000001
00000000
00001000
00000001
00001000
00000000
,
00000100
00000000
00010000
00000000
00000100
00000000
00010000
00001000
00000000
00010000
00001000
00000000
00100000
00000000
00010000
00000000
,
01000000
00000000
00010000
00000000
10000000
00000000
01000000
10000000
00000000
01000000
10000000
00000000
00100000
00000000
01000000
00000000
,
00010000
00000000
00100000
00000000
01000000
00000000
00010000
00001000
00000000
00010000
00001000
00000000
00010000
00000000
00000100
00000000
,
00001000
00000010
00001000
00000010
00001000
00000010
00001000
00000010
00001000
00000010
00001000
00000000
00000001
00001000
00000001
00000000
,
00001001
00000000
00001000
00000010
00000000
00001000
00000010
00000000
00000000
00000100
00001000
00000000
00010000
00000000
00001000
00000000
,
00100000
00000000
00001000
00100000
00010000
00000000
00100000
00000000
01000000
10000000
01000000
00000000
00100000
00010000
00100000
00000000
,
01000000
00000000
00000000
00100000
01000000
00000000
00100000
00000000
00000000
00000000
00001000
00010000
00001000
00000000
00010000
00000000
,
00000100
00000000
00000100
00000000
00001100
00000000
00000000
00000000
00000101
00000000
00000000
00001100
00000000
00000000
00000000
00000000
,
00010000
00001000
00010000
00000000
00000010
00000000
00010000
00000000
00001000
00010000
00001000
00000000
00100000
00000000
00010000
00000000
,
00100000
00000000
01000000
00000000
10000000
00000000
01000000
00000000
10000000
01000000
10000000
00000000
01000000
00000000
00100000
00000000
,
00001000
00100000
00001000
00100000
00001000
00100000
00001000
00100000
00001000
00100000
00001000
00100000
00001000
00000000
00100000
00000000
,
00001000
00000000
00011000
00000000
00010100
00000000
00000000
00000000
00001001
00000000
00000000
00000110
00000000
00000000
00000000
00000000
,
00001001
00000000
00000000
00000110
,
00001001
00000000
00000001
00000000
00001000
00000000
00001000
00000000
00000100
00010000
00000100
00010000
00000000
00000000
00001000
00000000
,
00100000
00010000
00100000
00000000
00010000
00000000
10000000
00000000
01000000
10000000
00000000
00100000
00000000
00000000
10000000
00000000
,
00010000
00000000
01000000
00000000
00100000
01000000
00000000
00000000
00001000
00010000
00000000
00000000
00000100
00001000
00000000
00000000
,
00000100
00000000
00000010
00000100
00000010
00000000
00000001
00000000
00000100
00000000
00000010
00000000
00000110
00000000
00000000
00000000
,
00001100
00000000
00001100
00000000
00010000
00001000
00010000
00000000
00001000
00000000
00100000
00010000
00000000
00010000
00100000
00000000
,
01000000
10000000
01000000
00000000
10000000
00000000
01000000
00010000
00001000
00000000
00010000
00000000
00010100
00000000
00000000
00000000
,
00001010
00000000
00000000
00000000
00000100
00000001
00000000
00000100
00000000
00000000
00000010
00000100
00000010
00000000
00001000
00000000
,
00000100
00001000
00000100
00000000
00000010
00000100
00001000
00000001
00000100
00000000
00000010
00000000
00001000
00000000
00000100
00000000
,
00001100
00000000
00000100
00010000
00000000
00001000
00000000
00100000
00010000
00000000
00100000
00000000
01000000
00000000
10000000
00000000
,
01000000
00000000
10000000
00100000
00000000
01000000
00000000
00010000
00000000
10000000
00010000
00000000
10010000
00000000
00000000
00000000
;

//--------------- dance-double - 8Chasey (based on Single CHALLENGE) ----------------
#NOTES:
     dance-double:
     8Chasey (based on Single CHALLENGE):
     Challenge:
     9:
     0,0,0,0,0:
00000000
00000000
00000000
00000000
,
00000000
00000000
00000000
00000000
,
00000000
00000000
00000000
00000000
,
00000000
00000000
00000000
00000000
,
00001000
00000000
00011000
00000000
00000100
00000000
00010000
00000000
00001000
00000000
00100000
00010000
00000000
00000000
01000000
00000000
,
00100000
10000000
00100000
00000000
10000000
00000000
01000000
00100000
01000000
00100000
00000000
00010000
10000000
00000000
01000000
00000000
,
00010000
00000000
00000000
00000000
00011000
00000000
00000000
00010000
00000100
00000000
00010000
00000000
00000010
00000000
00001000
00000000
,
00000100
00000000
00000000
00000000
00000010
00000001
00001000
00000001
00000000
00000100
00000000
00000100
00000010
00000000
00000010
00000000
,
00000100
00000000
00000010
00002000
00000000
00000000
00000000
00000000
00003000
00000001
00000010
00000100
00001000
00000001
00000010
00000000
,
00000001
00000000
00000001
00000010
00000000
00000001
00000000
00000100
00000000
00000000
00001000
00000000
00010000
00000000
01000000
00000000
,
00100000
00000000
00010000
10000000
00000000
00010000
00000000
10000000
00000000
00100000
10000000
00000000
01000000
00000000
01000000
00000000
,
00010000
00000000
00001000
00010000
00000000
00000100
00000000
00001000
00000000
00000000
00000010
00000000
00000100
00000000
00000001
00000000
,
00000100
00000000
00000010
00001000
00000000
00000100
00000000
00010000
00000000
00001000
00010000
00000000
00001000
00100000
00001000
00100000
,
00010000
00000000
00200000
00000000
01000000
00000000
00000000
01000000
00000000
00000000
01300000
00000000
10000000
00000000
00100000
00000000
,
10000000
00000000
00010000
00100000
00000000
00001000
00000000
00001000
00000000
00010000
00001000
00000000
00010000
00000000
00000100
00000000
,
00001000
00000000
00000010
00000100
00000000
00000010
00000000
00000010
00000000
00001000
00000001
00000000
00000001
00000000
00000100
00000000
,
00000110
00000000
00000000
00000010
00000000
00000010
00000000
00001000
00000100
00000000
00020000
00000000
00000100
00000000
00000000
00000000
,
00031000
00000000
00001000
00000000
00010000
00000000
00001000
00100000
00000000
00100000
00001000
00000000
00010000
00000000
01000000
00000000
,
10000000
00000000
00100000
10000000
00000000
00010000
00000000
00200000
00000000
00000000
00010000
00000000
00310000
00000000
10000000
00000000
,
00010000
00000000
10000000
00100000
00000000
10000000
00010000
00000000
02000000
00000000
00100000
00000000
03100000
00000000
10000000
00000000
,
00010000
00000000
00000000
00100000
00000000
00000000
01000000
00000000
00000000
10000000
00000000
00000000
00010000
00000000
00000000
01000000
00000000
00000000
00001000
00000000
00000000
00010000
00000000
00000000
00000100
00000000
00000000
00001000
00000000
00000000
00000001
00000000
00000000
00000010
00000000
00000000
00000001
00000000
00000010
00000000
00000100
00000000
00001000
00000000
00000100
00000000
00000010
00000000
,
00000100
00000000
00001000
00000010
00000000
00001000
00000010
00000000
00000000
00000000
00010000
00000000
00001000
00000000
00010000
00000000
,
00000010
00000000
00000000
00000100
00000010
00000000
00000100
00000000
00002000
00000000
00100000
00000000
00103000
00000000
00010000
00000000
,
00110000
00000000
10000000
00010000
00000000
00000000
00100000
00000000
01000000
00000000
10000000
00000000
00100000
00000000
10000000
00000000
,
00100000
00000000
00100000
00000000
00022000
00000000
00033000
00000000
00020000
00000000
00000000
00030200
00000000
00000000
00001300
00000000
,
00000100
00000000
00000010
00000100
00000000
00000000
00001000
00000000
00000010
00001000
00000000
00000010
00000000
00000000
00000100
00000000
,
00000001
00000000
00000010
00000001
00000000
00001000
00000000
00000100
00010000
00000100
00010000
00000100
00010000
00000000
00001000
00000000
,
00010000
00001000
00100000
00010000
00100000
01000000
10000000
00100000
10000000
01000000
00100000
00010000
01000000
00000000
00002000
00000000
,
00010000
00000000
00000000
00000000
00000000
00000000
00013000
00000000
00000000
00000000
00000000
00000000
00011000
00000000
00000000
00000000
00000000
00000000
00000000
00000000
00000000
00000000
00000000
00000000
00000110
00000000
00000000
00000000
00000000
00000000
00000010
00000000
00000000
00001000
00000000
00000000
00000000
00000000
00000000
00000001
00000000
00000000
00000010
00000000
00000001
00000000
00000010
00000000
,
00000200
00000000
00010300
00010000
00001000
00001000
00010100
00000000
,
00000010
00000000
00000100
00000000
00001000
00000000
00000001
00000000
00000100
00000000
00000001
00001000
00000000
00000000
00000100
00000000
,
00010000
00001000
00010000
00000000
00001000
00100000
00001000
00000000
00100000
01000000
00000000
01000000
00000000
00000000
10000000
00000000
,
00100000
00000000
00000000
00000000
00010000
10000000
00000000
00000000
01000000
10000000
00000000
00000000
00100000
00000000
01000000
00000000
,
00001000
00000000
00010000
00000200
00000000
00000000
00001300
00000000
00001010
00000000
00000000
00000000
00010100
00000000
00000000
00000000
,
00001000
00000000
00010000
00000000
00100000
00000000
01000000
00000000
00010000
00000000
01000000
00010000
00000000
00000000
10000000
00000000
,
01000000
00000000
01000000
00000000
10000000
00000000
00100000
10000000
00100000
10000000
00000000
00020000
00100000
00000000
00130000
00000000
,
10010000
00000000
00000000
00000000
00010000
01000000
00000000
00101000
00000000
00000000
00100000
00000000
00001000
00000000
00010000
00000000
,
00000100
00000000
00000010
00000000
00000001
00000010
00000001
00000100
00000000
00000020
00000000
00001000
00000000
00000000
00001030
00000000
,
00000100
00000000
00010000
00000100
00000000
00010000
00000000
00001000
00000000
00000000
00001000
00000000
01000000
00000000
00100000
00000000
,
10000000
00000000
00010000
00100000
00000000
00010000
00000000
00100000
00000000
00010000
01000000
00000000
00001000
00000000
00010000
00000000
,
00011000
00000000
00000000
00000000
;

//--------------- dance-couple - 8Chasey ----------------
#NOTES:
     dance-couple:
     8Chasey:
     Easy:
     3:
     0,0,0,0,0:
00000000
00000000
00000000
00000000
,
00000000
00000000
00000000
00000000
,
00000000
00000000
00000000
00000000
,
00000000
00000000
00000000
00000000
,
00010000
00000001
10001000
10001000
,
01000010
01000010
00000000
00000000
00000000
00000000
10001000
00000000
,
00100100
00000000
01000010
00000000
,
00010001
10001000
00010001
10001000
,
00010010
00000000
00000000
10010110
,
00100000
00000000
00100000
00000000
,
00010000
10000000
00010000
10000000
,
00000100
00000000
00000100
00000000
,
00001000
00000001
00001000
00000001
,
10011001
00000000
00000000
00000000
,
10001000
00000000
01000100
10000000
,
01001000
00000000
00000000
00000000
,
00100001
00000000
00010010
00000001
,
00100010
00000000
00000000
00000000
,
01000100
00100010
01000100
00000000
,
00100010
00000000
00010001
00000000
,
10001000
00010001
10001000
00100010
,
01001000
00000000
01000000
00000000
,
01000000
00010000
01000000
01000000
,
00010100
00000000
00000100
00000000
,
00000100
00001000
00000100
00000100
,
10001000
00000000
00010001
00010001
,
10001000
00000000
00010001
00000000
,
01100110
01000010
01000010
01000010
,
00000000
00100010
00100010
00000000
00100010
00000000
00100010
00000000
,
00100010
00000000
00000000
00000000
,
00100010
00000000
00010001
10001000
,
00000001
00000001
00010000
00000000
00000000
00000000
10001000
00000000
,
01000100
01000100
10001000
00000000
,
00100010
00000000
01000100
01000100
,
00010001
00000000
10001000
10001000
,
00010000
00010000
00000001
00000000
10001000
00000000
10011001
00000000
,
00011000
00000000
10000001
00000000
,
00011000
10000001
01000010
00100100
,
01000010
00000000
00000000
00000000
;
