#VERSION:0.83;
#TITLE:Lonely Storm;
#SUBTITLE:;
#ARTIST:Tsunku;
#TITLETRANSLIT:;
#SUBTITLETRANSLIT:;
#ARTISTTRANSLIT:;
#GENRE:;
#ORIGIN:;
#CREDIT:;
#BANNER:Lonely Storm2.png;
#BACKGROUND:Rhythm Heaven Fever.jpg;
#PREVIEWVID:;
#JACKET:;
#CDIMAGE:;
#DISCIMAGE:;
#LYRICSPATH:Lonely Storm.lrc;
#CDTITLE:;
#MUSIC:Lonely Storm.ogg;
#OFFSET:1.280000;
#SAMPLESTART:10.050000;
#SAMPLELENGTH:15.000000;
#SELECTABLE:YES;
#DISPLAYBPM:180.000000;
#BPMS:0.000=180.000,
339.000=360.000,
340.000=180.000;
#STOPS:338.000=0.083,
338.250=0.083;
#DELAYS:;
#WARPS:;
#TIMESIGNATURES:0.000=4=4;
#TICKCOUNTS:0.000=4;
#COMBOS:0.000=1;
#SPEEDS:0.000=1.000=0.000=0;
#SCROLLS:0.000=1.000;
#FAKES:;
#LABELS:0.000=Song Start;
#LASTSECONDHINT:128.053329;
#BGCHANGES:;
#KEYSOUNDS:;
#ATTACKS:
;

//---------------dance-single - ----------------
#NOTEDATA:;
#CHARTNAME:;
#STEPSTYPE:dance-single;
#DESCRIPTION:;
#CHARTSTYLE:;
#DIFFICULTY:Beginner;
#METER:2;
#RADARVALUES:0.217014,0.336565,0.124008,0.000000,0.000000,196.000000,180.000000,16.000000,0.000000,0.000000,0.000000,0.000000,0.000000,0.000000,0.217014,0.336565,0.124008,0.000000,0.000000,196.000000,180.000000,16.000000,0.000000,0.000000,0.000000,0.000000,0.000000,0.000000;
#CREDIT:;
#DISPLAYBPM:180.000000;
#NOTES:
0000
0000
0000
0000
,
0001
0000
1000
0000
,
0001
0000
0001
0000
,
1000
0000
0001
0000
,
1000
0000
1000
0000
,
0001
0000
1000
0000
,
0001
0000
1000
0000
,
0001
0000
0001
0000
,
1000
1000
0000
0000
,
0001
0000
0000
0000
,
0001
0000
0000
0000
,
1000
0000
0000
0000
,
1000
0000
0000
0000
,
0010
0000
0000
0000
,
0010
0000
0000
0000
,
0100
0000
0000
0000
,
0100
0000
0001
0001
,
0001
0000
0000
0000
,
0001
0000
1000
1000
,
1000
0000
0000
0000
,
1000
0000
0010
0010
,
0010
0000
0000
0000
,
0010
0000
0100
0100
,
0100
0000
0000
0000
,
0100
0100
0100
0000
,
0001
0000
1000
0000
,
0001
0000
1000
0000
,
0010
0000
0000
0000
,
0100
0000
0000
0000
,
1000
0000
0001
0000
,
1000
0000
0001
0000
,
0100
0000
0000
0000
,
0010
0000
0000
0000
,
0001
0001
0001
0000
,
1000
1000
1000
0000
,
0010
0010
0010
0000
,
0100
0100
0100
0000
,
0001
0000
0001
0000
,
1000
0000
1000
0000
,
0100
0000
0010
0000
,
0001
0001
0001
0000
,
1000
1000
1000
0000
,
0001
0001
0001
0000
,
0100
0100
0100
0000
,
0010
0010
0010
0000
,
1000
0000
1000
0000
,
0001
0000
0001
0000
,
0010
0000
0100
0000
,
1000
1000
1000
0000
,
1001
0000
0000
0000
,
0000
0000
0000
0000
,
0110
0000
0000
0000
,
0000
0000
0000
0000
,
0001
0000
0000
0000
,
1000
0000
0000
0000
,
0010
0000
0100
0000
,
0110
0000
0000
0000
,
0110
0000
0000
0000
,
0000
0000
0000
0000
,
1001
0000
0000
0000
,
0000
0000
0000
0000
,
1000
0000
0000
0000
,
0001
0000
0000
0000
,
0000
0010
0010
0010
,
0000
0100
0100
0100
,
0000
1001
0000
0001
,
0001
0000
1000
0000
,
0010
0000
0010
0000
,
0100
0000
0100
0000
,
1000
1000
1000
0000
,
0001
0001
0001
0000
,
1001
0000
0000
0000
,
1001
0000
0000
0000
,
0110
0110
0000
0010
,
0010
0000
0100
0000
,
0001
0000
0001
0000
,
1000
0000
1000
0000
,
0010
0000
0010
0000
,
0100
0000
0100
0000
,
0110
0000
0110
0000
,
0110
0000
0110
0000
,
1000
0000
0001
0000
,
1000
0000
1000
0000
,
0001
0000
1000
0000
,
0001
0000
0000
0000
0001
0001
0000
0000
,
0001
0000
1000
0000
,
0001
0000
0001
0000
,
1000
0000
0001
0000
,
1000
0000
1000
0000
,
0010
0000
0100
0000
,
0010
0000
0010
0000
,
0100
0000
0010
0000
,
0100
0000
0100
0100
,
0100
0000
0010
0000
,
0100
0000
0100
0000
,
0010
0000
0100
0000
,
0000
1001
1001
0000
;

//---------------dance-single - ----------------
#NOTEDATA:;
#CHARTNAME:;
#STEPSTYPE:dance-single;
#DESCRIPTION:;
#CHARTSTYLE:;
#DIFFICULTY:Easy;
#METER:5;
#RADARVALUES:0.408562,0.563122,0.224764,0.193762,0.000000,369.000000,340.000000,29.000000,25.000000,0.000000,0.000000,0.000000,0.000000,0.000000,0.408562,0.563122,0.224764,0.193762,0.000000,369.000000,340.000000,29.000000,25.000000,0.000000,0.000000,0.000000,0.000000,0.000000;
#CREDIT:;
#DISPLAYBPM:180.000000;
#NOTES:
0000
0000
0000
0000
,
0001
0000
0100
0000
1000
0000
0000
0010
,
0000
0010
1001
0000
,
1000
0000
0001
0000
0100
0000
0000
0010
,
0000
0010
0020
0030
,
1000
0000
0001
0000
0100
0000
0000
0010
,
0000
1000
0010
0000
0100
0000
0001
0000
,
1000
1100
0001
0101
,
0010
0100
0010
0100
0000
0000
0000
0000
,
0001
0100
1000
0100
,
0010
2000
3001
0002
,
1003
0100
1000
0010
,
0100
1001
1001
1001
,
0010
0100
0001
1000
,
0010
0020
0130
0200
,
0301
1000
0100
0010
,
1000
0001
0010
0010
,
0020
0030
0100
1000
,
0002
0003
1000
0000
,
0110
0000
0001
0100
,
1000
0000
0010
0100
,
0001
0000
1000
0000
,
0001
0000
1000
0000
,
0010
0010
0010
0100
,
0010
0000
1000
0001
1000
0001
0000
0000
,
0010
0000
0100
0010
0000
0000
0000
0000
,
1000
0000
0001
1000
0000
0000
0000
0000
,
0001
0100
1000
0100
,
0001
0010
0020
0030
,
1000
0000
0100
1000
0000
0000
0000
0000
,
0001
0000
0010
0001
0000
0000
0000
0000
,
0010
1000
0100
1000
,
0010
0100
0002
0003
,
1000
0010
0010
1000
,
0001
0100
0100
0001
,
0010
0000
1001
0000
,
0100
0020
0230
0320
,
1030
0001
0100
0000
,
0001
0001
1000
0000
,
0010
0100
0001
0000
,
1000
0000
0010
0000
1000
0020
0000
0000
,
0130
0001
1000
0100
,
0010
0002
2003
3002
,
0103
0010
0100
1001
,
0000
0000
0100
0000
0001
0100
0000
0000
,
0010
0000
1100
0000
,
0010
0000
0101
0000
,
1000
0100
0001
0100
,
1000
0000
0010
0000
0010
0010
0000
0000
,
0001
0001
1000
1000
,
0010
0100
0001
0000
,
1000
1000
0001
0001
,
0010
0100
1000
0000
,
0001
0000
0101
0000
,
0010
0100
1000
0000
,
1000
0001
0010
0001
,
1000
1001
1001
0000
,
0010
0010
0010
0000
,
0001
0100
0001
0000
1000
0000
0000
0000
,
0010
0000
0000
0010
0000
0000
0010
0000
,
1000
0000
0001
0000
1000
0001
0000
0000
,
0100
0000
0000
0100
0000
0000
0100
0000
,
0010
0000
1100
0101
,
0000
0010
0010
0020
,
0030
0100
0100
0200
,
0301
0001
0010
0100
,
1000
0002
0003
0100
,
0010
0010
0010
0010
,
0100
0000
0001
0100
0001
0000
0000
0000
,
1000
1000
0001
0001
,
1000
1000
0001
0001
,
0010
0100
0010
0100
,
0110
0110
0110
0000
,
0001
1000
0001
1000
0001
0100
0001
0100
,
0001
0010
0001
0010
0001
0000
0000
0000
,
1000
0001
1000
0001
1000
0100
1000
0100
,
1000
0010
1000
0010
1000
0000
0000
0000
,
1001
0000
0101
0000
,
1100
0000
0000
0010
0000
0000
0010
0000
,
1000
0100
0010
0001
1000
0100
0010
0001
,
1000
0001
1001
0000
,
0010
0000
0100
0000
0001
0000
0000
0001
,
0000
0001
0002
0003
,
0010
0000
0100
0000
1000
0000
0000
1000
,
0000
1000
2000
0000
,
3001
0000
0010
0000
0001
0000
0000
0100
,
0000
0100
0002
0003
,
1000
0000
0010
0000
1000
0000
0000
0100
,
0000
0100
2000
3000
,
0010
0010
0100
0100
,
0001
1000
0100
0100
,
0010
1000
0001
0100
,
0001
1001
1001
0000
,
1000
0010
0100
0010
,
1000
0011
1010
0000
,
0100
0001
1000
0010
,
0000
0000
0110
0000
0000
2002
0000
3003
;

//---------------dance-single - ----------------
#NOTEDATA:;
#CHARTNAME:;
#STEPSTYPE:dance-single;
#DESCRIPTION:;
#CHARTSTYLE:;
#DIFFICULTY:Medium;
#METER:8;
#RADARVALUES:0.639969,0.750829,0.503782,0.147259,0.038752,578.000000,513.000000,65.000000,19.000000,0.000000,0.000000,0.000000,0.000000,0.000000,0.639969,0.750829,0.503782,0.147259,0.038752,578.000000,513.000000,65.000000,19.000000,0.000000,0.000000,0.000000,0.000000,0.000000;
#CREDIT:;
#DISPLAYBPM:180.000000;
#NOTES:
0000
0000
0000
0000
,
1000
0001
0100
0000
0010
0000
0100
0001
,
0000
0100
0010
0100
0001
0000
1001
0000
,
0001
1000
0100
0000
0010
0000
0100
1000
,
0000
0100
0010
0100
1000
0000
1001
0000
,
0010
0100
0010
0000
0001
0000
1000
0010
,
0000
0100
0010
0100
0001
0000
0001
0000
,
1000
0100
1000
0000
0001
0100
0001
0000
,
1000
0100
0010
0000
0001
0000
1000
0000
,
0100
0010
0001
0000
0200
0000
1300
0010
,
0000
0100
0010
0000
0020
0000
1030
0000
,
0100
0000
1000
0001
1000
0000
0010
0100
,
0010
1000
0010
1000
0001
0000
1001
0000
,
0010
0100
1000
0000
0020
0000
0031
0100
,
0000
0010
0100
0000
0200
0000
0301
0000
,
0010
0000
0001
1000
0001
0000
0100
0010
,
0100
0001
0100
0001
1000
0000
1001
0000
,
0120
0000
1030
0000
1000
0100
1000
0002
,
0000
0103
1000
0010
,
2001
0000
3100
0000
0010
0100
0010
0200
,
0000
0300
0010
0000
0100
0000
0110
0000
,
1100
0000
0010
0100
0010
0000
1000
0001
,
1000
0000
0001
1000
0001
0000
1000
0000
,
1001
0010
0110
1000
,
1001
0000
0010
0100
2000
0001
3000
0000
,
0101
0000
1000
0010
0000
0000
0010
0000
,
1100
0000
0001
0010
0000
0000
0010
0000
,
0101
1000
1100
0001
,
1001
0000
0001
1000
0000
0020
0000
0030
,
1100
0000
0001
0010
0000
0000
0010
0000
,
0101
0000
1000
0010
0000
0000
0010
0000
,
1100
0001
0101
1000
,
1001
0000
1000
0001
0000
0200
0000
0300
,
0001
0100
0001
0000
0001
0010
0001
0000
,
1000
0100
0010
1010
,
0101
0000
0010
0000
0010
0100
0010
0000
,
1001
0110
1001
0110
,
0101
0000
0000
1000
0100
0000
0101
0000
,
1100
0000
0000
0001
0100
0000
1100
0000
,
1001
0010
0001
0100
,
1100
0000
0010
1000
0000
0200
0000
0300
,
1000
0100
1000
0000
1000
0010
1000
0000
,
0001
0100
0010
0011
,
1100
0000
0010
0000
0010
0100
0010
0000
,
1001
0110
1001
0110
,
1100
0000
0000
0001
0100
0000
1100
0000
,
0101
0000
0000
1000
0100
0000
0101
0000
,
2001
0010
0100
3010
,
0101
0000
0010
0001
0000
0200
0000
0300
,
0001
1000
0001
0000
0010
0100
0010
0000
,
0100
0010
1000
0000
0001
0000
0001
0000
,
0001
0010
0001
0000
1000
0010
1000
0000
,
0010
0100
0010
0000
0100
0000
1001
0000
,
0001
0010
0100
1000
0000
1000
0100
0000
,
0010
0100
1000
0001
1000
0000
0001
0000
,
0010
0000
0100
0000
1000
0001
1000
0000
,
0100
0010
2002
3003
,
1000
0001
1000
0000
0100
0010
0100
0000
,
0010
0100
0001
0000
1000
0000
1000
0000
,
1000
0100
1000
0000
0001
0100
0001
0000
,
0100
0010
0100
0000
0010
0000
1001
0000
,
1000
0100
0010
0001
0000
0001
0010
0000
,
0100
0010
0001
1000
0001
0000
1000
0001
,
1000
1100
0101
1100
,
0000
0101
1100
0101
,
0100
0010
0000
0100
0010
0000
0100
0001
,
1000
0100
0010
0100
0000
0000
1000
0100
,
0010
0000
0001
1000
0100
0010
0100
0010
,
0001
0000
2000
0000
0010
0000
3100
0010
,
0100
0001
1000
0010
0000
0100
0010
1000
,
0001
0000
0000
1000
0000
0000
0001
0000
0010
0000
0100
0000
0010
0000
0000
0000
,
0001
0010
0001
0100
0001
1000
0010
0000
,
1000
0001
0100
0010
0100
0000
1001
0000
,
0001
0100
0001
0000
0010
0000
0100
0000
0010
0100
0010
0000
0001
0000
1000
0000
,
0010
1000
0001
1000
0001
0000
0110
0000
,
1000
0010
1000
0000
0100
0000
0010
0000
0100
0010
0100
0000
1000
0000
0001
0000
,
0100
0001
1000
0001
1000
0000
0110
0000
,
0100
0010
1000
0001
0100
0010
1000
0100
,
0010
0100
0010
0000
0001
1000
0001
0000
,
0010
0100
0010
0000
1000
0001
1000
0000
0010
0000
0100
0000
0010
0000
0100
0000
,
0001
1000
0001
0000
1000
0001
1000
0000
0010
0000
0000
0000
1001
0000
0000
0000
,
0100
0001
0100
0000
0010
0000
0100
1000
,
0000
0100
0010
0000
0001
0000
1001
0000
,
1000
0010
0100
0000
0010
0000
0100
0001
,
0000
1000
0001
1000
0010
0010
0100
0000
,
0100
0001
0100
0000
0010
0000
0100
1000
,
0000
0100
0010
0000
0001
0000
1001
0000
,
1000
0010
0100
0000
0010
0000
0100
0001
,
0000
1000
0001
1000
0010
0000
0100
0000
,
1001
0000
0010
0100
0010
0000
0001
1000
,
0000
0100
0010
0001
0100
0000
0010
0000
,
1000
0100
0010
0000
1000
0000
0001
0010
,
0000
0100
1000
0001
1000
0000
1001
0000
,
1001
0000
0010
0100
0010
0000
0001
1000
,
0000
0100
0010
0001
0100
0000
0010
0000
,
1001
0000
0010
0100
0010
0000
1000
0001
,
1000
0000
0000
0000
0100
0010
0100
0000
0000
0000
2002
0000
0000
0000
3003
0000
;

//---------------dance-single - ----------------
#NOTEDATA:;
#CHARTNAME:;
#STEPSTYPE:dance-single;
#DESCRIPTION:;
#CHARTSTYLE:;
#DIFFICULTY:Hard;
#METER:10;
#RADARVALUES:0.785015,1.088702,0.565786,0.689794,0.220889,709.000000,636.000000,73.000000,89.000000,0.000000,0.000000,0.000000,0.000000,0.000000,0.785015,1.088702,0.565786,0.689794,0.220889,709.000000,636.000000,73.000000,89.000000,0.000000,0.000000,0.000000,0.000000,0.000000;
#CREDIT:;
#DISPLAYBPM:180.000000;
#NOTES:
0000
0000
0000
0000
,
1000
0001
0100
0100
0010
0010
0100
0002
,
0000
0103
0010
0100
0001
0000
1001
0000
,
0001
1000
0100
0100
0010
0010
0100
2000
,
0000
3100
0010
0100
1000
0000
1001
0000
,
0010
0100
0010
0010
0001
0001
1000
0020
,
0000
0130
0010
0200
0001
0000
0301
0000
,
1000
0100
2000
0000
3001
0100
0002
0000
,
1003
0100
0010
0002
1000
0000
1003
0000
,
0100
0010
0001
0100
0002
0000
1003
0010
,
0000
0100
0010
0100
0020
1000
0000
1030
,
0100
0000
1000
0001
1000
0010
0100
0010
,
0000
0000
1000
0010
1000
0000
0001
0000
1000
0000
0000
0000
1001
0000
0000
0000
,
0010
0100
1000
0010
2000
0000
3001
0100
,
0000
0010
0100
0010
0200
0001
0000
0301
,
0010
0000
0001
1000
0001
0100
0010
0100
,
0000
0000
0001
0100
0001
0000
1000
0000
0001
0000
0000
0000
1001
0000
0000
0000
,
0120
0000
1000
0000
1030
0100
1000
0002
,
0100
0100
1000
0013
,
2001
0000
0100
0000
3010
0100
0010
0200
,
0000
0001
0000
0310
0100
0000
0110
0000
,
2100
0000
3010
0100
0020
0000
1030
0001
,
0200
0000
0301
0010
0002
0000
1003
0000
,
1002
0013
0210
1300
,
1001
0000
0000
0000
0010
0100
0010
0000
2000
0000
0002
0000
0000
0000
3003
0000
,
0102
0000
2003
0020
3030
0000
1010
0000
,
2100
0000
3002
0020
0033
0000
0011
0000
,
0102
1003
2100
3001
,
1001
0000
0000
0000
0001
1000
0001
0000
0010
0000
0020
0000
0000
0000
0030
0000
,
2100
0000
3002
0020
0033
0000
0011
0000
,
0101
0000
2000
0020
3030
0000
1010
0000
,
2100
3001
0102
1003
,
1001
0000
0000
0000
1000
0001
1000
0000
0100
0000
0200
0000
0000
0000
0300
0000
,
0001
0100
0001
0010
0001
1000
0001
2000
,
0000
0100
0000
0010
3010
0000
1010
0000
,
0201
0000
0010
0000
0310
0100
0010
2000
,
3001
0110
1001
0110
,
0101
0000
0010
2000
3100
0000
0101
0000
,
1100
0000
0010
0002
0103
0000
1100
0000
,
1001
0010
0101
0010
,
1100
0000
0000
0000
0010
1000
0001
0000
0100
0000
0200
0000
0000
0000
0300
0000
,
1000
0100
1000
0010
1000
0001
1000
0002
,
0000
0100
0000
0010
0013
0000
0011
0000
,
1200
0000
0010
0000
0310
0100
0010
0002
,
1003
0110
1001
0110
,
1100
0000
0010
0002
0103
0000
1100
0000
,
0101
0000
0010
2000
3100
0000
0101
0000
,
1001
0010
1100
0010
,
0101
0000
0000
0000
0010
0001
1000
0000
0100
0000
0200
0000
0000
0000
0300
0000
,
0001
1000
0001
0010
0100
0010
0100
1000
,
0100
0010
0002
0000
1000
1000
1003
0000
,
0001
0010
0001
1000
0010
1000
0001
0010
,
0001
0100
0010
0100
0010
0000
1001
0000
,
0001
0010
0002
1000
2003
0100
0000
3010
,
0100
0010
1000
0001
2000
0001
3001
0000
,
0010
0010
0100
0100
1000
0001
1000
0001
,
0100
0010
1001
1001
,
0010
0001
0010
0100
0010
0001
1000
0001
,
0100
0010
1000
0200
0010
0310
0100
0000
,
0001
1000
0001
0010
0100
0010
0001
2000
,
3100
0000
0000
0000
0100
1000
0010
0000
0200
0000
0020
0000
0000
0000
0330
0000
,
0001
0010
0010
0001
0010
0100
1000
0002
,
1000
0000
0100
0103
0010
1000
0001
1000
,
0001
1100
0101
1100
,
0100
0100
0101
0000
1100
0000
0101
0000
,
0100
0020
0000
0100
0130
0001
0100
0001
,
1000
0100
0020
0200
0030
1000
1300
0100
,
0010
0000
0001
1000
0001
0000
1000
0000
0100
0000
0010
0100
0010
0000
1000
0000
,
1000
0001
2000
0010
0000
0100
3100
0010
,
0100
0000
1000
0001
1000
0000
0010
0100
0010
0000
1000
0000
0100
0000
1000
0000
,
0001
0000
0001
0010
0000
0100
0010
0000
0001
0000
1000
0000
0100
0010
0100
0000
,
1000
0100
0020
0000
0001
0000
0031
0000
0001
0010
0200
0000
1000
0000
1300
0000
,
1000
0001
0100
0020
0200
0000
0330
1000
,
0001
0100
0001
0100
0010
1000
0010
1000
0100
0010
0100
0010
0001
1000
0001
1000
,
0010
0001
0010
0100
0010
0000
1000
0000
1001
0000
0000
0000
0110
0000
0000
0000
,
1000
0010
1000
0010
0100
0001
0100
0001
0010
0100
0010
0100
1000
0001
1000
0001
,
0100
1000
0100
0010
0100
0000
0001
0000
1001
0000
0000
0000
0110
0000
0000
0000
,
0100
0000
0010
1000
0010
0000
0001
0100
0001
0010
0001
0000
1000
0100
1000
0000
,
0201
0001
0010
0310
1000
0100
1000
0100
,
0010
0100
0010
0100
0001
1000
0001
1000
0010
1000
0010
1000
0100
0010
0100
0010
,
0001
0000
1000
0100
1000
0100
1000
0010
1000
0000
0001
0000
1001
0000
0000
0000
,
0100
0001
0100
0100
0020
0000
1030
2000
,
0000
0100
3100
0010
0001
0000
1001
0000
,
1000
0010
0100
0100
0020
0000
0100
2030
,
0000
0000
0001
0000
0001
0000
3010
0000
0100
0010
0100
0000
0001
0000
1000
0000
,
0010
1000
0010
0010
0200
0000
0301
0002
,
0000
0010
0013
0100
1000
0000
1001
0000
,
0001
0100
0010
0010
0200
0000
0010
0302
,
0000
1000
1000
0103
0020
0000
0130
0000
,
1002
0010
0013
0100
0020
0000
0031
2000
,
0000
0000
3100
0000
0010
0001
0010
0000
0100
0000
0010
0000
0100
0000
0000
0000
,
1000
0200
0010
0000
1300
0001
0020
0001
,
0000
0130
1000
0001
1000
0000
1001
0000
,
2001
0100
3100
0010
0200
0000
1300
0002
,
0000
0000
0013
0000
0100
1000
0100
0000
0010
0000
0100
0000
0010
0000
0000
0000
,
1001
0000
0010
0100
0110
0000
1000
0001
,
1001
0000
0000
0000
0100
0010
0100
1000
0001
0000
2002
0000
0000
0000
3003
0000
;

//---------------dance-solo - ----------------
#NOTEDATA:;
#CHARTNAME:;
#STEPSTYPE:dance-solo;
#DESCRIPTION:;
#CHARTSTYLE:;
#DIFFICULTY:Hard;
#METER:10;
#RADARVALUES:0.825981,1.051161,0.643291,0.379774,0.321646,746.000000,663.000000,83.000000,49.000000,0.000000,0.000000,0.000000,0.000000,0.000000,0.825981,1.051161,0.643291,0.379774,0.321646,746.000000,663.000000,83.000000,49.000000,0.000000,0.000000,0.000000,0.000000,0.000000;
#CREDIT:;
#DISPLAYBPM:180.000000;
#NOTES:
// measure 0
000000
000000
000000
000000
,  // measure 1
000000
000000
000000
000000
,  // measure 2
000000
000000
000000
000000
,  // measure 3
000001
000100
000010
000000
001000
000100
001000
000000
,  // measure 4
000100
100000
010000
001000
000100
000000
100001
000000
,  // measure 5
000100
000010
010000
000000
000100
100000
001000
000000
,  // measure 6
001100
000110
010100
010010
,  // measure 7
100001
000000
001000
000000
000100
100000
001000
000000
,  // measure 8
000100
000001
001000
000200
010000
000000
100300
000000
,  // measure 9
001000
100000
010000
000000
001000
000010
000100
000000
,  // measure 10
000001
000101
100000
100100
,  // measure 11
001100
000000
010010
000000
001000
000001
000100
000010
,  // measure 12
010000
000000
000100
010000
100000
000000
100000
000100
000001
000000
000000
000000
001001
000000
000000
000000
,  // measure 13
000010
000100
001000
000000
000100
100000
010000
000000
,  // measure 14
000001
000000
000011
000000
110000
000000
000100
001000
,  // measure 15
000200
000000
100300
000000
100000
000100
000001
010000
,  // measure 16
100000
000000
000000
000000
101000
000000
100000
000100
001000
000000
000000
000000
100001
000000
000000
000000
,  // measure 17
010010
000000
000010
000000
001000
000010
000100
000001
,  // measure 18
000010
000000
000000
000000
001000
000001
000100
000000
000001
000000
001000
000000
000100
000000
010000
000000
,  // measure 19
001000
000000
000000
000000
010100
000000
000000
000000
000100
100000
000100
000000
010000
000000
001000
000000
,  // measure 20
000100
001200
000001
000310
,  // measure 21
002000
000000
000000
000000
003010
000000
000100
000010
020000
000000
000000
000000
031000
000000
100000
000100
,  // measure 22
002000
000000
003001
000010
000101
000000
100001
000000
,  // measure 23
000100
001000
000010
000000
000100
000001
100000
000100
,  // measure 24
001000
000000
000000
000000
000010
000100
000001
000100
000010
000000
020020
000000
000000
000000
030030
000000
,  // measure 25
200100
000000
301000
020000
000000
000020
000000
030030
,  // measure 26
000102
000000
001003
000020
000000
020000
000000
030030
,  // measure 27
100001
000000
000001
000100
100000
000100
000010
010000
,  // measure 28
000100
000000
000100
000000
001000
000100
100000
001000
000100
000000
000000
000000
000002
000000
000000
000000
,  // measure 29
000013
000000
001100
001000
000100
000010
000000
000000
,  // measure 30
010100
000000
001100
001000
000100
010000
000000
000000
,  // measure 31
000001
000000
000010
000001
000100
000000
000010
000000
010000
000000
000100
100000
001000
000000
100000
000000
,  // measure 32
100100
000000
000000
000000
000101
000000
000100
000010
010000
000000
020020
000000
000000
000000
030030
000000
,  // measure 33
001000
000001
001000
000100
010000
001000
100000
000010
,  // measure 34
010000
000000
010010
000000
100001
000000
001000
000001
,  // measure 35
000100
000000
001000
010000
000010
100000
000100
100000
,  // measure 36
001000
001100
010010
100001
,  // measure 37
000001
000000
000010
000001
000100
000000
000010
000000
010000
000000
000100
000000
100000
000000
001000
000000
,  // measure 38
100000
000000
010000
100000
000100
000000
001000
000000
000010
000000
000100
000000
000001
000000
001000
000000
,  // measure 39
100000
000000
000000
000000
001010
000000
000000
000000
000100
010000
000100
000000
011000
000000
000000
000000
,  // measure 40
000001
000000
000010
000000
001000
000010
000001
000100
000010
000000
200200
000000
000000
000000
300300
000000
,  // measure 41
100000
000100
010000
000010
000100
000001
000100
001000
,  // measure 42
011000
000101
100100
001100
,  // measure 43
000010
010000
000010
000000
001000
000000
000100
000000
100000
000000
001000
000000
000100
000000
000001
000000
,  // measure 44
000010
000000
000000
000000
000100
000010
000100
001000
010000
000000
000200
000000
100000
000000
000000
000000
,  // measure 45
010300
000000
001000
010000
000100
100000
000010
000100
,  // measure 46
000001
000000
000000
000000
101000
000000
000000
000000
000100
010000
000010
100000
001000
000000
000000
000000
,  // measure 47
000102
000000
000000
000000
001003
000000
000010
000000
200000
000000
000000
000000
301000
000000
100000
000100
,  // measure 48
010000
000000
000010
000000
010000
000100
001000
000001
000010
000000
200002
000000
000000
000000
300003
000000
,  // measure 49
100000
000100
001000
000100
010000
000010
000100
000001
,  // measure 50
000100
001000
010000
000100
100000
000001
100001
000000
,  // measure 51
000001
000010
000001
100000
010000
100000
000100
001000
,  // measure 52
000100
001100
000000
010010
200002
000000
300003
000000
,  // measure 53
000001
001000
000010
100000
001000
010000
000100
001000
,  // measure 54
000001
000100
001000
100000
000010
010000
010010
000000
,  // measure 55
000100
000100
001000
001000
000010
000010
010000
010000
,  // measure 56
010010
100001
002000
003100
,  // measure 57
000001
000100
001000
000100
001000
100000
000010
000100
,  // measure 58
000001
001000
000100
010000
001000
000100
001000
100000
,  // measure 59
000001
001001
101000
100000
,  // measure 60
000010
000000
000000
000000
010000
000010
010000
000010
010000
000000
000200
000000
000000
000000
000300
000000
,  // measure 61
100000
001000
010000
000100
001000
000100
010000
000010
,  // measure 62
000101
000000
000001
000010
000001
000000
000101
000000
,  // measure 63
101000
001100
010010
100001
,  // measure 64
000010
000100
000001
000000
101000
000000
100001
000000
,  // measure 65
000200
000000
000000
000000
001300
000100
001000
000000
,  // measure 66
010000
000000
000010
000100
000001
000000
000010
000000
001000
000000
100000
000000
000100
000000
001000
000000
,  // measure 67
000001
000000
000001
000100
000010
000000
100000
000000
001000
000000
100000
000100
010000
000000
000100
000000
,  // measure 68
001000
000010
000100
000001
202000
000000
303000
000000
,  // measure 69
000100
010000
000100
000000
100000
000000
000100
001000
000001
000000
000010
000000
000001
000100
001000
000000
,  // measure 70
000100
000000
000010
010000
000000
000010
100000
000000
000001
000000
101000
000000
000001
000000
001001
000000
,  // measure 71
000100
000000
010000
000100
001000
000000
000010
000100
001000
000000
100000
000000
000001
000000
000100
000000
,  // measure 72
000010
000000
010000
001000
100000
000000
000100
000000
200002
000000
000000
000000
300003
000000
000000
000000
,  // measure 73
000010
000100
000010
000100
001000
000100
001000
000100
001000
100000
001000
100000
010000
100000
010000
100000
,  // measure 74
001000
000100
000001
001000
000010
000000
010000
000000
020020
000000
000000
000000
030030
000000
000000
000000
,  // measure 75
100000
001000
100000
001000
010000
000100
010000
000100
001000
000100
001000
000001
000100
000001
000100
000010
,  // measure 76
000100
001000
000100
000000
000100
000000
001000
000000
002200
000000
000000
000000
003300
000000
000000
000000
,  // measure 77
100000
000000
001000
000000
000100
000000
001100
000000
000010
000100
001000
000000
010000
000000
000100
010000
,  // measure 78
000001
000000
100000
000010
000100
000000
001000
000001
100000
000000
000100
000000
000100
000000
000100
000000
,  // measure 79
100000
001000
010000
001000
100000
000001
001000
000001
000100
000010
000100
001000
010000
000010
010000
000010
,  // measure 80
100000
000001
100000
000001
000100
000000
001000
000000
020020
000000
000000
000000
030030
000000
000000
000000
,  // measure 81
000001
000100
000010
000010
020000
000000
031000
200000
,  // measure 82
000000
300100
001000
000100
010010
000000
100001
000000
,  // measure 83
000001
000010
000001
000100
000010
010000
000100
100000
,  // measure 84
000000
000000
000001
000000
100000
000000
000100
000000
001000
001000
001000
000000
000100
000000
010000
000000
,  // measure 85
000010
100000
001000
000100
000002
000000
000013
002000
,  // measure 86
000000
103000
000100
001000
000001
000000
100001
000000
,  // measure 87
000010
000100
000001
001000
000100
010000
001000
000100
,  // measure 88
000000
000000
000100
001000
100000
000000
000001
000000
020020
000000
000000
000000
030030
000000
000000
000000
,  // measure 89
000100
000000
010000
000010
000100
000000
000001
000000
001000
000000
001000
000000
000001
000000
200000
000000
,  // measure 90
000000
301000
000100
001000
001100
000000
011000
000000
,  // measure 91
001010
000000
000010
000100
000001
000100
001000
100000
,  // measure 92
000100
001000
000001
100000
010010
000000
100001
000000
,  // measure 93
000001
000000
000100
000000
001000
000000
000100
000010
010000
000000
001000
000000
001000
000000
000200
000000
,  // measure 94
000000
001300
100000
000100
001100
000000
100001
000000
,  // measure 95
000001
000100
000001
000100
000001
000000
100000
000000
000100
010000
000100
010000
001000
000000
000100
000000
,  // measure 96
010010
000000
000000
000000
000100
010000
000001
100000
000010
000000
020020
000000
000000
000000
030030
000000
;
