#TITLE:Lonely Storm;
#SUBTITLE:(New Charts);
#ARTIST:Tsunku;
#TITLETRANSLIT:;
#SUBTITLETRANSLIT:;
#ARTISTTRANSLIT:;
#GENRE:;
#CREDIT:;
#MUSIC:Lonely Storm.ogg;
#BANNER:Lonely Storm.png;
#BACKGROUND:Rhythm Heaven Fever.jpg;
#CDTITLE:;
#SAMPLESTART:64.050;
#SAMPLELENGTH:12.000;
#SELECTABLE:YES;
#OFFSET:-0.052;
#BPMS:0.000=180.000
,334.000=120.000
,335.000=360.000
,336.000=180.000
;
#STOPS:;
#DISPLAYBPM:180.000;
#BGCHANGES:;
#FGCHANGES:;

//--------------- dance-single - ----------------
#NOTES:
     dance-single:
     :
     Beginner:
     3:
     0,0,0,0,0:
0000
0000
0000
0000
,
0000
0000
0000
0000
,
0000
0000
0000
0000
,
0000
0000
0000
0000
,
0010
0010
0010
0000
,
1000
0000
0001
0000
,
0100
0100
0100
0000
,
0110
0110
0000
0000
,
0001
0000
0010
0000
,
1000
0000
1000
0000
,
0001
0000
0100
0000
,
0010
0010
0010
0000
,
1000
0000
0100
0000
,
0001
0000
1000
0000
,
0001
0000
0001
0000
,
0100
0000
0010
0010
,
0010
0000
1000
0000
,
0001
0000
0100
0100
,
0100
0000
0001
0000
,
1000
0000
0010
0000
,
1001
0000
0100
0000
,
0110
0000
0010
0000
,
1000
0000
0001
0000
,
0010
0010
0010
0000
,
0001
0000
1001
0000
,
1000
0000
1001
0000
,
0010
0000
0100
0000
,
0010
0010
0010
0000
,
1000
0000
1001
0000
,
0001
0000
1001
0000
,
0100
0000
0010
0000
,
0100
0100
0100
0000
,
0001
0000
1001
0000
,
0001
0000
0100
0000
,
0010
0000
0110
0000
,
0100
0100
0100
0000
,
1000
0000
1001
0000
,
1000
0000
0100
0000
,
0001
0000
1000
0000
,
0010
0010
0010
0000
,
0001
0000
0100
0000
,
1000
0000
0010
0000
,
1001
0000
0100
0000
,
0010
0010
0010
0000
,
1001
0000
0100
0000
,
0001
0000
1000
0000
,
0110
0000
0010
0000
,
0010
0010
0010
0000
,
1000
0000
0001
0000
,
0100
0000
0100
0000
,
0010
0000
0100
0000
,
0001
0000
1001
0000
,
1000
0000
0100
0000
,
0010
0000
1000
0000
,
0001
0000
0100
0000
,
0010
0010
0010
0010
,
0010
0000
0001
0000
,
1000
0000
0100
0000
,
1001
0000
0010
0000
,
0100
0100
0100
0000
,
1000
0000
0001
0000
,
0100
0000
0010
0000
,
0000
1001
1001
1001
,
0000
0110
0110
0110
,
0000
1000
0000
0000
,
0001
0000
1000
0000
,
0010
0010
0010
0000
,
1000
0000
1001
0000
,
0001
0000
0010
0000
,
0100
0000
0010
0000
,
0001
0001
0001
0000
,
1000
0000
0100
0000
,
1000
1000
1000
0000
,
0010
0010
0010
0000
,
0001
0001
0001
0000
,
0100
0100
0100
0000
,
1001
0000
0010
0000
,
0110
0000
0100
0000
,
1001
1001
1001
0000
,
0110
0110
0110
0000
,
0001
0000
0000
0000
,
0001
0000
1000
0000
,
1000
0000
0000
0000
,
0010
0000
0100
0000
,
0100
0000
0000
0000
,
0110
0000
0010
0000
,
0100
0000
0000
0000
,
0001
0000
1000
0000
,
0001
0001
0001
0000
,
0010
0000
1000
0000
,
0100
0100
0100
0000
,
1000
1000
1000
0000
,
0001
0000
1000
0000
,
0010
0000
0100
0000
,
0001
0000
1000
0000
,
0000
1001
1001
0000
;

//--------------- dance-single - ----------------
#NOTES:
     dance-single:
     :
     Easy:
     5:
     0,0,0,0,0:
0000
0000
0000
0000
,
0000
0000
0000
0000
,
0000
0000
0000
0000
,
0000
0000
0000
0000
,
0001
0010
0001
0000
,
1000
0010
0100
0000
,
0001
0000
1000
0000
,
0010
0000
0000
1001
0000
0000
0000
0000
,
0100
0001
1000
0000
,
0010
1000
0000
0001
,
1000
0100
0001
0000
,
0010
0010
0100
0100
,
1000
0001
0100
0000
,
0001
1000
0000
0010
,
1000
0001
0010
0001
,
0100
1000
0100
0010
,
2002
0000
3003
0000
,
0001
0010
0100
0010
,
0100
0000
1000
0000
,
0001
0100
0010
0000
,
2100
0000
3010
0100
,
0002
0000
1003
0000
,
1001
0000
1000
0010
,
0000
0001
0020
0000
,
0130
0000
0000
1000
0000
1000
0000
0000
,
0010
0000
0000
0001
0000
0001
0000
0000
,
0100
0000
0001
0000
,
1000
0010
1001
0000
,
0001
0000
0000
0100
0000
0100
0000
0000
,
1000
0000
0000
0010
0000
0010
0000
0000
,
1000
0100
0001
0000
,
0010
1000
0110
0000
,
1000
0000
0100
0001
,
1000
0000
0001
0001
,
1000
0000
0010
1000
,
0001
0100
0100
0100
,
0110
0000
2000
0000
,
3100
0000
0002
0000
,
0013
0001
1000
0000
,
0100
0010
1001
0000
,
0001
0000
0001
0000
,
1000
0010
0100
1000
,
0100
0000
0010
0001
,
1000
0010
0020
0000
,
0130
0000
0001
1000
,
0100
0000
0010
0001
,
1000
1000
0001
0001
,
0100
0010
1001
0000
,
1000
1000
0100
0000
,
0010
0001
1000
0001
,
0100
0100
0001
0000
,
0010
0100
0011
0000
,
0001
1000
0010
0000
,
0100
1000
0100
0001
,
1000
0010
0100
0000
,
1010
0000
0001
1000
,
0010
0000
0100
0000
,
0001
0000
1000
0100
,
0001
0000
0010
0000
,
0100
0100
1001
0000
,
1000
0100
0001
0000
,
0010
0001
1000
0000
,
0010
1000
0001
1000
,
0000
0001
1000
0001
,
0020
0000
0000
0000
,
0031
1000
0100
0000
,
1000
1000
0001
0001
,
0100
0010
0200
0000
,
0001
0000
1000
0000
,
0310
1000
0001
0000
,
1000
1000
0010
0000
,
0001
0001
0100
0000
,
0101
0001
1000
0010
,
0100
0010
1001
0000
,
1100
0010
0001
1000
,
0010
0100
0110
0000
,
0011
0001
0010
0100
,
1010
0100
0010
0000
,
1100
0010
0101
0001
,
1000
0010
1001
0000
,
1000
0000
0001
0000
,
0100
0001
1000
0000
,
0010
0000
0010
0000
,
1000
0001
0100
0000
,
1001
0000
0001
0000
,
1000
0010
0010
0000
,
1000
0100
0001
0000
,
0010
0001
1000
0000
,
0020
0000
1030
0001
,
0010
0000
0100
0100
,
0020
0000
0130
1000
,
0001
0100
0110
0000
,
2000
0000
3100
0010
,
0002
0000
1003
1000
,
0010
0100
0010
0010
,
0000
0000
1000
0001
0000
0100
0000
0000
;

//--------------- dance-single - ----------------
#NOTES:
     dance-single:
     :
     Medium:
     7:
     0,0,0,0,0:
0000
0000
0000
0000
,
0000
0000
0000
0000
,
0000
0000
0000
0000
,
0000
0000
0000
0000
,
1000
0100
0001
0100
,
0010
1000
0001
1001
,
1000
1000
0001
0001
,
1000
0001
1000
0001
0000
0000
0000
0000
,
0100
0001
0000
0010
,
0001
1000
0010
0100
,
0001
1000
0100
1000
,
0010
0100
0001
0000
1000
0100
0010
0000
,
0100
0010
0001
1100
,
0001
0100
1000
0101
,
0010
1000
0001
0010
,
0100
1000
0010
0100
0001
0000
1000
0000
,
0002
0000
0013
0001
,
1000
0010
0100
0001
,
2000
0000
3100
0010
,
0100
1000
0001
0000
0010
0000
0010
0000
,
0002
0013
0200
0300
,
2000
3100
0020
0030
,
1001
0000
0100
0001
,
1000
0000
0010
1000
0001
0020
0000
0000
,
0031
0000
0000
0100
0000
0110
0000
0000
,
1000
0000
0000
0010
0000
1001
0000
0000
,
1000
0001
0010
0100
,
0011
0000
0001
0000
1000
0010
0000
0000
,
1000
0000
0000
0100
0000
0011
0000
0000
,
0001
0000
0000
1000
0000
1100
0000
0000
,
0010
0001
1000
0010
,
1010
0000
0100
0000
0001
0100
0000
0000
,
0010
1010
0100
0101
,
0001
1000
0100
0000
,
0010
0001
1000
0010
,
0010
1100
0101
0010
,
1000
0010
0200
0000
,
0301
1000
0020
0000
,
2030
3100
0002
0013
,
0001
0000
1000
0000
0100
0001
0000
0000
,
1010
1000
0010
0100
,
1000
0100
0001
0010
,
0010
0001
1000
0010
,
0100
0000
0001
0000
0010
1000
0000
0000
,
0010
0001
1000
0010
,
0100
0001
1000
0000
,
1010
0100
0001
0010
,
0001
0000
1000
0000
0010
0100
0000
0000
,
0001
0010
0001
0010
,
0100
0010
0100
1000
,
0010
1000
0010
0100
,
0010
1000
0001
1001
,
0001
0001
0010
0001
,
1000
0100
0010
0010
,
1100
0100
1000
0001
,
0101
0000
0100
0000
0010
0100
0010
0000
,
0100
0001
0010
1000
,
0010
1001
0100
0100
,
0002
0000
0013
0100
,
2000
0000
0001
0000
3001
0010
0000
0000
,
0100
1000
0010
0100
,
1000
0100
0001
0010
,
0000
0011
0011
0011
,
0000
1010
1010
1010
,
0002
0000
0103
0010
,
1000
0100
0010
0100
,
2000
0010
3000
0010
,
0100
0101
1100
0000
,
1000
0010
1000
0000
0001
0000
0010
0000
,
0001
0000
1000
0000
0001
0100
0001
0000
,
0010
0001
0010
1000
,
0010
0100
1001
0000
,
1000
0010
1000
0000
0001
0100
0010
0000
,
1000
0100
0001
0000
0010
0000
0001
0000
,
1000
0001
0100
0000
0010
0100
1000
0000
,
0100
0001
0010
0000
0100
0000
1000
0000
,
0001
0010
0011
0010
,
0100
1000
1001
0100
,
0010
1000
0010
1000
0001
0000
0010
0000
,
0100
1000
0001
0010
0200
0000
0000
0000
,
0310
0000
0001
1000
,
0010
0100
0101
0001
,
1000
0010
0100
0000
,
0001
0000
0000
1000
0000
0000
0010
0000
1001
0000
0000
0000
,
0100
0010
0010
0000
,
1000
0001
0010
0011
,
0010
0100
1000
0000
,
1010
1000
0001
0000
,
0001
0010
0001
0000
1000
0000
0010
0000
,
0100
1000
0100
0001
,
1000
0100
1000
0000
0010
0000
0100
0000
,
0001
1000
1001
1001
,
1000
0001
0010
0001
,
0010
0100
1000
0001
,
0101
1000
1100
0010
,
0100
0000
0010
0001
1000
0020
0000
0030
;

//--------------- dance-single - ----------------
#NOTES:
     dance-single:
     :
     Hard:
     9:
     0,0,0,0,0:
0000
0000
0000
0000
,
0000
0000
0000
0000
,
0000
0000
0000
0000
,
0000
0000
0000
0000
,
0011
0001
1010
1000
,
0100
0010
0001
0000
0100
0010
1000
0000
,
0001
0001
0010
0000
0100
1000
0010
0000
,
1001
0010
0001
2000
0000
0000
3010
0000
,
1000
0100
1000
0010
0100
0001
0010
0000
,
0001
1000
0010
0100
0001
1000
0100
0000
,
1100
0000
0011
0000
0010
0001
0100
0110
,
0000
1000
1000
0001
0010
0000
0110
0000
,
1001
0000
1000
0100
0001
0000
0100
0010
,
0001
1000
0010
0000
0100
0001
1000
0000
,
0010
1000
0010
0100
0010
0100
0001
0010
,
0000
0110
0010
0001
1000
0000
1001
0000
,
0110
0000
0100
0001
0010
0010
0100
1000
,
0000
0001
1000
0010
0100
0100
0001
0000
,
1100
0010
0001
0000
1000
0001
0100
0010
,
0000
1010
0100
0001
0011
0000
0010
0100
,
2000
0000
3010
0100
0020
0000
1030
0100
,
0010
0002
0100
0003
0010
1000
0001
0010
,
0100
0000
0100
1000
0001
0000
0010
0010
,
0001
0000
1100
1000
0010
0200
0000
0000
,
0302
0000
1003
0010
0000
0110
0000
0000
,
2000
0000
3100
0010
0000
0011
0000
0000
,
1100
0000
1000
0001
0100
0000
0010
0010
,
1000
0001
0010
0100
0010
0001
1000
0010
,
1002
0000
0013
0100
0000
1100
0000
0000
,
1020
0000
0130
0001
0000
0011
0000
0000
,
1000
0010
0100
0001
0010
0001
1000
0100
,
0010
0000
1100
0100
0010
0001
2000
0000
,
3001
0000
0101
0000
0010
1000
0100
0010
,
0100
0000
1100
0000
1000
0010
0010
0100
,
0001
0000
0010
0000
0001
1000
0010
1000
,
0100
0010
0011
0000
0001
0010
0001
0000
,
2000
0000
3100
0020
0130
0010
0001
0000
,
2000
0000
3001
0200
0310
1000
0001
0000
,
0101
0000
1100
0000
0010
0001
0001
1000
,
0010
0000
1100
0010
0001
0202
0000
0303
,
0001
0010
0001
0010
0100
1000
0010
0000
,
1100
0100
0000
0010
0001
1000
0001
0000
,
0010
0001
0010
0100
1000
0010
0100
0001
,
1000
0000
0010
1000
0001
0220
0000
0330
,
1000
0000
0100
0000
0001
0000
0010
0001
,
0100
0000
0010
0010
1000
0000
0101
0000
,
0010
1000
0001
0000
0010
0100
1000
0000
,
0010
0000
0101
0010
1000
2200
0000
3300
,
2000
3010
0100
0002
0013
0100
2000
3100
,
0010
0002
0103
0010
0100
0001
1100
0000
,
0020
1030
0100
0020
0031
0100
0002
1003
,
0100
2000
3001
0100
0010
0000
1001
0000
,
0020
1030
0100
2000
3001
0010
0002
0103
,
0010
0200
0301
1000
0100
0000
0110
0000
,
2000
0010
3010
0100
0002
0100
0103
0010
,
1100
0000
0000
0000
0101
0000
0000
0000
0010
0100
0000
0000
0010
0100
0000
0000
,
0002
0013
0100
0020
0130
1000
0200
1300
,
0001
2000
3010
0001
0010
1000
0100
0010
,
0011
0000
1100
0000
1001
0000
0001
0001
,
0010
0001
1000
0010
0100
2002
0000
3003
,
0200
0301
0010
0002
1003
0100
0020
0130
,
2000
0000
3001
0100
0110
0000
1000
1000
,
0100
0000
0011
0000
1100
0000
0011
0001
,
0100
1010
0101
1010
,
2000
0010
0010
0000
0100
3001
0010
0001
,
0100
0002
0000
1000
0000
0103
0010
1000
,
0200
0000
0310
0001
0020
0000
1030
0010
,
0001
1000
0010
0200
0020
0000
0300
0000
,
1030
0100
0010
0011
0000
0001
0010
0001
,
1000
0010
0010
1000
0100
0001
0100
0000
,
0010
0001
1000
1000
0100
1000
0001
0001
,
0100
1010
0101
0010
,
0001
0010
0001
0000
0010
0000
0100
0000
1000
0000
0001
0000
1000
0000
0010
0000
,
0100
1001
0011
1010
,
1000
0100
1000
0000
0010
0000
0100
0000
1000
0000
0100
0000
0001
0000
0010
0000
,
1100
0000
0000
1000
0000
0000
0001
0000
0001
0000
0020
0000
0000
0000
0031
0000
,
0100
0000
0010
0000
1000
0000
0001
0000
0100
0000
0000
0101
0000
0000
0010
0000
,
0000
1010
0000
0000
0100
0000
0001
0000
1000
0000
0100
0000
0020
0000
0000
0000
,
0031
0010
0001
0000
0100
0000
0010
0000
1000
0010
1000
0000
0100
0000
1000
0000
,
0001
0100
0010
1000
2002
0000
0000
3003
,
0001
0001
0010
0000
0100
1000
0000
0100
,
1000
0001
0100
0000
0010
0000
1001
0000
,
0100
0001
1000
0000
0010
1000
0100
1000
,
0000
0000
0000
0001
0000
0000
0100
0000
0000
0010
0000
0000
0100
0000
0100
0000
0100
0000
0010
0000
0000
0000
0000
0000
,
1001
0000
1000
0100
0001
0000
0010
0001
,
0100
0100
1001
0110
,
1000
0100
0001
0100
0010
0000
0001
0010
,
0000
0100
1000
0010
0020
0000
0000
0030
,
1000
0010
0100
0001
0010
0000
0010
0001
,
0000
0001
0010
0100
1000
0001
1000
0000
,
0110
0000
1000
0100
0010
0000
0100
1000
,
0001
0100
1010
0000
0101
0000
1001
0000
,
0010
1000
0010
0000
0100
0001
1000
0100
,
0000
0100
0010
0001
1000
0010
0100
0000
,
0010
2000
3100
0100
0010
0002
0103
0001
,
1000
0000
0000
0000
0010
0100
0010
0000
0200
0000
0020
0000
0000
0000
0330
0000
;

//--------------- dance-single - ----------------
#NOTES:
     dance-single:
     :
     Challenge:
     10:
     0,0,0,0,0:
0000
0000
0000
0000
,
0000
0000
0000
0000
,
0000
0000
0000
0000
,
0000
0000
0000
0000
,
0010
1000
0001
0010
0100
0010
0001
0200
,
0000
0310
1000
0020
0100
0000
1030
0000
,
0101
0001
0020
0000
0130
1000
0200
0000
,
1300
0010
0100
0002
1000
0000
1003
0000
,
0100
0010
0001
0100
0002
0000
1003
0010
,
0000
0100
0010
0100
0020
1000
0000
1030
,
0100
0000
1000
0001
1000
0010
0100
0010
,
0000
0000
1000
0010
1000
0000
0001
0000
1000
0000
0000
0000
1001
0000
0000
0000
,
0010
0100
1000
0010
2000
0000
3001
0100
,
0000
0010
0100
0010
0200
0001
0000
0301
,
0010
0000
0001
1000
0001
0100
0010
0100
,
0000
0000
0001
0100
0001
0000
1000
0000
0001
0000
0000
0000
1001
0000
0000
0000
,
0120
0000
1000
0000
1030
0100
1000
0002
,
0100
0100
1000
0013
,
2001
0000
0100
0000
3010
0100
0010
0200
,
0000
0001
0000
0310
0100
0000
0110
0000
,
2100
0000
3010
0100
0020
0000
1030
0001
,
0200
0000
0301
0010
0002
0000
1003
0000
,
1002
0013
0210
1300
,
1001
0000
0000
0000
0010
0100
0010
0000
2000
0000
0002
0000
0000
0000
3003
0000
,
0102
0000
0023
0200
0030
2000
0000
3300
,
2100
0000
3020
0200
0030
0002
0000
0303
,
0012
1003
2100
3001
,
0110
0000
0000
0000
0010
0100
0010
0000
0100
0000
0200
0000
0000
0000
0300
0000
,
2010
0000
3200
0020
0300
0002
0000
0033
,
0012
0000
0203
0020
0300
2000
0000
3030
,
2010
3001
0102
1003
,
1001
0000
0000
0000
1000
0001
1000
0000
0100
0000
0200
0000
0000
0000
0300
0000
,
0001
0100
0001
0010
0001
1000
0001
2000
,
0000
0100
0000
0010
3010
0000
1010
0000
,
0201
0000
0010
0000
0310
0100
0010
1000
,
0001
0100
0110
0000
1001
0001
0100
0000
,
0101
0000
0010
1000
0100
0010
0101
0000
,
1100
0000
0010
0001
0100
0010
1100
0000
,
1001
0000
0010
0001
0101
0000
0010
1000
,
1100
0000
0000
0000
0010
0001
1000
0000
0100
0000
0200
0000
0000
0000
0300
0000
,
1000
0100
1000
0010
1000
0001
1000
0002
,
0000
0100
0000
0010
0013
0000
0011
0000
,
1200
0000
0010
0000
0310
0100
0010
0001
,
1000
0000
0100
0000
0010
0001
1000
0000
0100
0000
0200
0000
0000
0000
0300
0000
,
1100
0000
0010
0001
0100
0001
0100
0010
,
0101
0000
0010
1000
0100
1000
0100
0010
,
0110
0000
0010
0001
0101
0000
1000
0100
,
1100
0000
0000
0000
0010
1000
0001
0000
0100
0000
0200
0000
0000
0000
0300
0000
,
1001
0001
0010
0100
1000
0100
1000
0010
,
0100
0001
2000
0000
0001
0001
3001
0000
,
0001
0010
0001
1000
0010
1000
0001
0010
,
0001
0100
0010
0100
0010
0000
1001
0000
,
1000
0010
0200
0001
0302
1000
0000
0013
,
0100
1000
0001
0100
0020
0100
0130
0000
,
0001
1000
0100
0010
0100
1000
0001
0100
,
0110
0000
0000
0000
1001
0000
0000
0000
0001
0100
0000
0000
1000
0100
0000
0000
,
0110
0010
0001
1000
0100
2000
0010
3010
,
0100
0001
0010
0001
0002
0000
0100
0000
,
0013
0100
1000
0010
0100
0001
1000
1000
,
1001
0000
0000
0000
0001
1000
0100
0000
0020
0000
0200
0000
0000
0000
0330
0000
,
0100
0100
1000
0001
0100
0010
1000
0200
,
0010
0000
1300
0001
0101
0000
0010
1000
,
0001
0000
0000
0000
1000
0010
0000
0000
1000
0100
0000
0000
0010
0100
0000
0000
,
1001
0000
0000
0000
0001
0010
0000
0000
0001
0100
0000
0000
0010
0100
0000
0000
,
0001
0020
0000
0100
0130
1000
0001
0100
,
0101
0010
0100
1100
0000
0001
0010
0001
,
0100
0000
0010
1000
0010
0000
1000
0000
0100
0000
0010
0001
0010
0000
0001
0000
,
1000
0010
0100
1001
0200
0020
0300
0100
,
0130
0000
1000
0100
0010
0000
0001
0000
0001
1000
0010
0000
0100
0000
0110
0000
,
1000
0000
1000
0010
0000
0010
0100
0000
0001
0000
0101
0000
1100
0000
0100
0000
,
0010
0000
0001
1000
0001
0000
1000
0000
0100
0000
1000
0001
1000
0000
0010
0000
,
1000
0100
0010
0000
0001
0100
0010
0000
2000
0000
0002
0000
3000
0000
0103
0000
,
0001
0100
0001
0100
0010
1000
0010
1000
0100
0010
0100
0010
0001
1000
0001
1000
,
0010
0001
0010
0100
0010
0000
1000
0000
1001
0000
0000
0000
0110
0000
0000
0000
,
1000
0010
1000
0010
0100
0001
0100
0001
0010
0100
0010
0100
1000
0001
1000
0001
,
0100
1000
0100
0010
0100
0000
0001
0000
1001
0000
0000
0000
0110
0000
0000
0000
,
1000
0000
0100
0010
0100
0000
1000
0000
0001
0100
0010
0000
1000
0000
0100
1000
,
0010
0000
0100
0001
1000
0000
0010
0000
0110
0000
1000
0000
1001
0000
0100
0000
,
0010
0100
0010
0100
0001
1000
0001
1000
0010
1000
0010
1000
0100
0010
0100
0010
,
0001
0000
1000
0100
1000
0100
1000
0010
2000
0000
0002
0000
0000
0000
3003
0000
,
1001
0001
0010
0100
0020
0100
0130
2000
,
0000
3001
0100
0010
1010
0000
0101
0000
,
1000
0010
0010
0100
0001
1000
0100
0001
,
0000
0000
0000
0100
0000
0000
1000
0000
0000
0001
0000
0000
0101
0000
1100
0000
1001
0000
0010
0000
0000
0100
0000
0000
,
0010
1000
0100
0010
0001
0001
1000
0020
,
0000
1030
0100
0001
1100
0000
0101
0000
,
0110
1000
0010
0100
0001
0001
1000
0100
,
0010
0100
1000
0001
0102
0000
2003
0000
,
3100
0010
0001
1000
0010
0100
0000
1001
,
0000
0000
0001
1000
0100
0000
0010
0000
0100
0000
1000
0001
1000
0000
0001
0000
,
0001
0010
0001
0100
1000
0100
0010
1000
,
0100
0010
0011
0001
0100
0010
1010
0000
,
1001
0001
0001
0010
0001
0100
0010
1000
,
0100
0010
0001
1000
0010
0100
1000
0100
,
0001
0100
0001
0000
0010
0000
0100
0000
1000
0100
1000
0000
0100
0000
0010
0000
,
0010
0000
0000
0000
0100
0010
0100
1000
0001
0000
2002
0000
0000
0000
3003
0000
;

//--------------- dance-double - ----------------
#NOTES:
     dance-double:
     :
     Easy:
     4:
     0,0,0,0,0:
00000000
00000000
00000000
00000000
,
00000000
00000000
00000000
00000000
,
00000000
00000000
00000000
00000000
,
00000000
00000000
00000000
00000000
,
00001000
00001000
00001000
00000000
,
00010000
00010000
00010000
00000000
,
00001000
00000000
00010000
00000000
,
00022000
00000000
00033000
00000000
,
00010000
00000100
00010000
00000000
,
00000010
00000000
00001000
00000000
,
00000001
00000100
00000001
00000000
,
00000010
00000100
00000010
00000010
,
00000100
00001000
00000100
00000000
,
00001000
00000001
00001000
00001000
,
00000010
00010000
00001000
00000000
,
00100000
00000000
01000000
01000000
,
02200000
00000000
03300000
00000000
,
00100000
00010000
00100000
00000000
,
00020000
00000000
10030000
00010000
,
20000000
00000000
31000000
00100000
,
00002000
00000000
00023000
00000000
,
00030100
00000000
00000010
00000100
,
00000110
00000000
00000001
00000000
,
00001000
00000010
00000200
00000000
,
00001300
00000000
00000000
00010000
00000000
00010000
00000000
00000000
,
00010000
00000000
00000000
00001000
00000000
00001000
00000000
00000000
,
00100000
01000000
00100000
00000000
,
00010000
10000000
01000000
00000000
,
10000000
00000000
00000000
00010000
00000000
00010000
00000000
00000000
,
00010000
00000000
00000000
10000000
00000000
10000000
00000000
00000000
,
10000000
01000000
00010000
00000000
,
00001000
00000000
00010000
00000000
,
00000200
00000000
00001300
00000100
,
00000020
00000000
00000031
00000001
,
00001000
00000000
00000001
00000000
,
00000100
00000100
00000100
00000100
,
00000010
00000000
00000020
00000000
,
00020030
00000000
00032000
00000000
,
00103000
00000000
00010000
10000000
,
01000000
01000000
01100000
00000000
,
00100000
00000000
00100000
00000000
,
00001000
00000000
00010000
00000000
,
00000100
00000000
00000100
00000000
,
00000010
00000000
00001001
00000000
,
00000001
00000001
00000002
00000000
,
00001003
00001000
00002000
00000000
,
00003200
00000000
00000300
00000000
,
00010000
00001000
00011000
00000000
,
00200000
00000000
00001000
00000000
,
00302000
00000000
00023000
00000000
,
00030200
00000000
00010000
00000000
,
00000310
00000010
00000100
00000000
,
00001000
00000001
00001000
00000000
,
00000001
00000100
00000001
00000000
,
00001000
00000000
00000100
00000000
,
00010000
00000000
00001000
00001000
,
00200000
00000000
00010000
00000000
,
00320000
00000000
20030000
00000000
,
32000000
00000000
10000000
00000000
,
03100000
00010000
10000000
00000000
,
10000000
01000000
00010000
00000000
,
00001000
00010000
00001000
00000000
,
00000000
00010000
00000100
00010000
,
00000000
00001000
01000000
00001000
,
00200000
00000000
00000000
00000000
,
00310000
00000000
10000000
00000000
,
01000000
01000000
00100000
00100000
,
01000000
00000000
00020000
00000000
,
00000100
00000000
00001000
00000000
,
00030100
00001000
00000100
00000000
,
00000010
00000010
00000001
00000000
,
00000100
00000100
00001000
00000000
,
00011000
00010000
00001000
00100000
,
00010000
10000000
00020000
00030000
,
10010000
10000000
01000000
00100000
,
00001000
00010000
00002000
00003000
,
00011000
00000000
00000100
00001000
,
00001001
00000000
00000100
00000000
,
00001100
00000000
00000101
00000000
,
00000100
00000010
00000110
00000000
,
00001000
00000000
00000001
00000000
,
00002000
00000000
00003100
00000000
,
00010000
00000000
00001000
00000000
,
00200000
00000000
01300000
00000000
,
10000000
01000000
10000000
00000000
,
01000000
00000000
00100000
00000000
,
00010000
01000000
00010000
00000000
,
00100000
00001000
00010000
00000000
,
00000200
00000000
00001000
00000000
,
00000310
00000001
00001000
00000010
,
00000200
00000000
00000001
00000000
,
00000310
00001000
00001000
00001000
,
00002000
00000000
00013000
00001000
,
00020000
00000000
00031000
00100000
,
01000000
01000000
00100000
00001000
,
00000000
00000000
00010000
00000000
00000000
00022000
00000000
00033000
;

//--------------- dance-double - ----------------
#NOTES:
     dance-double:
     :
     Medium:
     6:
     0,0,0,0,0:
00000000
00000000
00000000
00000000
,
00000000
00000000
00000000
00000000
,
00000000
00000000
00000000
00000000
,
00000000
00000000
00000000
00000000
,
00000100
00000000
00010000
00000000
00001000
00010000
00001000
00000000
,
01000000
00001000
00010000
00001000
,
00100000
00010000
10000000
01000000
,
11000000
00000000
00000000
01010000
00000000
00000000
00000000
00000000
,
00100000
00001000
00010000
00000100
,
00001000
00002000
00003001
00000002
,
00000013
00000001
00001000
00000010
,
00000100
00000001
00001000
00000000
00000110
00000000
00001001
00000000
,
00000100
00000010
00010000
00010100
,
00001000
00100000
00001000
01001000
,
01000000
00100000
00100000
10000000
,
00010000
00100000
01000000
00100000
00001000
00000000
00010000
00000000
,
00021000
00000000
00030100
00001000
,
00000001
00001000
00000100
00000000
00010000
00000000
00001000
00000000
,
00012000
00000000
00000000
00000000
01003000
00000000
00010000
10000000
,
00000000
00100000
10000000
10000000
,
02000000
03010000
00200000
00301000
,
00020000
00030100
00002000
00003001
,
00000110
00000000
00000000
00000000
00000001
00000000
00001000
00000100
,
00000000
00000000
00001000
00000010
00000100
00000002
00000000
00000000
,
00000103
00000000
00000000
00000010
00000000
00000110
00000000
00000000
,
00001000
00000000
00000000
00000001
00000000
00001001
00000000
00000000
,
00000100
00001000
00000001
00000000
,
00000100
00000000
00000010
00000000
00010000
00001000
00000000
00000000
,
00100000
00000000
00000000
00010000
00000000
10010000
00000000
00000000
,
10000000
00000000
00000000
01000000
00000000
01100000
00000000
00000000
,
01000000
10000000
00010000
00000000
,
01000000
00000000
00001000
00000000
00010000
00001000
00000000
00000000
,
00000100
00000101
00000010
00001010
,
00002000
00000000
00003001
00000001
,
00000100
00000001
00001000
00000100
,
00010000
00001000
00011000
00011000
,
00200000
00000000
00310000
10000000
,
02000000
00000000
13000000
00010000
,
20020000
30030000
00100000
00010000
,
00100000
00000000
01000000
00000000
10000000
00100000
00000000
00000000
,
02100000
00000000
03010000
00100000
,
00001000
00010000
00000100
00000100
,
00000200
00000000
00001300
00000001
,
00000100
00000000
00000001
00000000
00000010
00001000
00000000
00000000
,
00020000
00000000
00031000
00010000
,
01000000
10000000
10000000
00100000
,
20000000
00000000
30010000
01000000
,
00100000
01000000
10010000
00000000
,
00100000
00001000
00100000
00001000
,
00010000
00000100
00010000
00000100
,
00001000
00000001
00000100
00000010
,
00001000
00000100
00000110
00000000
,
00000001
00000001
00000100
00001000
,
00010000
00010000
00001000
00100000
,
00110000
10000000
00100000
10000000
,
10100000
00000000
01000000
01000000
,
00010000
10000000
01000000
01000000
,
10000000
00010000
00100000
00100000
,
00002000
00000000
00013000
00000100
,
00000010
00000100
00000110
00000000
,
00001000
00001000
00000001
00000000
,
00000100
00000010
00001000
00000001
,
00000000
00010100
01001000
00011000
,
00000000
00101000
00010010
00100010
,
00200000
00000000
00310000
00000000
,
10000000
10000000
00020000
00000000
,
01030000
01000000
00100000
01000000
,
00001000
00010000
00022000
00033000
,
00010000
00000100
00010000
00000000
00000100
00000000
00000010
00000000
,
00000001
00001000
00000020
00000000
,
00000130
00000000
00000001
00000000
00000100
00001000
00010000
00000000
,
00001000
00010000
00022000
00033000
,
00100000
00010000
00100000
00010000
00100000
00000000
00010000
00000000
,
10000000
01000000
10000000
01000000
10000000
00000000
00000000
00000000
,
00100000
10000000
00100000
10000000
00100000
00000000
10000000
00000000
,
00010000
01000000
00010000
01000000
00010000
00000000
00000000
00000000
,
00101000
00010000
00002000
00003000
,
00010010
00001000
00020000
00030000
,
00000100
00001000
00000001
00000000
00000100
00000001
00001000
00000000
,
00000010
00000100
00000010
00000100
00000020
00000000
00000000
00000000
,
00001030
00000000
00000001
00000000
,
00000100
00000100
00000001
00000000
,
00000010
00000000
00000100
00000000
,
00010000
00001000
00200000
00000000
,
01300000
00000000
00010000
00000000
,
10000000
00100000
01000000
00000000
,
00010000
10000000
00010000
10000000
,
01000000
00100000
01100000
00000000
,
00010000
00001000
00010000
00000100
,
00001000
00000001
00000010
00000000
,
00000001
00001000
00000001
00000001
,
00000100
00000010
00000100
00000000
00000020
00000000
00001030
00000000
,
00020000
00000100
00030100
00010000
,
00002000
01000000
01003000
00001000
,
00100000
00010000
00100000
00000000
01000000
10000000
01000000
00000000
,
00100000
00000000
00001000
00010000
00000000
00022000
00000000
00033000
;

//--------------- dance-double - ----------------
#NOTES:
     dance-double:
     :
     Hard:
     9:
     0,0,0,0,0:
00000000
00000000
00000000
00000000
,
00000000
00000000
00000000
00000000
,
00000000
00000000
00000000
00000000
,
00000000
00000000
00000000
00000000
,
00010200
00000000
00010300
00001000
00200000
00000000
00301000
00000000
,
02001000
00000000
03001000
00010000
00000020
00000000
00010030
00000000
,
00001000
00100000
01000000
00000000
10000000
00010000
01000000
00000000
,
00011000
00010000
00001000
00020000
00000000
00000000
00030100
00000000
,
00001000
00000100
00001000
00000000
00000001
00000100
00001000
00000000
,
00010000
00001000
00100000
00000000
00001000
00010000
00000010
00000000
,
00001010
00000000
00000011
00000000
00000010
00000001
00001000
00000100
,
00000000
00010000
00001000
00100000
01000000
00000000
11000000
00000000
,
01010000
00000000
00100000
01000000
10000000
00000000
00010000
01000000
,
00100000
10000000
00010000
00000000
00100000
00001000
00010000
00000000
,
00000100
00001000
00000100
00001000
00000010
00001000
00000001
00000010
,
00000000
00000100
00010000
00001000
00100000
00000000
01100000
00000000
,
20010000
00000000
01000000
00000000
30100000
01000000
01000000
00010000
,
00100000
00001000
00010000
00000000
00000100
00001000
00000010
00000000
,
00001002
00000000
00000100
00000000
00000013
00000100
00000100
00001000
,
00000000
00000010
00001000
00000000
00000101
00000000
00001100
00000000
,
00021000
00000000
00031000
00100000
00002000
00000000
00103000
01000000
,
00200000
00000000
00310000
10000000
02000000
00000000
03100000
00000000
,
10010000
10000000
00010000
00000000
00100000
00001000
00100000
00001000
,
00010000
00000000
00001100
00001000
00000010
00000200
00000000
00000000
,
00000302
00000000
00001003
00000100
00000000
00001100
00000000
00000000
,
00020000
00000000
00031000
01000000
00000000
01010000
00000000
00000000
,
10000000
01000000
00010000
01000000
00100000
00100000
00010000
10000000
,
00100000
01000000
00010000
00000000
00110000
00100000
00001000
00000000
,
00020000
00000000
00030100
00001000
00000000
00011000
00000000
00000000
,
00002000
00000000
01003000
00010000
00000000
00011000
00000000
00000000
,
00100000
00010000
00100000
01000000
10000000
00010000
00010000
10000000
,
00100000
00000000
01010000
00100000
00001000
00020000
00000000
00030100
,
00001000
00000000
00001010
00000000
00000100
00000001
00000010
00001000
,
00010000
00000000
00000100
00010000
00001000
00000000
00100000
00000000
,
00210000
00000000
01300000
00000000
10000000
00100000
10000000
00010000
,
01000000
00011000
00001100
00000101
,
00000020
00000000
00000031
00000100
00001000
00010000
00001000
00000000
,
00200000
00000000
00310000
01000000
10000000
00000000
01000000
00010000
,
00100000
00000000
01100000
00000000
00010000
00001000
00010000
00000100
,
00000010
00000000
00000001
00001000
00000010
00000220
00000000
00000330
,
00000100
00000001
00000100
00000001
00001000
00000100
00010000
00002000
,
00000000
00103000
00001000
00000000
01010000
00000000
11000000
00000000
,
00100000
00100000
00010000
10000000
01000000
10000000
00010000
01000000
,
00000000
00010000
00100000
00001000
00010000
00022000
00000000
00033000
,
00010000
00000100
00000010
00000010
00000001
00001000
00000100
00000100
,
00001000
00000000
00000011
00000000
00001010
00000000
00000100
00001000
,
00010000
00010000
00001000
00000000
00100000
00010000
00100000
01000000
,
10000000
00000000
00010000
00100000
00001000
00022000
00000000
00033000
,
00010000
00000100
00010000
00001000
01000000
00001000
00010000
00000010
,
00010000
00001000
00100000
00001000
00000100
00000100
00000002
00000000
,
00002003
00003100
00000010
00000002
00000103
00000010
00000200
00000301
,
00001000
00000020
00001030
00000001
00000010
00000000
00000110
00000000
,
00000100
00010000
00001000
01000000
00001000
00010000
00000010
00010000
,
00001000
00100000
00001000
00010000
01000000
00100000
02000000
00000000
,
13000000
00010000
00010000
00100000
01000000
01000000
00100000
01000000
,
20000000
30010000
10100000
00110000
,
00100000
00001000
00010000
00000010
00010000
00001000
01000000
00001000
,
00010000
00000100
00001000
00000010
00000100
00000001
00000010
00000000
,
00000110
00000010
00000100
00001000
00000010
00000100
00000001
00001000
,
00000200
00000000
00010300
00001000
00100000
02200000
00000000
03300000
,
01000000
10000000
00100000
01000000
00010000
00100000
00001000
00010000
,
00000200
00000000
00000310
00000001
00001001
00000000
00001000
00001000
,
00000100
01001000
00010100
00012000
,
00103000
00010010
00101000
01000200
,
00002300
00000001
00000001
00000000
00000010
00003010
00001000
00000100
,
00000001
00000200
00010000
00020000
00000300
00001000
00031000
00100000
,
00010000
20000000
01000000
31000000
10000000
00020000
01000000
02030000
,
00000000
03100000
01000000
00100000
00000000
10010000
00000000
00010000
,
00100000
00100000
00001000
00010000
00000100
00000100
00001000
00000001
,
00000010
00000001
00001000
00000100
00000020
00000000
00000130
00000000
,
00001000
00000010
00000100
00000000
00000001
00000010
00000100
00000000
,
00010000
00001000
00010000
00000000
00010100
00000000
01001000
00000000
,
00100000
00002000
00000000
00000000
00010000
00000000
00010000
00000000
01000000
00000000
00000000
00000000
00203000
00000000
00000000
00000000
,
01300000
10000000
00010000
00100000
00001000
00000000
00011000
00000000
,
00000010
00020000
00000000
00000000
00001000
00000000
00001000
00000000
00000100
00000000
00000000
00000000
00030020
00000000
00000000
00000000
,
00000130
00000001
00000010
00000000
00001100
00000000
00000101
00000000
,
00000100
00000010
00001000
00000000
00000100
00010000
00001000
01000000
,
00001000
00010000
00001000
00000000
00010000
00000000
00011000
00000000
,
00100000
00020000
00000000
00000000
00100000
00000000
00130000
00000000
01000000
20000000
00000000
00000000
01000000
00000000
31000000
00000000
,
00100000
01000000
00010000
00001000
00022000
00000000
00000000
00033000
,
00010000
00000000
00000100
00000000
00001000
00001000
00000010
00002000
,
00000000
00000000
00003001
00000100
00000001
00000000
00000110
00000000
,
00001000
00000100
00010000
00000000
00001000
00001000
00100000
00002000
,
00000000
00000000
00000000
01003000
00000000
00000000
00100000
00100000
00100000
01000000
00000000
00000000
,
00010000
00000000
00100000
00000000
01000000
01000000
00010000
00002000
,
00000000
00013000
00000100
00000110
,
00000010
00000001
00000100
00000000
00001000
00010000
00001000
00020000
,
00000000
00031000
02000000
03010000
,
00100000
00010000
10000000
00000000
01000000
00000000
10000000
00010000
,
00000000
00010000
00100000
00000000
00101000
00000000
00010010
00000000
,
00001000
00000001
00000010
00000000
00000100
00000000
00001000
00000100
,
00000000
00010000
00001000
00000000
00010010
00000000
00101000
00000000
,
00100000
00010000
00100000
00000000
01000000
00000000
10000000
00010000
,
00000000
01000000
00010000
10000000
00100000
00000000
01100000
00000000
,
10000000
00100000
20000000
00000000
30010000
01000000
00020000
00000000
,
00130000
00000000
00000000
00000000
00001000
00010000
00001000
00000000
00020000
00000000
00002000
00000000
00000000
00000000
00033000
00000000
;

//--------------- dance-double - ----------------
#NOTES:
     dance-double:
     :
     Challenge:
     10:
     0,0,0,0,0:
00000000
00000000
00000000
00000000
,
00000000
00000000
00000000
00000000
,
00000000
00000000
00000000
00000000
,
00000000
00000000
00000000
00000000
,
00001000
00100000
00100000
00001000
00010000
00000010
00000010
00002000
,
00000000
00003100
00010000
00002000
01000000
00000000
00103000
00000000
,
00110000
00100000
02000000
00000000
13000000
01000000
00200000
00000000
,
00310000
01000000
00001000
00020000
00001000
00000000
00030100
00000000
,
00001000
00000010
00000100
00000100
00000002
00000000
00000013
00000001
,
00000000
00001000
00000100
00001000
00000200
00010000
00000000
00010300
,
00001000
00000000
00100000
00010000
00100000
01000000
10000000
00100000
,
10000000
00000000
00010000
01000000
00010000
00000000
00100000
00000000
00101000
00000000
00000000
00000000
00010010
00000000
00000000
00000000
,
00001000
00000100
00000010
00000001
00000200
00000000
00000301
00000100
,
00000000
00001000
00010000
00001000
00200000
00010000
00000000
00310000
,
01000000
00000000
01100000
10000000
01000000
10000000
00010000
00100000
,
00000000
00000000
00001000
00010000
00001000
00000000
00010000
00000000
00010100
00000000
00000000
00000000
01001000
00000000
00000000
00000000
,
20010000
00000000
00100000
00000000
31000000
00100000
00010000
02000000
,
00001000
00000000
00001000
00000000
03010000
00100000
00001000
00000000
,
00020100
00000000
00001000
00000000
00030010
00001000
00000001
00000020
,
00000000
00000100
00000000
00000031
00001000
00000000
00001010
00000000
,
00000012
00000000
00000103
00001000
00020000
00000000
00031000
00100000
,
02000000
00000000
13000000
00010000
00200000
00000000
01300000
00000000
,
20010000
00000000
31000000
00010000
00001000
00100000
00001000
00010000
,
00000100
00000000
00000000
00000000
00001000
00000010
00001000
00000000
00000002
00000000
00000200
00000000
00000000
00000000
00000303
00000000
,
00000020
00000000
00000000
00000000
00002030
00000000
00000200
00003000
00000000
00000000
00020000
00000300
00000000
00000000
00031000
00000000
,
00200000
00000000
00000000
00000000
00320000
00000000
02000000
00030000
00000000
00000000
00002000
03000000
00000000
00000000
00013000
00000000
,
00010200
00000310
00000012
00000103
,
00001000
00000000
00010000
00000000
00001000
00010000
00001000
00000000
00100000
00000000
00200000
00000000
00000000
00000000
00310000
00000000
,
02000000
00000000
00000000
00000000
03020000
00000000
00200000
00030000
00000000
00000000
00002000
00300000
00000000
00000000
00013000
00000000
,
00000200
00000000
00000000
00000000
00002300
00000000
00000020
00003000
00000000
00000000
00020000
00000030
00000000
00000000
00031000
00000000
,
00201000
01300000
21000000
30100000
,
01000000
00000000
00001000
00000000
00010000
00001000
00010000
00000000
00000100
00000000
00000200
00000000
00000000
00000000
00001300
00000000
,
00000010
00001000
00000100
00001000
00000001
00000100
00000001
00000020
,
00000000
00000001
00000000
00000100
00000230
00000000
00001300
00000000
,
00012000
00000000
00010000
00000000
00103000
00010000
00100000
01000000
,
10000000
00010000
10010000
00000000
01100000
01000000
00010000
00000000
,
00210000
00000000
00301000
00010000
00000100
00010000
00010100
00000000
,
00001020
00000000
00010030
00001000
01000000
00001000
01001000
00000000
,
01100000
00000000
10000000
01000000
11000000
00000000
00100000
00010000
,
01010000
00000000
00000000
00000000
00100000
00001000
00010000
00000000
00000100
00000000
00000200
00000000
00000000
00000000
00000310
00000000
,
00000100
00010000
00001000
00100000
00010000
10000000
00010000
02000000
,
00000000
00100000
00000000
00010000
03010000
00000000
01010000
00000000
,
12000000
00000000
00100000
00000000
03100000
01000000
00100000
00001000
,
00010000
00000000
00000100
00000000
00001000
00000010
00000100
00000000
00000010
00000000
00000020
00000000
00000000
00000000
00000130
00000000
,
00000101
00000000
00000001
00000010
00000001
00001000
00000100
00001000
,
00001100
00000000
00010000
00001000
00100000
00010000
01000000
00010000
,
10010000
00000000
10000000
01000000
11000000
00000000
00010000
01000000
,
01010000
00000000
00000000
00000000
00100000
00001000
00010000
00000000
00001000
00000000
00002000
00000000
00000000
00000000
00003000
00000000
,
00010100
00010000
00001000
01000000
00001000
00010000
00000010
00010000
,
00001000
00100000
00020000
00000000
10000000
10000000
10030000
00000000
,
00100000
10000000
01000000
00100000
00010000
01000000
00001000
00010000
,
00001000
00010000
00000100
00000010
00000100
00000000
00001001
00000000
,
00000001
00000010
00000200
00001000
00002300
00000001
00000000
00003010
,
00000100
00001000
00010000
00001000
00200000
01000000
01300000
00000000
,
10000000
01000000
00010000
00001000
00100000
00001000
00010000
00000100
,
00010100
00000000
00000000
00000000
00001001
00000000
00000000
00000000
00000100
00000001
00000000
00000000
00000100
00001000
00000000
00000000
,
00011000
00001000
00100000
00001000
00010000
00000010
00010000
00001000
,
01000000
00100000
10000000
01000000
02000000
10000000
10000000
00000000
,
03100000
00010000
01000000
00001000
00010000
00000100
00000010
00000001
,
00001001
00000000
00000000
00000000
00000001
00000100
00001000
00000000
00020000
00000000
00002000
00000000
00000000
00000000
00033000
00000000
,
00010000
00010000
00001000
00100000
01000000
10000000
00010000
02000000
,
00100000
00000000
03001000
00010000
00010200
00000000
00001300
00000010
,
00000100
00000000
00000000
00000000
00000001
00001000
00000000
00000000
00000100
00010000
00000000
00000000
00001000
00100000
00000000
00000000
,
01100000
00000000
00000000
00000000
10000000
00100000
00000000
00000000
01000000
00010000
00000000
00000000
00100000
01000000
00000000
00000000
,
00010000
00002000
00000000
00010000
00013000
00000100
00001000
00000010
,
00001010
00000100
00000001
00000011
00000000
00000010
00000010
00000001
,
00000100
00000000
00001000
00010000
00001000
00000000
00100000
00000000
01000000
00000000
00010000
00001000
00010000
00000000
00001000
00000000
,
00000100
00000001
00001000
00001001
00000200
00000020
00000300
00000130
,
00000001
00000000
00000010
00000001
00000100
00000000
00001000
00000000
00001000
00010000
00001000
00000000
00100000
00000000
00101000
00000000
,
00010000
00000000
00010000
01000000
00000000
01000000
10000000
00000000
00100000
00000000
10100000
00000000
00110000
00000000
00100000
00000000
,
00001000
00000000
00010000
00000100
00010000
00000000
00000100
00000000
00001000
00000000
00000001
00000100
00000001
00000000
00000010
00000000
,
00000001
00000100
00000010
00000000
00001000
00000100
00010000
00000000
00002000
00000000
00200000
00000000
00003000
00000000
00310000
00000000
,
01000000
00010000
01000000
00010000
10000000
00010000
10000000
00010000
01000000
00100000
01000000
00100000
01000000
00001000
00010000
00001000
,
00010000
00000100
00001000
00000010
00000100
00000000
00000001
00000000
00001001
00000000
00000000
00000000
00000110
00000000
00000000
00000000
,
00000100
00000001
00000100
00000001
00000010
00000100
00000010
00000100
00001000
00000010
00001000
00000010
00010000
00000100
00010000
00000100
,
00010000
00001000
00100000
00010000
01000000
00000000
00100000
00000000
01100000
00000000
00000000
00000000
10010000
00000000
00000000
00000000
,
10000000
00000000
01000000
00100000
01000000
00000000
00010000
00000000
00001000
00100000
00001000
00000000
00010000
00000000
00000100
00001000
,
00000010
00000000
00000100
00000010
00001000
00000000
00000100
00000000
00000110
00000000
00000010
00000000
00001001
00000000
00001000
00000000
,
00000100
00010000
00000100
00010000
00001000
00100000
00001000
00100000
00010000
10000000
00010000
10000000
01000000
00100000
01000000
00100000
,
00010000
00000000
01000000
00010000
00100000
00001000
00010000
00000100
00002000
00000000
00000002
00000000
00000000
00000000
00003003
00000000
,
00001001
00000100
00000001
00000010
00000200
00000000
00001300
00000020
,
00000000
00000130
00000001
00001000
00001100
00000000
00011000
00000000
,
00100000
00001000
00001000
01000000
00010000
10000000
01000000
00010000
,
00000000
00000000
00000000
00001000
00000000
00000000
00010000
00000000
00000000
00001000
00000000
00000000
00011000
00000000
00101000
00000000
00010010
00000000
00001000
00000000
00000000
00000100
00000000
00000000
,
00001000
00000010
00000100
00001000
00010000
00010000
00001000
00200000
,
00000000
00310000
10000000
00010000
01010000
00000000
00011000
00000000
,
00000100
00001000
00000010
00000100
00000001
00000001
00001000
00000100
,
00010000
00001000
00100000
01000000
21000000
00000000
30020000
00000000
,
01030000
00001000
00010000
00000100
00001000
00000001
00000000
00001002
,
00000000
00000000
00000013
00000100
00001000
00000000
00000010
00000000
00000100
00000000
00000001
00001000
00000001
00000000
00000100
00000000
,
00000100
00001000
00010000
00001000
00100000
00010000
00100000
01000000
,
10000000
00100000
10100000
01000000
00010000
00100000
00110000
00000000
,
00011000
00010000
00000100
00001000
00000010
00000010
00000010
00001000
,
00000001
00000000
00000010
00000000
00000100
00000010
00000100
00000000
00001000
00000000
00000010
00000000
00001000
00000000
00000100
00000000
,
00010000
00000100
00010000
00000000
00001000
00000000
01000000
00000000
00010000
00100000
00010000
00000000
00100000
00000000
01000000
00000000
,
01000000
00000000
00000000
00000000
00100000
01000000
00010000
00001000
00010000
00000000
00022000
00000000
00000000
00000000
00033000
00000000
;
