#TITLE:Life;
#SUBTITLE:;
#ARTIST:Haya-P & Maru;
#TITLETRANSLIT:;
#SUBTITLETRANSLIT:;
#ARTISTTRANSLIT:;
#GENRE:J-Pop;
#CREDIT:;
#MUSIC:Life.mp3;
#BANNER:Life-bannerBP;
#BACKGROUND:Life-bg.png;
#CDTITLE:;
#SAMPLESTART:44.041;
#SAMPLELENGTH:12.000;
#SELECTABLE:YES;
#OFFSET:-0.405;
#BPMS:0.000=110.000;
#STOPS:;
#BGCHANGES:;
#FGCHANGES:;

//--------------- dance-single - ----------------
#NOTES:
     dance-single:
     :
     Beginner:
     1:
     0,0,0,0,0:
0000
0000
0000
0000
,
0000
0000
0000
0000
,
0000
0000
0000
0000
,
0000
0000
0000
0000
,
0001
0000
0000
0000
,
1000
0000
0000
0000
,
1000
0000
0000
0000
,
0001
0000
0000
0000
,
1000
0000
0000
0000
,
0001
0000
0000
0000
,
0001
0000
0000
0000
,
1000
0000
0000
0000
,
0100
0000
0000
0000
,
1000
0000
0000
0000
,
0001
0000
0000
0000
,
0100
0000
0000
0000
,
0010
0000
0000
0000
,
0001
0000
0000
0000
,
0010
0000
0000
0000
,
1000
0000
0000
0000
,
0001
0000
0001
0000
,
1000
0000
0000
0000
,
1000
0000
1000
0000
,
0001
0000
0000
0000
,
0100
0000
0000
0000
,
0100
0000
0000
0000
,
0001
0000
1000
0000
,
0001
0000
1000
0000
,
0001
0000
0000
0000
,
0001
0000
0000
0000
,
1000
0000
0000
0000
,
1000
0000
0000
0000
,
0010
0000
0000
0000
,
1000
0000
0000
0000
,
0010
0000
0000
0000
,
0001
0000
0000
0000
,
0100
0000
0000
0000
,
0010
0000
0000
0000
,
0000
0000
0000
0000
,
0000
0000
0000
0000
,
0001
0000
0000
0000
,
0001
0000
0000
0000
,
1000
0000
0000
0000
,
1000
0000
0000
0000
,
0100
0000
0000
0000
,
0100
0000
0000
0000
,
0001
0000
0000
0000
;

//--------------- dance-single - ----------------
#NOTES:
     dance-single:
     :
     Easy:
     1:
     0,0,0,0,0:
0000
0000
0000
0000
,
0000
0000
0000
0000
,
0000
0000
0000
0000
,
0000
0000
0000
0000
,
0001
0000
0000
0000
,
1000
0000
0000
0000
,
1000
0000
0000
0000
,
0001
0000
0000
0000
,
1000
0000
0000
0000
,
0001
0000
0000
0000
,
0001
0000
0000
0000
,
1000
0000
0000
0000
,
0100
0000
0000
0000
,
1000
0000
0000
0000
,
0001
0000
0000
0000
,
0100
0000
0000
0000
,
0010
0000
0000
0000
,
0001
0000
0000
0000
,
0010
0000
0000
0000
,
1000
0000
0000
0000
,
0001
0000
0001
0000
,
1000
0000
0000
0000
,
1000
0000
1000
0000
,
0001
0000
0000
0000
,
0100
0000
0000
0000
,
0100
0000
0000
0000
,
0001
0000
1000
0000
,
0001
0000
1000
0000
,
0001
0000
0000
0000
,
0001
0000
0000
0000
,
1000
0000
0000
0000
,
1000
0000
0000
0000
,
0010
0000
0000
0000
,
1000
0000
0000
0000
,
0010
0000
0000
0000
,
0001
0000
0000
0000
,
0100
0000
0000
0000
,
0010
0000
0000
0000
,
0000
0000
0000
0000
,
0000
0000
0000
0000
,
0001
0000
0000
0000
,
0001
0000
0000
0000
,
1000
0000
0000
0000
,
1000
0000
0000
0000
,
0100
0000
0000
0000
,
0100
0000
0000
0000
,
0001
0000
0000
0000
;

//--------------- dance-single - ----------------
#NOTES:
     dance-single:
     :
     Medium:
     3:
     0,0,0,0,0:
0000
0000
0000
0000
,
0000
0000
0000
0000
,
0000
0000
0000
0000
,
0000
0000
0000
0000
,
1000
0001
1000
0000
,
0100
1000
0100
0000
,
0100
1000
0001
0000
,
0001
1000
0001
0000
,
0001
0100
0001
0000
,
1000
0100
1000
0000
,
0001
0000
0100
0000
,
1000
0000
0100
0000
,
0010
0001
1000
0000
,
0010
1000
0001
0000
,
0000
0100
0100
0000
0000
0000
0000
0000
,
0001
1000
0001
0000
,
1000
0000
0010
0000
,
0001
0000
0010
0000
,
0001
0100
0001
0000
,
1000
0100
1000
0001
,
0100
0000
0001
1000
0000
0000
0100
0000
,
0000
0000
1000
0010
0000
0000
1000
0000
,
0001
0010
0100
0010
,
0001
1000
0010
0000
,
1000
0000
0010
0100
0000
0000
0100
0000
,
0001
0000
1000
0001
0000
0000
0010
0000
,
0001
0000
0000
0000
1000
0000
0000
0100
,
0000
1000
0001
0000
0000
0000
0100
0000
,
0001
0010
0000
0001
,
1000
0000
0000
0100
0000
1000
0001
0000
,
0100
0010
1000
0001
,
0100
0000
0100
0001
,
1000
0000
0000
0100
0000
0000
1000
0000
,
0010
0100
0001
0000
,
1000
0000
0010
0100
,
0001
1000
0100
0010
,
0001
0000
0000
0000
0010
0000
0001
1000
,
0000
0100
0000
0100
,
0000
0000
0000
1000
0000
0000
0000
0000
,
0000
0000
0000
0000
,
0001
0001
0010
0001
,
1000
0100
0001
0000
,
1000
0010
0100
0000
,
0001
0100
1000
0000
,
0100
0001
0010
0000
,
0100
1000
0010
0100
,
0001
0000
0000
0000
;

//--------------- dance-single - ----------------
#NOTES:
     dance-single:
     :
     Hard:
     5:
     0,0,0,0,0:
0000
0000
0000
0000
,
0000
0000
0000
0000
,
0000
0000
0000
0000
,
0000
0000
0000
0000
,
0001
0000
1000
0001
0000
0000
1000
0000
,
0100
1000
0010
0100
,
0000
0010
1000
0000
0001
0000
1000
0000
,
0100
0010
0001
1000
,
1000
0000
0010
1000
0000
0001
1000
0000
,
0001
0000
0100
0001
0000
0010
0001
0000
,
1000
0100
1000
0010
,
0100
0001
0010
0100
,
0010
0000
0001
0010
0000
0000
0001
0000
,
1000
0000
0100
1000
0100
0000
0010
0000
,
0000
0001
0001
0000
0000
0000
0010
0000
,
0001
0100
1000
0010
,
1000
0000
0100
1000
0000
0000
0001
0000
,
0001
0000
0100
0001
0000
0000
1000
0000
,
0100
0100
0010
0010
,
0001
1000
0001
1000
0100
0000
0010
0000
,
1000
0000
1000
0100
0010
0000
0010
0001
,
1000
0000
0001
0001
0000
0100
0001
1000
,
0010
0000
1000
0001
0010
0000
0100
0000
,
1000
0000
0001
1000
0000
0001
0010
0001
,
0100
0000
0010
1000
0000
0100
1000
0000
,
0001
0000
1000
0001
0000
1000
0100
0000
,
1000
0000
1000
0000
0010
0000
0010
1000
,
0000
0001
1000
0000
0001
0000
0010
0000
,
0001
0000
0100
0100
0001
1000
0100
0000
,
0010
0000
0100
0010
0000
0001
1000
0100
,
1000
0000
0010
1000
0000
0001
1000
0000
,
0100
0000
0100
0010
0000
0001
1000
0001
,
0100
0000
0010
1000
0000
1000
0001
0001
,
1000
0000
0100
1000
0000
0001
0100
0000
,
0001
0000
0010
0000
1000
0000
0100
1000
,
0000
0001
1000
0000
0000
0010
0100
0010
,
1000
0000
0100
0000
1000
0000
0001
1000
,
0000
0001
0010
0000
0100
1000
0001
0100
,
0010
0000
0000
1000
0000
0000
0000
0000
,
0000
0000
0000
0000
,
0001
1000
0001
1000
0100
0000
1000
0010
,
0000
0100
0001
0010
0100
0000
0010
0000
,
0001
0010
0001
1000
0000
0010
1000
0010
,
0000
1000
0100
0010
0000
0001
1000
0000
,
0001
0000
0100
0000
1000
0000
0001
0010
,
0000
0001
0001
1000
0010
1000
0100
1000
,
0001
0000
0000
0000
;

//--------------- dance-double - ----------------
#NOTES:
     dance-double:
     :
     Easy:
     1:
     0,0,0,0,0:
00000000
00000000
00000000
00000000
,
00000000
00000000
00000000
00000000
,
00000000
00000000
00000000
00000000
,
00000000
00000000
00000000
00000000
,
00001000
00000000
00000000
00000000
,
00010000
00000000
00000000
00000000
,
00001000
00000000
00000000
00000000
,
00000100
00000000
00000000
00000000
,
00000001
00000000
00000000
00000000
,
00001000
00000000
00000000
00000000
,
00000001
00000000
00000000
00000000
,
00000100
00000000
00000000
00000000
,
00001000
00000000
00000000
00000000
,
00010000
00000000
00000000
00000000
,
01000000
00000000
00000000
00000000
,
10000000
00000000
00000000
00000000
,
00010000
00000000
00000000
00000000
,
00100000
00000000
00000000
00000000
,
00001000
00000000
00000000
00000000
,
00010000
00000000
00000000
00000000
,
00001000
00000000
00001000
00000000
,
00001000
00000000
00000000
00000000
,
00010000
00000000
00010000
00000000
,
00010000
00000000
00000000
00000000
,
00000100
00000000
00000000
00000000
,
00000010
00000000
00000000
00000000
,
00000001
00000000
00000000
00000000
,
00001000
00000000
00000000
00000000
,
00000010
00000000
00000000
00000000
,
00000100
00000000
00000000
00000000
,
00001000
00000000
00000000
00000000
,
00010000
00000000
00000000
00000000
,
01000000
00000000
00000000
00000000
,
10000000
00000000
00000000
00000000
,
00010000
00000000
00000000
00000000
,
01000000
00000000
00000000
00000000
,
00100000
00000000
00000000
00000000
,
01000000
00000000
00000000
00000000
,
00000000
00000000
00000000
00000000
,
00000000
00000000
00000000
00000000
,
00001000
00000000
00001000
00000000
,
00001000
00000000
00000000
00000000
,
00010000
00000000
00010000
00000000
,
00010000
00000000
00000000
00000000
,
00000100
00000000
00000000
00000000
,
00000100
00000000
00000000
00000000
,
00001000
00000000
00000000
00000000
;

//--------------- dance-double - ----------------
#NOTES:
     dance-double:
     :
     Medium:
     3:
     0,0,0,0,0:
00000000
00000000
00000000
00000000
,
00000000
00000000
00000000
00000000
,
00000000
00000000
00000000
00000000
,
00000000
00000000
00000000
00000000
,
00001000
00010000
00001000
00000000
,
00010000
00001000
00010000
00000000
,
01000000
00100000
01000000
00000000
,
10000000
00010000
01000000
01000000
,
00100000
01000000
00010000
00000000
,
00100000
00001000
00010000
00000000
,
00000100
00000000
00000100
00000000
,
00001000
00000001
00001000
00000001
,
00000010
00000000
00000000
00000000
,
00000100
00000010
00000001
00000000
,
00000000
00000100
00000100
00000000
00000000
00000000
00000000
00000000
,
00001000
00010000
00001000
00000000
,
00100000
00000000
00010000
00000000
,
10000000
00000000
00100000
00000000
,
10000000
01000000
00010000
00100000
,
01000000
00010000
10000000
01000000
,
00100000
00000000
00000000
00010000
00000000
00000000
10000000
00000000
,
01000000
10000000
00010000
01000000
,
00100000
00100000
00010000
00001000
,
00000100
00000000
00000001
00000000
,
00001000
00000000
00000100
00000001
00000000
00000000
00000100
00000000
,
00000100
00000000
00000010
00000001
00000000
00000000
00000001
00000000
,
00000100
00000000
00001000
00000000
,
00010000
00000000
00001000
00000000
00010000
00001000
00010000
00000000
,
01000000
00000000
10000000
00100000
00000000
00000000
10000000
00000000
,
00010000
00000000
00010000
10000000
,
00100000
00000000
01000000
00000000
,
00010000
00000000
00100000
00001000
,
00010000
00000000
00010000
00000100
00000000
00000000
00000010
00000000
,
00000100
00000000
00000010
00000001
00000000
00000000
00001000
00000000
,
00000100
00000000
00001000
00000000
00000100
00000000
00000000
00001000
,
00000000
00001000
00000001
00000000
00000000
00000000
00000000
00000000
,
00000100
00000000
00001000
00000000
,
00010000
00001000
00100000
01000000
,
00000000
00000000
00000000
00010000
00000000
00000000
00000000
00000000
,
00000000
00000000
00000000
00000000
,
00001000
00010000
00001000
00000100
,
00000010
00001000
00000100
00001000
,
00000001
00000000
00000000
00000010
00000000
00000000
00000001
00000000
,
00000100
00000000
00000000
00000010
00000000
00000000
00001000
00000000
,
00000100
00010000
00001000
00100000
,
01000000
10000000
00010000
01000000
,
00100000
00000000
00000000
00000000
;

//--------------- dance-double - ----------------
#NOTES:
     dance-double:
     :
     Hard:
     5:
     0,0,0,0,0:
00000000
00000000
00000000
00000000
,
00000000
00000000
00000000
00000000
,
00000000
00000000
00000000
00000000
,
00000000
00000000
00000000
00000000
,
00100000
00000000
10000000
00010000
00000000
00000000
00100000
00000000
,
01000000
00000000
00010000
00001000
00000000
00001000
00000100
00000000
,
00000000
00000010
00000100
00000000
00000010
00000000
00001000
00000000
,
00000001
00000000
00000001
00000010
00000000
00000010
00000100
00000000
,
00001000
00000000
00000010
00001000
00000000
00001000
00000010
00000000
,
00000100
00000000
00000001
00000010
00000000
00000010
00000001
00000000
,
00000100
00001000
00010000
01000000
,
00100000
00000000
00010000
00000000
10000000
00100000
01000000
00000000
,
00010000
00000000
10000000
01000000
00000000
00000000
00100000
00000000
,
00010000
10000000
01000000
00000000
00100000
00000000
00001000
00000000
,
00000000
00010000
00010000
00000000
00000000
00000000
00001000
00000000
,
00000100
00000010
00001000
00000001
,
00001000
00000000
00000010
00001000
00000000
00000001
00000100
00000000
,
00000001
00000000
00000010
00000001
00000000
00001000
00000100
00000000
,
00010000
00010000
00001000
00001000
,
00100000
00010000
10000000
00000000
01000000
10000000
00010000
00000000
,
01000000
00000000
00100000
10000000
00100000
00000000
01000000
00010000
,
01000000
00001000
00010000
00000100
,
00000010
00000000
00000001
00001000
00000000
00000010
00001000
00000001
,
00000100
00000000
00000001
00000010
00000001
00001000
00000010
00000000
,
00000100
00000000
00001000
00000000
00010000
00001000
00100000
00010000
,
00000000
00000000
10000000
00010000
00000000
00000000
10000000
00000000
,
01000000
00010000
00001000
00000100
,
00000010
00001000
00000100
00000010
,
00000001
00000000
00000100
00000100
00000001
00001000
00000100
00000000
,
00010000
00000000
00001000
00010000
00000000
00100000
10000000
00000000
,
00010000
00000000
00010000
00100000
00000000
00010000
10000000
00000000
,
01000000
00000000
10000000
00100000
00000000
01000000
00010000
10000000
,
00010000
00000000
10000000
00010000
00000000
00100000
00001000
00000000
,
00010000
00000000
00001000
00010000
00000000
00000100
00010000
00000000
,
00000010
00000000
00000100
00000000
00000001
00001000
00000100
00000010
,
00000000
00000010
00000001
00000000
00001000
00000100
00000010
00000000
,
00000001
00000000
00000100
00000000
00001000
00000000
00010000
00001000
,
00000000
00010000
01000000
00000000
00100000
00010000
10000000
00100000
,
01000000
00000000
00000000
00010000
00000000
00000000
00000000
00000000
,
00000000
00000000
00000000
00000000
,
00100000
00001000
00010000
00001000
00010000
00000000
00000100
00000010
,
00000000
00000001
00001000
00000100
00000010
00000000
00000100
00000000
,
00001000
00000010
00000100
00000001
00000000
00000100
00001000
00010000
,
00000000
00001000
00010000
00001000
00000000
00100000
00010000
00000000
,
10000000
00000000
01000000
10000000
00100000
00000000
01000000
00010000
,
00100000
00000000
01000000
10000000
00010000
01000000
00100000
00000000
,
01000000
00000000
00000000
00000000
;

//--------------- dance-double - ----------------
#NOTES:
     dance-double:
     :
     Challenge:
     7:
     0,0,0,0,0:
00000000
00000000
00000000
00000000
,
00000000
00000000
00000000
00000000
,
00000000
00000000
00000000
00000000
,
00000000
00000000
00000000
00000000
,
00010000
00100000
00010000
01000000
00000000
00001000
00010000
00000100
,
00002000
00000000
00003010
00001000
00000000
00000001
00000010
00000001
,
00000100
00000000
00001000
00000000
00000001
00001000
00000010
00000000
,
00000100
00001000
00010000
00001000
00000000
00100000
00010000
10000000
,
01000000
00010000
00001000
00020000
00000000
00030100
00010000
00002000
,
00000000
00103000
00001000
01000000
00000000
00100000
10000000
00000000
,
10000000
00000000
00000000
00010000
10000000
00000000
01000000
00000000
10000000
00000000
01000000
00000000
00100000
00000000
00001000
00000000
,
00020000
00030200
00002300
00003002
,
00000013
00000000
00000000
00000100
00000000
00000000
00001000
00000000
00000000
00000000
00000001
00000000
00000010
00000000
00000001
00000000
,
00001000
00000000
00000000
00000000
00000100
00000000
00010000
00000000
00000000
00000000
00001000
00000000
00100000
00010000
00000000
00100000
,
00000000
10010000
20020000
00000000
30030000
00000000
01000000
10000000
,
00100000
00000000
00000000
01000000
00000000
00000000
00020000
00000000
00000000
00000000
00130000
00000000
00001000
00000000
00010000
00000000
,
00001000
00000100
00000010
00001000
00000000
00000001
00000100
00000002
,
00000000
00001003
00000100
00000010
00000100
00000100
00010000
00001000
,
00200000
00000000
00310000
10000000
02000000
00000000
13000000
01000000
,
00020000
00000100
00030100
00002000
00000000
00003001
00000000
00000100
,
00000010
00000000
00001000
00000000
00000100
00000000
00001000
00000000
00000001
00000000
00001000
00000000
00000001
00000100
00000001
00000000
,
00000100
00000000
00000000
00001000
00000000
00000000
00010000
00000000
00001000
00000000
00100000
00000000
00010000
00000000
10000000
00000000
,
00200000
00000000
10300000
00010000
00100000
00001000
00020000
00000000
,
00030100
00000010
00000001
00002000
00000000
00003010
00000100
00000001
,
00000200
00000000
00001300
00200000
00000000
00301000
00010000
01000000
,
10000000
00000000
00100000
00000000
10000000
00000000
01000000
00000000
00100000
00000000
00000000
00010000
00000000
00100000
00001000
00000000
,
00011000
00010000
00000100
00000010
00000110
00000010
00000001
00000200
,
00000000
00000000
00000301
00000000
00001000
00000000
00000010
00000000
00000100
00000000
00000001
00001000
00000001
00000000
00000100
00000000
,
00000010
00000000
00010000
00000010
00010000
00000000
00002000
00000000
00100000
00000000
00103000
00000000
00010000
10000000
00010000
00000000
,
20000000
00000000
00000000
01000000
00000000
00000000
30010000
00000000
00100000
00000000
00010000
00000000
01000000
00010000
00000000
10000000
,
00020000
00000000
00130000
00001000
00010000
00000100
00000002
00000000
,
00000103
00000000
00001000
00000000
00000010
00000000
00000100
00010000
00000000
00010000
00001000
00000000
00100000
00000000
00010000
00000000
,
02000000
00000000
03010000
00200000
00000000
00301000
00010000
00000100
,
00000020
00000000
00000031
00000200
00000000
00001300
00000100
00000010
,
00010000
00001000
02000000
00000000
03001000
00010000
00000200
00000010
,
00000300
00000010
00000001
00000100
00000000
00000010
00001000
00000100
,
00010100
00000000
00001000
01000000
01001000
00000000
00010000
00100000
,
00000000
00000000
00010000
00000000
10000000
00000000
00010000
00000000
00100000
00010000
00100000
00000000
01000000
00000000
00010000
00000000
,
00001000
00000100
00000001
00000202
00000000
00000000
00000000
00000000
,
00000000
00000000
00000000
00000303
,
00001001
00000000
00000001
00000000
00000000
00000000
00001000
00000010
00000000
00000000
00001000
00000000
00000000
00000000
00000001
00000010
,
00000000
00000000
00000001
00000000
00000000
00000000
00000100
00001000
00000000
00000000
00100000
00000000
00000000
00000000
00010000
10000000
,
00020000
10000000
10030000
02000000
00000000
13000000
00100000
20000000
,
00000000
30010000
00200000
00001000
00301000
00000100
00000010
00001000
,
00000002
00000000
00000013
00000001
00002000
00000100
00003100
00010000
,
00001000
00000000
00100000
00001000
00100000
00000000
00010000
00000000
10000000
00100000
10000000
00000000
01000000
00000000
01000000
00000000
,
00220000
00000000
00000000
00330000
;

//--------------- dance-solo - ----------------
#NOTES:
     dance-solo:
     :
     Easy:
     1:
     0,0,0,0,0:
000000
000000
000000
000000
,
000000
000000
000000
000000
,
000000
000000
000000
000000
,
000000
000000
000000
000000
,
000001
000000
000000
000000
,
000010
000000
000000
000000
,
100000
000000
000000
000000
,
010000
000000
000000
000000
,
000100
000000
000000
000000
,
000100
000000
000000
000000
,
001000
000000
000000
000000
,
001000
000000
000000
000000
,
000001
000000
000000
000000
,
100000
000000
000000
000000
,
000000
000100
000000
000000
,
000100
000000
000000
000000
,
000010
000000
000010
000000
,
010000
000000
010000
000000
,
000010
000000
010000
000000
,
001000
000000
000000
000000
,
100000
000000
000000
000000
,
000000
000000
000000
000000
,
000001
000000
000000
000000
,
001000
000000
000000
000000
,
000010
000000
010000
000000
,
000010
000000
000000
000000
,
010000
000000
000010
000000
,
010000
000000
000000
000000
,
000001
000000
000001
000000
,
100000
000000
100000
000000
,
000100
000000
000000
000000
,
001000
000000
000000
000000
,
001000
000000
000010
000000
,
000100
000000
000100
000000
,
001000
000000
010000
000000
,
000100
000000
000100
000000
,
100000
000000
000001
000000
,
010000
000000
000010
000000
,
000100
000000
000000
000000
,
000000
000000
000000
000000
,
000010
000000
000000
000000
,
000010
000000
000000
000000
,
010000
000000
000000
000000
,
010000
000000
000000
000000
,
000001
000000
000000
000000
,
100000
000000
000000
000000
,
001000
000000
000000
000000
;

//--------------- dance-solo - ----------------
#NOTES:
     dance-solo:
     :
     Medium:
     3:
     0,0,0,0,0:
000000
000000
000000
000000
,
000000
000000
000000
000000
,
000000
000000
000000
000000
,
000000
000000
000000
000000
,
100000
000000
000100
001000
,
000001
000100
000010
000000
,
010000
000010
010000
000010
,
000100
000100
000100
000000
,
001000
010000
000100
000000
,
001000
000010
000100
000000
,
000000
000001
000000
000001
,
000000
100000
000000
100000
,
000100
100000
000001
000100
,
000010
010000
000000
001000
,
000000
001000
001000
000000
000000
000000
000000
000000
,
000000
100000
000001
000000
,
010000
000001
010000
000000
,
000010
100000
000010
000000
,
100000
000000
001000
000000
,
000001
000000
000010
010000
,
000100
000000
000000
010000
000000
000000
000010
000000
,
000100
000000
000000
000001
000000
000000
100000
000000
,
000100
000100
001000
000100
,
010000
010000
000001
100000
,
000010
000000
000000
010000
000000
000000
000000
000000
,
001000
100000
000010
000010
,
000100
000100
001000
010000
,
000001
000100
000010
000100
,
001000
001000
001000
010000
,
001000
000000
001000
000000
000100
000010
000100
000000
,
000010
001000
000010
000100
,
000001
010000
010000
000010
,
100000
000000
000000
001000
000000
000000
000100
000000
,
001000
010000
000010
000100
,
000001
000000
100000
000000
,
000010
000000
010000
000000
000010
010000
000010
000000
,
010000
000000
000010
000000
010000
000010
010000
000000
,
000000
000001
000000
100000
,
000100
000000
000000
001000
000000
000000
000000
000000
,
000000
000000
000000
000000
,
000000
010000
000000
000010
000000
010000
000000
000010
,
000000
100000
000000
000001
000000
100000
000000
000001
,
100000
000000
000000
001000
000000
000000
000000
000000
,
000100
000000
000000
000001
000000
000000
000000
000000
,
010000
000000
000000
000000
000001
000000
000000
100000
,
000000
000001
000001
001000
,
000001
000000
000000
000000
;

//--------------- dance-solo - ----------------
#NOTES:
     dance-solo:
     :
     Hard:
     5:
     0,0,0,0,0:
000000
000000
000000
000000
,
000000
000000
000000
000000
,
000000
000000
000000
000000
,
000000
000000
000000
000000
,
000001
000000
100000
000001
000000
010000
000010
000000
,
010000
000100
100000
001000
,
000000
100000
001000
000000
000100
000000
000001
000000
,
010000
000100
100000
000010
,
000100
000000
000001
000100
000000
001000
100000
000000
,
000010
000000
010000
000001
000000
000100
000010
000000
,
100000
001000
100000
000000
000001
001000
000001
000000
,
010000
000010
001000
000100
,
010000
000000
001000
010000
000000
000000
000100
000000
,
001000
000000
000010
000000
000100
000010
100000
001000
,
000000
010000
010000
000000
000000
000000
000000
000000
,
000001
000000
000100
000000
000010
010000
000010
000000
,
010000
000000
010000
000100
000000
000000
010000
000000
,
000010
000000
000010
000100
000000
000000
000010
000000
,
010000
000001
100000
000010
,
100000
001000
100000
001000
000100
001000
000100
000001
,
000100
000000
000010
010000
000000
000010
000010
000100
,
000001
000000
100000
001000
000000
100000
000100
001000
,
000100
001000
000001
010000
,
001000
100000
000100
100000
001000
000000
000100
000000
,
000010
000000
000100
000001
000000
001000
000001
000100
,
000010
000000
000010
010000
000000
010000
010000
000000
,
000100
000000
100000
000000
000001
000000
001000
000010
,
000000
000010
010000
000000
000100
000000
001000
000000
,
000100
100000
001000
000100
000000
000010
010000
000000
,
000001
000000
100000
001000
000000
010000
000010
010000
,
000100
000000
001000
000001
000000
100000
001000
000000
,
010000
000100
010000
000000
000010
000100
000010
100000
,
001000
000000
100000
000001
000000
000100
000001
000001
,
010000
000000
000010
100000
001000
000000
010000
000001
,
000100
000000
000010
000000
100000
000000
000100
010000
,
000000
000010
000010
000000
100000
001000
000100
000001
,
000100
000000
000010
010000
000001
000000
010000
000010
,
100000
000100
001000
000001
001000
100000
001000
000010
,
010000
000100
100000
000010
000000
000000
000000
000000
,
000000
000000
000000
000000
,
000001
000000
000100
000010
100000
000000
000100
010000
,
001000
000000
100000
000100
001000
000000
000001
000100
,
000010
000000
000100
000001
010000
001000
100000
001000
,
100000
000100
001000
000001
000000
000100
000010
010000
,
000100
000000
010000
000000
000010
000000
000100
001000
,
000000
000100
000001
001000
000100
010000
000010
001000
,
000001
000000
000000
000000
;

//--------------- pump-single - Beat Popper Chart (from pop'n music GB) ----------------
#NOTES:
     pump-single:
     Beat Popper Chart (from pop'n music GB):
     Medium:
     4:
     0,0,0,0,0:
00000
00000
00000
00000
,
00000
00000
00000
00000
,
00000
00000
00000
00000
,
10000
10000
10000
10000
10000
10000
00001
10000
,
00000
00000
00000
00000
,
00000
00000
00000
00000
,
00000
10000
01000
00100
,
00001
00010
10000
01000
,
00100
00000
00000
00000
,
00010
00000
00000
00001
00000
00000
00001
00000
,
00000
00010
00000
00010
,
10000
00000
10000
00000
10000
00000
10010
00001
,
00000
00000
00000
00000
,
00000
00000
00000
00000
00000
00000
00000
00000
00000
00100
00000
00000
00100
00000
00000
00100
,
00000
10001
10001
00000
00000
00000
00000
00000
,
00000
00000
00000
00000
00000
00000
10000
00000
00000
00000
00000
00000
10000
00000
00000
10000
,
00000
00000
00000
00000
,
00000
00000
00000
00000
,
01000
00001
00000
00001
01000
00001
00000
00001
,
00100
00001
00000
00001
00100
00001
00001
00001
,
00000
00000
00000
00100
00000
00000
00000
00000
,
00000
00000
00000
10000
00000
01000
00000
00000
,
00100
00000
00000
00010
00000
00000
00001
00000
,
00000
00000
00000
00001
00000
00000
00010
00000
,
00000
00000
00000
10000
00000
00000
00000
00000
,
00000
00000
00000
00000
,
10000
00000
00000
00000
01000
00000
00000
00100
,
00000
00000
00010
00000
00000
00001
00000
00000
,
00000
00001
00000
00101
00000
00001
00000
00001
,
00000
00001
00000
10000
00000
01000
00000
00000
,
00100
00000
00000
00010
00000
00000
00001
00000
,
00000
00000
00000
00001
00000
00000
00010
00000
,
00000
00000
00000
10001
00000
00001
00000
00001
,
00000
00001
00000
00001
00000
00001
00000
00001
,
10000
00000
00000
00000
01000
00000
00000
00100
,
00000
00000
00010
00000
00000
00101
00100
00100
,
00100
00000
00000
00000
00100
00000
00000
00100
,
00000
00010
00000
00000
,
01000
00000
00000
01000
00000
00000
01000
00000
,
00000
01000
00000
00000
01000
00000
00100
00000
,
00001
00000
00001
00010
00000
00010
00100
00000
,
00000
00000
00000
00000
,
00000
00000
00000
10001
00000
00000
00000
00000
,
00000
00001
00000
00001
,
00100
00000
00000
00000
00100
00000
00000
00100
,
00000
00000
00010
00000
00000
00001
00001
00001
,
00110
00000
00000
00000
;

//--------------- pump-single - Beat Popper Hyper Chart ----------------
#NOTES:
     pump-single:
     Beat Popper Hyper Chart:
     Hard:
     7:
     0,0,0,0,0:
00000
00000
00000
00000
,
00000
00000
00000
00000
,
00000
00000
00000
00000
,
10000
00000
00000
10000
00000
00000
10000
00000
00000
10000
00000
00000
10000
00000
00000
10000
00000
00000
00001
00000
00001
10000
00000
00000
,
00110
00000
00000
00001
00000
00000
00100
00000
00000
00000
00100
00000
00001
00000
00000
00000
,
00100
00000
00000
00001
00000
00000
00100
00000
00000
00000
00100
00000
00001
00000
00000
00000
,
00100
10000
01000
00100
,
00001
00010
10000
01000
,
00100
00000
00000
00000
,
00010
00000
00000
00001
00000
00000
00001
00000
,
10000
00010
00000
00010
,
00100
00000
00000
00000
00000
00000
01010
00000
00000
00000
00000
00000
10000
00000
00000
00000
00000
00000
01010
00000
00010
00001
00000
00000
,
00110
00000
00000
00001
00000
00000
00100
00000
00000
00000
00100
00000
00001
00000
00000
00000
,
00100
00000
00000
00000
00000
00000
00000
00000
00000
00001
00000
00000
00000
00000
00000
00000
00000
00000
00100
00000
00000
00000
00000
00000
00000
00000
00000
00000
10000
00000
01000
00000
00000
00000
10000
00000
01000
00000
00000
00000
00100
00000
00000
00000
00000
00000
00010
00000
,
00000
10001
10001
00000
00000
00000
00000
00000
,
00000
00000
00000
00000
00000
00000
00001
00000
00000
00000
00100
00000
01000
00000
00100
10000
,
00000
00000
00000
00001
00000
00000
00100
00000
00000
00000
00100
00000
00001
00000
00000
00000
,
00100
00000
00000
00001
00000
00000
00100
00000
00000
00000
00100
00000
00001
00000
00000
00000
,
10000
00001
00010
00001
10000
00001
00010
00001
,
01000
00001
00010
00001
00100
00001
00011
00001
,
10010
00000
00000
00100
00000
00000
00000
00000
,
00000
00000
00000
10000
00000
10000
01000
00100
,
00010
00000
01000
00010
00000
00100
00001
00000
,
00000
00000
00000
00000
00000
00000
00001
00000
00000
00000
00010
00000
00100
00000
00010
10000
,
00000
00000
00000
00001
00000
00000
00000
00000
,
00000
00000
00000
00000
,
10000
00000
00000
00000
01000
00000
00000
00100
,
00000
00100
00010
00000
00000
01000
00100
00010
,
01000
00001
01000
00101
01000
00001
01000
00001
,
01001
00001
01000
10001
00000
10001
01000
00101
,
00010
00000
01000
00010
00000
00100
00001
00000
,
00000
00000
00000
00000
00000
00000
00001
00000
00000
00000
00010
00000
00100
00000
00010
10000
,
00000
00000
00000
10001
00000
00001
00000
00001
,
00001
00001
00000
00001
00000
00001
00000
00001
,
10000
00000
00000
00000
01000
00000
00000
00100
,
00000
00100
00010
00000
00000
01001
01010
01100
,
10010
00000
00000
00000
00100
00000
00000
00010
,
00000
00000
00110
00000
00101
00000
01000
00000
00000
01000
00000
00000
10000
00000
10000
00000
,
01000
00100
00000
00000
00100
00000
01000
00000
00100
00000
00100
00000
01000
00100
00000
00000
,
00100
00000
01000
00100
00000
00000
00100
00000
01000
00000
00100
01000
00000
00100
00000
00100
,
01001
00000
10001
00110
00000
01010
00101
00000
,
00000
00000
00000
00000
00000
00000
00010
00000
00000
00000
00100
00000
01000
00000
00100
10000
,
00000
00000
00000
00001
00000
00000
00000
00000
00000
01100
00000
00100
00000
00000
00000
00001
00000
00000
00000
00000
00000
10000
00000
10000
,
00000
00000
00000
00001
00000
00000
01000
00000
00000
00100
00000
00100
00000
00000
00000
00001
00000
00000
01000
00000
00000
10000
00000
10000
,
01000
00000
00000
00000
00100
00000
00000
00010
,
00000
00010
00001
00000
00000
00011
00101
01001
,
00110
00000
00000
00000
;
