#TITLE:Life;
#SUBTITLE:(URA);
#ARTIST:Haya-P & Maru;
#TITLETRANSLIT:;
#SUBTITLETRANSLIT:;
#ARTISTTRANSLIT:;
#GENRE:J-Pop;
#CREDIT:;
#MUSIC:Life (URA).ogg;
#BANNER:Life (URA)-bn.png;
#BACKGROUND:Life (URA)-bg.png;
#CDTITLE:;
#SAMPLESTART:43.782;
#SAMPLELENGTH:12.000;
#SELECTABLE:YES;
#OFFSET:-0.168;
#BPMS:0.000=110.000;
#STOPS:;
#BGCHANGES:;
#FGCHANGES:;

//--------------- dance-single - 8Chasey ----------------
#NOTES:
     dance-single:
     8Chasey:
     Easy:
     3:
     0,0,0,0,0:
0000
0000
0000
0000
,
0000
0000
0000
0000
,
0000
0000
0000
0000
,
0000
0000
0000
0000
,
0001
1000
0001
0000
,
1000
0001
1000
0000
,
0000
0001
0001
0000
,
0010
0010
0010
0000
,
0100
0000
0000
0110
,
0110
0000
1001
0000
,
1001
0000
0001
0000
,
1000
0010
1000
0100
,
1000
0000
0000
0100
,
0100
0000
1000
0100
,
0000
0010
0010
0000
0000
0000
0000
0000
,
0001
0100
0001
0000
,
1000
0010
0100
0000
,
0001
0010
0100
0000
,
0000
1000
0000
0001
,
0000
1000
0001
1001
,
0010
0000
0100
0000
,
0010
0100
0001
0000
,
0010
0100
1000
0000
,
0001
1000
0001
1000
,
0010
0010
0010
0000
,
0100
0100
0100
0000
,
0001
0100
0001
1000
,
0010
1000
0000
1000
,
0001
0010
0100
1000
,
0001
0000
0000
0001
0000
0000
0001
0000
1000
0000
0000
0000
1000
0000
0000
0000
,
1000
0100
0010
0001
,
1000
0000
0000
1000
0000
0000
1000
0000
0001
0000
0000
0000
0001
0000
0000
0000
,
1001
0000
0001
0000
,
1001
0000
1000
0000
,
0010
0100
0010
0000
,
0100
0010
0100
0000
,
0001
0000
1000
0000
,
0100
0010
0100
0000
,
0010
0000
0000
0100
0000
0000
0000
0000
,
0000
0000
0000
0000
,
1000
0100
0000
0100
,
0001
0100
0000
0100
,
0000
0001
0000
0001
0000
0001
0000
0001
,
0000
1000
0000
1000
0000
1000
0000
1000
,
0010
0000
0000
0000
0100
0000
0000
0010
,
0000
0100
0000
0010
,
1001
0000
0000
0000
;

//--------------- dance-single - 8Chasey ----------------
#NOTES:
     dance-single:
     8Chasey:
     Medium:
     5:
     0,0,0,0,0:
0000
0000
0000
0000
,
0000
0000
0000
0000
,
0000
0000
0000
0000
,
0000
0000
0000
0000
,
0001
1000
0001
1000
0000
0010
1000
0000
,
0100
0000
1000
0001
0000
1000
0001
0000
,
0100
0000
0001
0000
1000
0001
1000
0000
,
0010
1000
0001
0100
,
0101
0000
0000
0000
0000
0001
0010
0100
,
1000
0000
0000
1100
0000
0000
0001
0000
,
1000
0010
1000
0000
0001
0010
0001
0000
,
1000
0000
0010
0000
0100
0001
0100
0001
,
0100
0000
0001
0010
0000
0000
0001
0000
,
1000
0010
1000
0010
0000
1000
0100
1000
,
0000
1001
1001
0000
0000
0000
1000
0000
,
0001
0000
0100
0001
0000
1000
0010
0000
,
1000
0000
0100
1000
0000
0000
0100
1000
,
0100
0000
0010
0001
0000
1000
1000
0000
,
0100
1000
0100
0000
0010
0001
0010
0000
,
0001
1000
0001
1000
0100
0010
0001
1000
,
0001
1000
0001
0100
0000
0010
0110
0000
,
1000
0001
0000
1000
0000
0100
1000
0001
,
0100
0000
0001
0010
0000
0001
1000
0000
,
0100
0000
1000
0100
0000
1000
0010
1000
,
0010
1000
0100
0010
0000
0001
0100
0001
,
0100
0000
0001
1000
0000
0010
1000
0100
,
1000
0000
1000
0000
0010
1000
0010
1000
,
0000
0001
1001
0000
0000
1000
0001
1000
,
0001
0100
0001
0000
0001
0100
0001
0000
,
1000
0000
0000
0010
0000
0000
1000
0000
0000
0010
0000
0000
1010
0000
0000
0000
,
1000
0100
1000
0000
1000
0100
1000
0000
,
0001
0000
0000
0010
0000
0000
0001
0000
0000
0000
0010
0000
0011
0000
0000
0000
,
0100
0010
0100
0001
0000
0000
0000
0000
,
0100
0010
0100
1000
0000
0000
0001
0000
,
1100
0000
0000
0000
0101
0000
0000
1000
,
0000
0001
1000
0000
0000
0010
0100
0010
,
1000
0000
0100
0010
0001
0000
1000
0001
,
0000
1000
0001
0010
0100
1000
0001
0100
,
0010
1000
0001
1001
0000
0000
0000
0000
,
0000
0000
0000
0000
,
0001
0000
1001
0000
1000
0010
1000
0000
,
0100
0000
0110
0000
0010
0001
0100
0000
,
0010
1000
0010
1000
0000
1000
0100
1000
,
0000
0100
0010
0001
0010
0001
1000
0000
,
0010
0000
1010
0000
0100
0000
0101
0001
,
0000
1000
0001
1000
0000
0100
0010
0000
,
0110
0000
0000
0000
;

//--------------- dance-single - 8Chasey ----------------
#NOTES:
     dance-single:
     8Chasey:
     Hard:
     8:
     0,0,0,0,0:
0000
0000
0000
0000
,
0000
0000
0000
0000
,
0000
0000
0000
0000
,
0000
0000
0000
0000
,
1001
0001
1000
0001
0000
0010
0001
0000
,
1000
0010
1000
0100
0000
1000
0001
1000
,
0010
0000
1010
0000
0011
0000
0100
0010
,
0100
0101
1100
0110
,
1001
1000
0010
1000
0000
0001
0100
0010
,
0110
0000
0100
0110
0000
0010
1000
0001
,
0100
0001
0010
0000
0100
1000
0010
0000
,
1000
0000
0010
0000
0100
0001
0100
0000
0001
0000
1000
0000
0100
1000
0100
0000
,
0010
0001
0100
0001
0000
0001
1000
0000
,
0100
0000
1000
0000
0010
0000
1000
0000
0000
0010
1000
0010
1000
0001
0000
1000
,
0000
1001
1001
0000
0001
0010
0001
0000
,
0100
0001
1000
0010
0000
1000
1001
0000
,
0001
0100
0001
1000
0000
0010
1000
0100
,
1000
1000
0001
0100
0000
0010
0110
0000
,
0100
0001
0010
0001
1000
0010
0100
0000
,
0010
1000
0001
0010
0100
1000
0010
0010
,
0110
0000
1000
1001
0000
1000
0001
0010
,
0001
0000
0001
0100
0000
0001
1000
0010
,
1000
0100
1000
0001
0010
0001
1001
0000
,
0100
0000
0001
0000
1000
0000
0010
0000
0000
1000
0010
0000
1000
0000
1100
0000
,
0010
0001
0100
0101
0000
0100
0001
1000
,
0010
0010
1000
0010
0000
0100
0001
1000
,
0100
1000
0010
1000
0001
0001
0100
0101
,
0000
1000
1100
0010
0000
0100
0010
0100
,
1000
0010
1000
1001
0000
0010
0001
0010
,
0001
0000
0000
0001
0000
0000
0001
0000
1000
0000
0100
0000
0110
0000
0000
0000
,
0010
0001
0010
0100
1000
0001
0100
0001
,
1000
0000
0000
1000
0000
0000
1000
0000
0001
0000
1000
0000
1001
0000
0000
0000
,
0010
0000
0001
0010
0000
0000
0011
0000
0000
0000
0010
0000
0100
0000
1000
0000
,
0010
0000
1000
0010
0000
0000
1010
0000
0000
0000
0100
0000
0010
0000
0100
0000
,
0001
0010
0010
0001
1000
0100
1000
0010
,
0000
0100
0110
0010
0000
0100
0101
0101
,
1100
1000
0010
1000
0001
0100
0001
0001
,
0000
0000
0010
0001
0010
0000
0001
0000
1000
0000
0100
0000
0010
0000
0100
0000
,
0010
0001
0000
1000
0000
0000
1001
0000
0000
0000
0000
0000
0000
0000
0000
0000
,
0000
0000
0000
0000
,
0101
1000
0010
1010
0100
0010
0110
0000
,
0100
0001
0100
0010
1000
0010
0010
1000
,
0100
1000
0001
0101
0000
0100
0010
0000
,
1000
0001
1000
1100
0000
0010
0110
0000
,
0010
0001
0010
0010
0100
1000
0001
0100
,
0000
0001
1000
0100
0000
0010
0100
0010
,
1001
0000
0000
0000
;
