#TITLE:Life (Best Hits! REMIX);
#SUBTITLE:;
#ARTIST:Haya-P & Maru;
#TITLETRANSLIT:;
#SUBTITLETRANSLIT:;
#ARTISTTRANSLIT:;
#GENRE:J-Pop;
#CREDIT:;
#MUSIC:Life (Best Hits! REMIX).ogg;
#BANNER:;
#BACKGROUND:;
#CDTITLE:;
#SAMPLESTART:51.235;
#SAMPLELENGTH:12.000;
#SELECTABLE:YES;
#OFFSET:-0.229;
#BPMS:0.000=113.000
,30.000=111.000
,32.000=113.000
,94.000=112.000
,95.000=111.000
,96.000=113.000
,160.000=112.000
,166.000=110.000
,166.500=107.000
,167.000=104.000
,167.500=100.000
,168.000=96.000
;
#STOPS:;
#BGCHANGES:;
#FGCHANGES:;

//--------------- dance-single - 8Chasey (Description - CHALLENGE-ONLY CONCEPT) ----------------
#NOTES:
     dance-single:
     8Chasey (Description - CHALLENGE-ONLY CONCEPT):
     Challenge:
     7:
     0,0,0,0,0:
0000
0000
0000
0000
,
0000
0000
0000
0000
,
0001
0000
0000
0000
1000
0000
0001
0000
0100
0000
0000
0100
0000
0000
0000
0000
,
0010
1000
0001
0010
0001
1000
0100
1000
,
0010
0000
0000
0000
1000
0000
0010
0000
0100
0000
0000
0100
0000
0000
0000
0000
,
0001
0010
0100
0001
0100
1000
0010
0100
,
0010
0000
0000
0010
0000
0000
0010
0000
0000
1000
0000
0000
0001
0000
0100
0000
,
0000
0000
0001
0000
1000
0000
0000
1000
0000
0000
0000
0000
0000
0000
0000
0000
,
0200
0000
0000
0000
0000
0000
0000
0000
1300
0000
0000
0001
0000
0000
0020
0000
,
0000
0000
0031
1000
0000
0100
1000
0010
,
0100
0000
0001
0000
1000
0010
0000
0000
1000
0000
0001
0010
0000
0000
0100
0000
,
0010
0000
0000
0001
0000
0000
1000
0000
0000
0000
0010
0000
1000
0000
0001
0000
,
0100
0001
0010
0002
0000
0103
0010
1000
,
0200
0000
0000
1300
0000
0000
0001
0000
1000
0000
0020
0000
0000
0000
0030
0000
,
1000
0000
0000
0100
1000
0000
0001
0000
0000
0010
0000
0001
1000
0000
0010
0000
,
1000
0000
0001
0000
0100
0001
0000
0000
0010
0000
1000
0000
0001
1000
0001
0000
,
0200
0000
0000
0001
0000
0000
0301
0000
1000
0000
0100
1000
0000
0001
1000
0000
,
0010
0100
0001
0020
0000
0031
1000
0100
,
1000
0000
0010
0000
0100
0001
1000
0010
,
0200
0000
0301
0020
0000
0100
0130
1000
,
0010
1000
0001
0010
0000
0001
0001
1000
,
0100
0000
1000
0000
0010
0000
0100
0000
0001
0000
0001
1000
0000
0001
0000
2000
,
0000
0000
0000
0000
3100
0000
1000
0000
0010
1000
0010
0000
0100
0000
0001
0000
,
0010
0000
0001
0000
1000
0001
0000
0000
0100
0000
0000
0000
1001
0000
0000
0000
,
1000
0010
0000
1000
0010
0000
1000
0000
0001
0000
0010
0000
0001
0000
0100
0000
,
0001
0000
0000
1000
0000
0000
0020
0000
0100
0000
0000
0000
1030
0000
0000
0000
,
0002
0000
1003
0100
1000
0010
0100
0000
,
0001
0010
0010
0001
1000
0002
1000
1003
,
0200
0000
0010
0010
2300
0001
0000
3001
,
0020
0100
0100
0100
0032
0000
0000
0003
,
0100
0001
1000
0200
0000
0000
0310
0000
,
0001
0000
1000
0000
0100
0000
0010
0000
0001
0000
0001
0000
1000
0001
0000
0000
,
2002
0000
0000
0000
0000
0000
3003
0000
0000
0000
1100
0000
0000
0011
0000
0000
,
0220
0000
0000
0000
0330
0000
0000
0000
1000
0000
0001
0000
0000
1001
0000
0000
,
2000
0000
3001
1000
0200
0000
0320
0000
,
0031
0000
1000
0000
0010
0000
0010
1000
0000
0001
0010
0000
0100
0000
0010
0000
,
0002
0000
0010
0010
2003
0100
0000
3100
,
0020
0001
0001
0100
0230
0000
0000
0300
,
1000
0010
0001
0020
0000
0100
0100
0130
,
0001
0000
0000
0002
0000
0010
0000
0000
1003
0000
0000
2000
0000
0100
0000
0000
,
3020
0000
2030
0000
,
3002
0000
0000
0000
1003
0001
0010
0000
,
0200
0000
0000
0000
,
0300
0000
0000
0000
;

//--------------- dance-double - 8Chasey (Description - CHALLENGE-ONLY CONCEPT) ----------------
#NOTES:
     dance-double:
     8Chasey (Description - CHALLENGE-ONLY CONCEPT):
     Challenge:
     7:
     0,0,0,0,0:
00000000
00000000
00000000
00000000
,
00000000
00000000
00000000
00000000
,
00000001
00000000
00000000
00000000
00000010
00000000
00000100
00000000
00000010
00000000
00000000
00000010
00000000
00000000
00000000
00000000
,
00000100
00010000
00001000
00100000
00010000
01000000
10000000
01000000
,
00100000
00000000
00000000
00000000
10000000
00000000
00010000
00000000
00100000
00000000
00000000
00100000
00000000
00000000
00000000
00000000
,
01000000
00010000
00001000
00010000
00000100
00000010
00000001
00001000
,
00000010
00000000
00000000
00000010
00000000
00000000
00001001
00000000
00000000
00000001
00000000
00000000
00000010
00000000
00000100
00000000
,
00000000
00000000
00010000
00000000
00001000
00000000
00000000
00022000
00000000
00000000
00000000
00000000
00033000
00000000
00000000
00000000
,
00000200
00000000
00000000
00000000
00000000
00000000
00000000
00000000
00000310
00000000
00000000
00000100
00000000
00000000
00020000
00000000
,
00000000
00000000
00031000
00010000
00000000
00100000
01000000
00010000
,
00100000
00000000
01000000
00000000
00100000
00010000
00000000
00000000
01000000
00000000
00100000
10000000
00000000
00000000
01000000
00000000
,
00100000
00000000
00000000
01000000
00000000
00000000
00100000
00000000
00010000
00000000
10000000
00000000
01000000
00000000
00000000
00000000
,
00010000
00001000
00010000
00002000
00000000
00003100
00000010
00002000
,
00000001
00000000
00000000
00003001
00000000
00000000
00000010
00000000
00000001
00000000
00001000
00000000
00000000
00000000
00000000
00000000
,
00000020
00000000
00000000
00000000
00001000
00000000
00001030
00000000
00000000
00000001
00000000
00000000
00001000
00000000
00000100
00000000
,
00001000
00000000
00000010
00000000
00000100
00001000
00000000
00000000
00010000
00000000
00001000
00000000
00110000
00000000
00000000
00000000
,
21000000
00000000
00000000
00100000
00000000
00000000
30100000
00000000
10000000
00000000
01000000
10000000
00000000
00000000
00010000
00000000
,
00100000
00001000
00010000
00000100
00000000
00000010
00001001
00000000
,
00000001
00000000
00000010
00000000
00000001
00001000
00000000
00000000
00000010
00000000
00001000
00000001
00000000
00000000
00000010
00000000
,
00000100
00000000
00000000
00010000
00001000
00000000
00020000
00000000
00000000
00000000
01030000
00000000
00100000
00000000
00010000
00000000
,
10000000
00100000
01000000
00010000
00200000
00010000
00310000
01000000
,
00100000
00000000
00010000
00000000
00001000
00000000
00010000
00000000
00000100
00000000
00001000
00000001
00000000
00001000
00000000
00001001
,
00000000
00000000
00000010
00000000
00001000
00000000
00000001
00000000
00001000
00000000
00000000
00000100
00001000
00000000
00000001
00000000
,
00000100
00000010
00000100
00001000
00010000
00000000
00011000
00000000
,
00000100
00000000
00000010
00000000
00000001
00000000
00000100
00000000
00000010
00000000
00001000
00000000
00000100
00001000
00000100
00000000
,
00010000
00000000
00000000
00001000
00000000
00000000
00100000
00000000
01010000
00000000
00000000
00000000
10100000
00000000
00000000
00000000
,
00100000
00010000
01000000
10000000
01000000
00010000
00100000
00001000
,
00000000
00010000
00000100
00010000
00000000
00001000
01000000
10000000
,
02100000
03010000
21000000
30010000
,
01200000
10300000
00120000
10030000
,
01000000
00100000
00010000
01000000
00000000
00001000
00010000
00000000
,
00000100
00000000
00000000
00000000
00000010
00000000
00000000
00000000
00000001
00000000
00001000
00000000
00000100
00010000
00000000
00000000
,
00022000
00000000
00000000
00000000
00000000
00000000
00033000
00000000
00000000
00000000
01001000
00000000
00000000
00010100
00000000
00000000
,
00000220
00000000
00000000
00000000
00000330
00000000
00000000
00000000
00001000
00000000
00010000
00000000
00000000
00001000
00010000
00000000
,
00100000
10000000
00010000
00100000
01000000
10000000
00020000
00000000
,
00130000
00000000
00010000
00000000
01000000
00000000
00001000
00010000
00000000
00010000
00000100
00000000
00001000
00000000
00000010
00000000
,
00000210
00000301
00002100
00003001
,
00000120
00001030
00000012
00001003
,
00002002
00000000
00003003
00000000
00000200
00000302
00002003
00003020
,
00000130
00000000
00000000
00001000
00000000
00020000
00000000
00000000
01030000
00000000
00000000
00010000
00000000
00002000
00000000
00000000
,
00003100
00000000
00000001
00000001
00002000
00000000
00000010
00000000
,
00003100
00010000
00010000
00001000
00100000
00010000
10000000
00000000
,
02000000
00000000
00000000
00000000
,
03000000
00000000
00000000
00000000
;
