#TITLE:Let's me Let's go;
#SUBTITLE:;
#ARTIST:Ma-You;
#TITLETRANSLIT:;
#SUBTITLETRANSLIT:;
#ARTISTTRANSLIT:;
#GENRE:J-dance;
#CREDIT:;
#MUSIC:Let's me Let's go.ogg;
#BANNER:Let's me Let's go.png;
#BACKGROUND:Let's me Let's go-bg.png;
#CDTITLE:;
#SAMPLESTART:19.540;
#SAMPLELENGTH:12.000;
#SELECTABLE:YES;
#OFFSET:-0.630;
#BPMS:0.000=111.020;
#STOPS:;
#BGCHANGES:;
#FGCHANGES:;

//--------------- dance-single - 8Chasey ----------------
#NOTES:
     dance-single:
     8Chasey:
     Beginner:
     1:
     0,0,0,0,0:
0000
0000
0000
0000
,
0000
0000
0000
0000
,
0000
0000
0000
0000
,
0000
0000
0000
0000
,
1001
0000
0001
0000
,
1000
0000
0001
0000
,
1000
0000
0000
0000
,
0100
0000
0100
0000
,
0010
0010
0010
0000
,
0110
0000
0000
0000
,
0001
0000
0000
0010
,
0010
0000
1000
0000
,
0000
0100
0000
0000
,
0110
0000
0000
0000
,
0001
0000
1000
0000
,
1001
0000
0000
0000
,
0001
0000
1000
0000
,
0010
0000
0100
0000
,
1001
0000
0000
0000
,
0000
0000
0000
0000
,
0100
0000
0100
0100
,
0100
0000
0010
0000
,
1000
1000
1000
0000
,
0001
0000
1000
0000
,
0001
0000
0010
0000
,
0100
0100
0000
0000
,
0001
0000
1001
0000
,
1000
0000
1001
0000
,
0100
0000
0110
0000
,
1001
0000
1001
0000
,
0001
0000
1000
0000
,
0010
0000
0001
0000
,
1000
0000
0100
0100
,
0000
0110
0000
0000
,
0001
0000
1000
0000
,
0100
0000
0010
0000
,
1001
0000
0000
0000
,
1000
0000
0001
0000
,
0010
0000
0100
0000
,
1001
0000
0110
0000
,
0100
0100
0100
0100
;

//--------------- dance-single - 8Chasey ----------------
#NOTES:
     dance-single:
     8Chasey:
     Easy:
     3:
     0,0,0,0,0:
0000
0000
0000
0000
,
0000
0000
0000
0000
,
0000
0000
0000
0000
,
0000
0000
0000
0000
,
0100
0001
0000
1000
,
0010
0100
0000
0010
,
1000
0001
0000
1000
,
0001
0010
0100
0010
,
0000
0100
0100
0000
0100
0100
0000
0000
,
2002
3003
0001
1000
,
0002
1003
2000
3001
,
0100
0010
0100
0010
,
0002
0013
2000
3010
,
1000
0100
0010
0000
,
0001
0100
0010
0000
,
1000
0001
0110
0000
,
0001
0001
1000
1000
,
0010
0010
0100
0100
,
2002
0000
0000
3003
,
2000
0000
3010
0100
,
0002
0000
0013
0100
,
0200
0000
0020
0330
,
0001
0010
0001
1000
,
1000
0100
1000
0010
,
0100
0001
0100
1000
,
0220
0000
0330
0100
,
0002
0000
0200
0303
,
2000
0000
0020
3030
,
0002
0000
0000
2000
0000
0000
3003
0000
,
0100
0000
0000
0000
0000
0000
0000
0010
0000
0000
0010
0000
0000
0000
0000
0000
,
0001
1000
1001
1001
,
0100
0020
0000
0031
,
1000
0100
1000
0001
,
0100
0010
0000
1001
,
1000
1000
0001
0001
,
1000
0010
0001
0010
,
0100
0010
1001
0000
,
1000
1000
0001
0001
,
0010
0010
0100
0100
,
0002
0000
2003
0000
,
3000
0010
0010
0000
0010
0010
0000
1001
;

//--------------- dance-single - 8Chasey ----------------
#NOTES:
     dance-single:
     8Chasey:
     Medium:
     5:
     0,0,0,0,0:
0000
0000
0000
0000
,
0000
0000
0000
0000
,
0000
0000
0000
0000
,
0000
0000
0000
0000
,
0020
0000
1030
0000
0001
0010
0001
0000
,
0200
0310
1000
0010
,
2002
3003
0001
1000
,
0100
0000
1000
0001
0000
0100
0010
0000
,
0000
0001
0001
0000
1000
1000
0000
0000
,
0011
0000
1010
0000
0001
1000
0001
0000
,
1000
0000
0200
0000
1300
0001
0100
0000
,
0001
0010
0001
0000
0010
0100
1000
0000
,
0020
0000
2030
0000
0000
0001
3001
0000
,
0101
0000
1100
0000
1000
0001
1000
0000
,
0010
1000
0001
0010
,
0100
0000
1000
0000
0001
0000
0000
0100
0000
0000
0100
0000
0000
0000
0000
0000
,
0001
0010
0002
0000
1003
0010
2000
0000
,
3001
0100
0002
0000
1003
0100
2000
0000
,
3020
0100
0000
0130
,
0001
0010
0001
0000
1000
0100
0010
0000
,
0100
0000
0110
0000
0010
0000
0001
1000
,
0020
0000
1030
0001
0200
0300
1001
0000
,
0002
2003
3200
0300
,
1000
0010
1000
0000
0010
0100
0001
0000
,
0010
0000
0101
0000
0001
1000
0100
0000
,
1000
0001
0020
0000
0001
0000
0031
0000
,
0102
1000
0000
1003
,
2010
0001
0000
3001
,
0110
0000
0000
2002
0000
0000
3003
0000
,
2002
0000
0000
0000
3003
0000
0000
0100
0000
0000
0200
0000
0000
0000
0000
0000
,
0301
0010
0001
1000
0100
1000
0010
0000
,
1001
0000
2000
0000
3001
0100
0001
0000
,
0010
0001
1000
0010
0200
0000
0320
0000
,
1030
0000
2100
0000
0000
3001
1000
0001
,
0010
0001
0010
0000
0001
1000
0001
0100
,
0010
0000
1001
0000
0100
0001
0010
0000
,
0100
0000
1000
0000
0001
0000
0000
0200
0000
0000
0020
0000
0000
0000
0330
0000
,
1000
0010
2000
0000
3001
0100
0002
0000
,
1003
0100
2000
0000
3001
0010
0002
0000
,
1003
0001
2000
0000
3001
1000
0002
0000
,
0003
0010
0100
0000
1000
0001
0000
1001
;

//--------------- dance-single - 8Chasey ----------------
#NOTES:
     dance-single:
     8Chasey:
     Hard:
     8:
     0,0,0,0,0:
0000
0000
0000
0000
,
0000
0000
0000
0000
,
0000
0000
0000
0000
,
0000
0000
0000
0000
,
1001
0001
1000
0000
0010
1000
0010
0000
,
0100
0001
1000
0000
0010
1000
0001
1000
,
1100
0000
0101
0000
0010
0001
1000
0010
,
0100
0000
0010
0000
0100
0000
0000
0000
0001
1000
0000
0000
0001
0000
0010
0000
,
0000
1010
2020
3030
0011
0022
0033
0000
,
1001
0000
0001
0000
0010
0000
0001
0020
0000
0000
0130
0000
0010
0000
0000
0100
,
0010
0000
0001
0000
1000
0000
0010
2000
0000
0000
3001
0000
0100
0000
0000
0000
,
0001
0000
1000
0000
0100
0000
1000
0002
0000
0000
0013
0000
0001
0000
0100
0000
,
0010
2000
0100
0000
3001
0020
0130
0010
,
0110
0000
0000
0000
1000
0000
0001
0200
0000
0000
0310
0000
1000
0000
0001
0010
,
0001
0000
1000
0000
1001
0000
1000
0010
0000
0000
0100
0000
0010
0000
1000
0000
,
0110
0000
0100
0000
1000
0000
0001
0010
0000
0000
1001
0000
0000
0000
0000
0000
,
0000
1000
0010
1000
0001
1000
0010
1000
0000
0001
0010
0001
1000
0001
0010
0001
,
0000
1000
0100
1000
0001
1000
0100
1000
0000
0001
0100
0001
1000
0001
0100
0001
,
0000
0000
0020
0000
0031
1000
0100
0000
,
0210
0000
0000
0000
1300
0000
0000
0001
1000
0000
0001
0000
0010
0000
0001
0000
,
2000
0000
0001
0000
3001
0010
0001
0100
,
0002
0000
1000
0000
0013
0100
0110
0000
,
2100
0000
0000
0000
3002
0000
0000
0000
0103
0000
0000
0010
1000
0000
0001
0000
,
0010
0000
0001
0000
0100
0000
0000
0100
0001
0000
1000
0000
0200
0000
0000
0000
,
0310
0000
0100
0000
1000
0000
0010
0000
0100
0001
0000
0100
0001
0000
0010
0000
,
0002
0000
1003
0000
0001
0000
1000
0100
0000
1000
0010
0000
0100
0000
0001
0000
,
1002
0010
0100
0013
,
2001
0100
0010
3100
,
1010
0001
0010
0022
0000
0000
0033
0000
,
0011
0000
1000
0000
0010
0000
0000
1010
0000
0000
2002
0000
0000
0000
3003
0000
,
0100
0000
0001
0000
0010
0000
0010
0002
0000
0000
1003
0000
0100
0000
1000
0001
,
1000
0000
0010
0000
2000
0000
0000
3001
0100
0000
0001
0000
0010
0000
0000
0000
,
0001
1000
0001
0000
1000
0000
0100
2000
0000
0000
3010
0000
1000
0000
0100
0000
,
0020
0000
0000
0000
0130
0000
0010
0001
0000
0000
1000
0000
1001
0000
1000
0000
,
0110
0000
0100
0000
0001
0000
0010
0002
0000
0000
1003
0000
0100
1000
0010
0000
,
2000
0000
0000
0000
3001
0010
0001
0010
0000
0100
1000
0000
0001
0000
1000
0000
,
1010
0000
0010
1000
0100
0000
0010
0001
0000
0000
0022
0000
0000
0000
0033
0000
,
0000
0001
0100
0001
1000
0001
0100
0001
0000
1000
0100
1000
0001
1000
0100
1000
,
0000
0001
0010
0001
1000
0001
0010
0001
0000
1000
0010
1000
0001
1000
0010
1000
,
0000
0001
1000
0001
1000
0001
1000
0001
0000
0010
0100
0010
0100
0010
0100
0010
,
0000
0011
1100
0000
1010
0101
0000
1001
;

//--------------- dance-double - 8Chasey - 2025 chart ----------------
#NOTES:
     dance-double:
     8Chasey - 2025 chart:
     Easy:
     4:
     0,0,0,0,0:
00000000
00000000
00000000
00000000
,
00000000
00000000
00000000
00000000
,
00000000
00000000
00000000
00000000
,
00000000
00000000
00000000
00000000
,
00001000
00010000
00000000
00000100
,
00001000
00000001
00000100
00000010
,
00001000
00000100
00000000
00010000
,
00001000
00100000
01000000
10000000
,
00000000
00010000
00000000
00000000
10000000
00000000
00000000
00000000
,
01100000
01000000
00001000
00010000
,
00000100
00000010
00000100
00000100
,
00001000
00000010
00000001
00000010
,
00001000
00100000
00100000
00010000
,
10000000
01000000
00010000
00001000
,
00000100
00000010
00000100
00000001
,
00001000
00000001
00001001
00000000
,
00000100
00000100
00010000
00010000
,
00001000
00001000
00100000
00100000
,
01000000
00000000
00010000
00000000
00000000
00001000
00010000
00000000
,
00000100
00000010
00000010
00000001
,
00000100
00000000
00001000
00000000
00000000
00010000
00001000
00000000
,
01000000
00100000
00100000
10000000
,
01000000
10000000
00100000
00100000
,
01000000
00010000
00100000
00100000
,
00001000
00010000
00000100
00000100
,
00010000
00001000
01000000
00010000
,
00100000
00000000
01000000
00000000
00000000
01000000
10000000
00000000
,
01000000
00010000
00001000
00000100
,
00000010
00000000
00000000
00000110
00000000
00000000
00000100
00000000
,
00000001
00000000
00000000
00000000
00000000
00000000
00000000
00001000
00000000
00000000
00001000
00000000
00000000
00000000
00000000
00000000
,
00000110
00000010
00000100
00010000
,
00001000
00100000
00001000
00001000
,
01000000
00010000
10000000
00100000
,
10000000
01000000
00100000
00000000
,
01100000
01000000
10000000
00010000
,
01000000
00001000
00010000
00010000
,
00000100
00000010
00000110
00000000
,
00000010
00000001
00000100
00000000
,
00000010
00001000
00000100
00000000
,
00010000
00010000
00001000
00001000
,
00000000
00010000
00000000
00000000
00001000
00000000
00000000
00011000
;

//--------------- dance-double - 8Chasey - 2025 chart ----------------
#NOTES:
     dance-double:
     8Chasey - 2025 chart:
     Medium:
     5:
     0,0,0,0,0:
00000000
00000000
00000000
00000000
,
00000000
00000000
00000000
00000000
,
00000000
00000000
00000000
00000000
,
00000000
00000000
00000000
00000000
,
00001000
00000000
00010000
00000000
00000000
00000100
00010000
00001000
,
00010000
00000000
00001000
00000000
00000000
01000000
00100000
01000000
,
00010000
00000000
00100000
00000000
00000000
01000000
10000000
00100000
,
10000000
00000000
01000000
00010000
00000000
00001000
00010000
00000000
,
00000000
00000100
00000100
00000000
00000010
00000010
00000100
00000000
,
00001001
00000000
00011000
00000000
00010000
00000100
00000010
00000000
,
00000100
00000000
00010000
00000000
00001000
00100000
01000000
00000000
,
10000000
00000000
00100000
00000000
10000000
00010000
01000000
00000000
,
00001000
00000000
00011000
00000000
00010000
00000100
00000100
00000000
,
00001000
00000000
00000010
00000000
00000100
00000001
00000010
00000000
,
00000001
00000000
00001000
00000000
00000100
00010000
00001000
00000000
,
00100000
00000000
00000000
00000000
01000000
00000000
00000000
00100000
00000000
00000000
00100000
00000000
00000000
00000000
00000000
00000000
,
00001000
00100000
00001000
00000000
00010000
00000010
00010000
00000000
,
00001000
01000000
00001000
00000000
00010000
00000100
00010000
00000000
,
00011000
00000000
00001000
00000000
00100000
00010000
00100000
00000000
,
01000000
10000000
00010000
01000000
,
01100000
00000000
00100000
00000000
10000000
01000000
00100000
00000000
,
00010000
00000000
10000000
00100000
01000000
00000000
01100000
00000000
,
01010000
00000000
00010000
00000000
00100000
00001000
00010000
00000000
,
00000100
00000000
00001000
00000000
00000001
00001000
00000001
00000000
,
00000010
00000010
00000100
00000100
,
00010000
00010000
00001000
00000000
00000000
00001000
00100000
00000000
,
00010000
01000000
00010000
00000000
10000000
00000000
00100000
00000000
,
10000000
00000000
01000000
00010000
00001000
00000000
00010000
00000000
,
00000100
00010000
00000100
00010000
00000000
00001000
00010000
00000000
,
00001000
00000000
00100000
00000000
00010000
00000000
00000000
10000000
00000000
00000000
00010000
00000000
00000000
00000000
00010000
00000000
,
10000000
00100000
00100000
00000000
10000000
00000000
01000000
00000000
,
10000000
00100000
01000000
00000000
00001000
00000000
00010000
00000000
,
00000100
00001000
00000100
00000000
00001000
00000000
00000010
00000100
,
00000001
00000101
00001000
00001100
,
00000100
00010000
00001000
00000000
00100000
00010000
00100000
00000000
,
00010000
01000000
00100000
10000000
,
01000000
00000000
00010000
00000000
00001000
00000000
00000000
00010000
00000000
00000000
00001000
00000000
00000000
00000000
00000000
00000000
,
00010000
00000010
00010000
00000000
00001000
00100000
00001000
00000000
,
00010000
00000100
00010000
00000000
00001000
01000000
00001000
00000000
,
00100000
00010000
10000000
00000000
00100000
10000000
00010000
01000000
,
00000000
00100000
00100000
00000000
01000000
01000000
00000000
10010000
;

//--------------- dance-double - 8Chasey - 2025 chart ----------------
#NOTES:
     dance-double:
     8Chasey - 2025 chart:
     Hard:
     9:
     0,0,0,0,0:
00000000
00000000
00000000
00000000
,
00000000
00000000
00000000
00000000
,
00000000
00000000
00000000
00000000
,
00000000
00000000
00000000
00000000
,
00100000
00001000
00100000
00000000
00001000
00000000
00010000
00000000
00000100
00000000
00000100
00000000
00001000
00000000
00000010
00000000
,
00001000
00000000
00000001
00000010
00000000
00000001
00000010
00000000
00000100
00000010
00000100
00000000
00000010
00000000
00000110
00000000
,
00001001
00000000
00001000
00000000
00000100
00000000
00010000
00000000
00001000
00000000
00100000
00000000
00010000
00100000
00010000
00000000
,
10000000
00010000
10000000
00000000
00100000
00000000
10000000
00000000
01000000
00100000
00010000
00000000
01000000
00000000
00200000
00000000
,
00000000
10300000
20100000
00000000
30010000
00120000
01000000
01030000
,
01100000
00000000
00100000
00000000
10000000
00000000
01000000
10000000
00000000
00000000
01000000
00000000
00010000
00000000
00001000
00000000
,
00010000
00000100
00010000
00000000
00000100
00000000
00001000
00000010
00000000
00000010
00001000
00000000
00000001
00000100
00000001
00000000
,
00000100
00000000
00000010
00001000
00000010
00001000
00000100
00002000
00000000
00000000
00003001
00000000
00000010
00000000
00000100
00000000
,
00010000
00000000
00001000
00000000
00012000
00000000
00000000
00100000
00000000
00000000
00103000
00000000
00001000
00000000
01000000
00000000
,
00100000
00000000
01000000
00010000
01000000
00010000
00100000
00020000
00000000
00000000
00000000
00000000
10030000
00000000
01000000
10000000
,
01000000
00010000
00001000
00010000
00000100
00000100
00001000
00000010
,
00000100
00000001
00000100
00000000
00000010
00000000
00001000
00000100
00000000
00000000
00022000
00000000
00000000
00000000
00033000
00000000
,
00000000
00100000
00001000
00010000
00001000
00100000
00001000
00010000
00000000
00000010
00010000
00001000
00010000
00000010
00010000
00001000
,
00000000
01000000
00001000
00010000
00001000
01000000
00001000
00010000
00000000
00000100
00010000
00001000
00010000
00000100
00010000
00001000
,
00200000
00000000
01000000
00000000
00010000
00010000
00310000
01000000
,
00100000
10000000
00100000
00000000
02000000
00000000
00000000
00000000
00010000
00000000
00100000
00000000
03010000
00000000
00000000
00000000
,
20000000
00000000
00000000
00000000
31000000
00000000
00010000
00000000
00001000
00000000
00010000
00000100
00010000
00000000
00000100
00000000
,
00001000
00000001
00000000
00000000
00000010
00000000
00000001
00001000
00000000
00000001
00000100
00000000
00000220
00000000
00000330
00000000
,
00001001
00000000
00000001
00000000
00000020
00000000
00000000
00000000
00000130
00010000
00000000
00000100
00010000
00000000
00001000
00000000
,
00100000
00000000
00010000
00000000
00010000
00000000
01000000
00000000
00100000
01000000
00100000
00000000
10000000
00000000
01000000
00000000
,
10000000
00000000
01000000
00000000
00010000
00000000
00001000
00000000
00100000
00000000
00010000
00000000
01000000
00000000
01000000
00010000
,
01000000
02000000
00100000
00000000
03001000
00010000
00001200
00000310
,
00000002
00000000
00000100
00000000
00001000
00000000
00000013
00000100
,
00010000
00000000
00000000
00001000
00000000
00000000
00100000
00000000
00010000
00000000
00100000
00000000
01000000
00000000
00000000
10000000
00000000
00000000
00010000
00000000
00000000
00000000
00000000
00000000
,
01010000
00010000
00100000
21000000
00010000
00000000
31000000
00100000
,
00110000
00000000
00100000
00000000
00001000
00000000
00000000
00011000
00000000
00000000
00002200
00003300
00000000
00000000
00000202
00000303
,
00001001
00000000
00001000
00000010
00001000
00000100
00010000
00002000
00000000
00000000
00100000
00000000
01003000
00000000
00010000
10000000
,
00000000
00100000
10000000
00000000
01000000
10000000
01000000
00100000
00000000
01000000
00100000
00000000
00001000
00000000
00010000
00000000
,
00000100
00000000
00001000
00000010
00001000
00000001
00000100
00000002
00000000
00000000
00000010
00000000
00000013
00000000
00000100
00001000
,
00000000
00000010
00000100
00000000
00000210
00000000
00000000
00000001
00000000
00000000
00001300
00000000
00010000
00000000
00001000
00000000
,
00011000
00000000
00100000
00010000
00100000
01000000
10000000
00020000
00000000
00000000
01000000
00000000
10030000
00000000
00100000
10000000
,
01000000
00000000
00100000
00000000
00001000
00010000
00001000
00000000
00000100
00000000
00000010
00000100
00000000
00000001
00000010
00000000
,
00001000
00000000
00000010
00000001
00000100
00000000
00000010
00001000
00000000
00000000
00012000
00000000
00100000
00000000
00103000
00000000
,
00010000
00100000
00010000
00000000
10000000
00100000
10000000
01000000
10000000
00100000
10000000
00000000
00010000
00000000
01000000
00000000
,
00000000
00001000
00100000
00001000
01000000
00001000
00100000
00001000
00000000
00010000
00000010
00010000
00000100
00010000
00000010
00010000
,
00000000
00001000
01000000
00001000
00100000
00001000
01000000
00001000
00000000
00010000
00000100
00010000
00000010
00010000
00000100
00010000
,
00000000
00021000
00000200
00030300
00012000
02000000
03003000
01100000
;
