#TITLE:LET'S SEE WHAT HAPPENS;
#SUBTITLE:;
#ARTIST:DANTDM;
#TITLETRANSLIT:;
#SUBTITLETRANSLIT:;
#ARTISTTRANSLIT:;
#GENRE:;
#CREDIT:;
#MUSIC:LET'S SEE WHAT HAPPENS.mp3;
#BANNER:;
#BACKGROUND:;
#CDTITLE:;
#SAMPLESTART:0.000;
#SAMPLELENGTH:0.000;
#SELECTABLE:YES;
#OFFSET:-4.300;
#BPMS:0.000=122.000;
#STOPS:;
#BGCHANGES:;
#FGCHANGES:;

//--------------- dance-single - ----------------
#NOTES:
     dance-single:
     :
     Beginner:
     1:
     0,0,0,0,0:
0000
0000
0000
0000
,
0000
0000
0000
0000
,
0000
0000
0000
0000
,
0000
0000
0000
0000
,
1001
0000
0001
0000
,
0000
1000
0000
0000
,
1001
0000
1000
0000
,
0010
0010
0000
0000
,
0100
0100
0000
1000
,
0000
0100
0000
0000
,
0001
0000
0100
0000
,
0000
0000
1001
0000
,
1000
0000
0100
0000
,
0000
1000
0000
0100
,
0000
0100
0100
0000
,
0010
0000
0001
0000
,
0001
0000
1000
0000
,
0000
0100
0000
0010
,
0000
0100
0000
0000
,
1000
0000
1001
0000
,
0001
0000
1000
0000
,
0000
0000
0010
0000
,
1000
0000
0001
0000
,
0000
0000
0100
0000
,
1001
0000
0000
0001
,
0000
0001
0000
1001
,
1001
0000
0000
0000
,
0100
0000
0000
1001
,
1001
0000
1000
0000
,
0000
0100
0000
0010
,
0000
0001
0001
0000
,
0010
0000
0010
0000
,
0100
0000
1001
0000
,
0010
0000
0010
0000
,
0100
0000
0001
0000
,
1000
0000
0010
0000
,
1000
0000
1000
0000
,
0100
0000
0010
0000
,
0001
0000
0001
0000
,
0100
0000
0010
0000
,
1000
0000
1000
0000
,
0001
0000
0001
0000
,
0010
0000
0010
0000
,
0001
0000
1000
0000
,
0100
0000
0100
0000
,
0000
0000
0110
0000
;

//--------------- dance-single - ----------------
#NOTES:
     dance-single:
     :
     Easy:
     3:
     0,0,0,0,0:
0000
0000
0000
0000
,
0000
0000
0000
0000
,
0000
0000
0000
0000
,
0000
0000
0000
0000
,
1001
0010
0001
0000
,
0000
1000
0100
0000
,
1001
0010
1000
0000
,
0010
0010
0000
0000
,
0100
0100
0001
1000
,
0000
0100
0010
0000
,
0011
0001
1010
1000
,
0000
0100
1001
0000
,
1000
0100
0100
0000
,
0000
1000
0001
0100
,
0001
0100
0100
0000
,
0010
1000
0001
0010
,
0001
0100
1000
0000
,
0000
0100
0001
0010
,
1000
0100
0001
0000
,
1000
0001
1001
0000
,
0001
0000
1000
0000
,
0000
0000
0010
0000
0000
0010
0000
0000
0010
0000
0000
0000
0000
0000
0000
0000
,
1000
0000
0001
0000
,
0000
0000
0100
0000
0000
0100
0000
0000
0100
0000
0000
0000
0000
0000
0000
0000
,
1001
0000
0000
0001
,
1000
0001
1000
1001
,
0100
0000
0000
0000
,
0100
0000
0010
0100
,
1001
1000
1000
0000
,
0000
0100
1000
0010
,
1001
0001
0001
0000
,
0010
0001
0010
0000
,
0100
0010
1001
0000
,
0010
1000
0010
0000
,
0100
0100
0001
0001
,
1000
1000
0010
0000
,
1000
0100
1000
0010
,
0100
0001
0010
0000
,
0001
0100
0001
0010
,
0100
1000
0010
0000
,
1000
0000
1100
0000
,
0001
0000
0011
0000
,
0010
0100
0010
0000
,
0001
1000
0001
0000
1000
0000
0000
0000
,
0100
0000
0100
0000
,
0000
0000
0010
0000
0000
0100
0000
0000
0110
0000
0000
0000
0000
0000
0000
0000
;

//--------------- dance-single - ----------------
#NOTES:
     dance-single:
     :
     Medium:
     5:
     0,0,0,0,0:
0000
0000
0000
0000
,
0000
0000
0000
0000
,
0000
0000
0000
0000
,
0000
0000
0000
0000
,
1001
1000
0001
0010
,
0001
0000
1000
0000
0000
1000
0000
0000
0100
0000
0010
0000
0001
0000
0000
0000
,
0100
0001
1000
1001
,
0000
0000
1000
0000
0000
0010
0000
0000
0001
0000
0000
0000
0100
0000
0001
0000
,
1000
0100
0010
1001
,
0001
0000
0010
0000
0000
0001
0000
0000
1000
0000
0000
0000
0010
0000
0000
0000
,
1000
0001
0001
0110
,
0010
0000
0001
0000
0000
1000
0000
0000
0100
0000
0000
0000
0000
0000
0000
0000
,
1000
0000
1001
0000
0001
0010
0001
0000
,
0100
0000
0001
0000
0010
0010
0001
0000
,
1000
0000
1001
0000
0010
0001
1000
0000
,
0001
0000
0100
0000
0010
0010
1000
0000
,
0001
1100
0010
0101
,
0001
0000
1000
0000
0100
0100
0001
0000
,
0010
0001
1000
0000
0100
1000
0001
0000
,
0100
0010
0010
0000
,
1000
0000
0000
0100
1000
0000
0000
0000
,
0000
0000
0001
0000
0000
0001
0000
0000
0001
0000
0000
0000
0000
0000
0000
0000
,
0001
0000
0000
0100
0001
0000
0000
0000
,
0000
0000
1000
0000
0000
1000
0000
0000
1000
0000
0000
0000
0000
0000
0000
0000
,
1001
0010
1001
0000
0000
0000
1000
0000
,
0100
0001
0010
0110
,
0010
0001
0010
0000
0000
0000
0100
1000
,
0100
0000
0010
1001
,
0001
0001
0011
1000
,
0010
1000
1010
0110
,
0100
0001
1000
1100
,
0010
0001
0101
0000
,
0001
0010
0001
1001
,
1000
0100
0010
0010
,
0100
1000
0010
0001
,
0100
0010
1001
0000
,
1000
0000
1001
0000
0001
0010
0001
0000
,
0100
0000
0001
0000
0010
0010
0001
0000
,
1000
0000
1001
0000
0010
0001
1000
0000
,
0001
0000
0100
0000
0010
0010
1000
0000
,
0001
1100
0010
0101
,
0001
0000
1000
0000
0100
0100
0001
0000
,
0010
0001
1000
0000
0100
1000
0001
0000
,
0100
0010
0010
0000
,
0010
0000
0000
1000
0001
0000
0000
0000
,
0000
0000
0010
0000
0000
0100
0000
0000
0110
0000
0000
0000
0000
0000
0000
0000
;

//--------------- dance-single - ----------------
#NOTES:
     dance-single:
     :
     Hard:
     7:
     0,0,0,0,0:
0000
0000
0000
0000
,
0000
0000
0000
0000
,
0000
0000
0000
0000
,
0000
0000
0000
0000
,
1001
0000
0010
1000
0100
0000
1000
0000
,
1000
0000
0001
0000
0000
0001
0000
0000
0010
0000
0001
0000
0011
0000
0000
0000
,
0110
0000
0100
1000
0010
0000
0100
0000
,
0001
0000
1000
0000
0000
1000
0000
0000
0100
0000
1000
0000
1010
0000
0000
0000
,
1000
0001
0010
0010
1001
0000
0100
0000
,
0100
0000
1000
0000
0000
0010
0000
0000
1000
0000
0001
0000
1001
0000
0000
0000
,
0010
0000
0001
1000
0100
0000
1100
0000
,
1000
0000
0010
0000
0000
0100
0000
0000
0101
0000
0000
0000
0000
0000
0000
0000
,
0010
0000
1000
1000
0001
0010
0001
0001
,
1000
0100
0000
0110
0010
0100
0001
0000
,
0010
0000
0001
1000
0001
1000
0100
0100
,
1000
0010
0000
1000
0000
0001
1001
0000
,
0100
1000
0010
0100
0001
0000
0011
0000
,
1010
0100
0000
0001
1000
0100
0010
0000
,
0100
0000
0100
1000
0010
1000
0001
0010
,
0010
0001
0000
1000
0000
0100
0100
1000
,
1010
0000
1000
0001
0011
0000
0100
0000
,
0000
0000
0001
0000
0000
1000
0000
0000
0001
0000
0000
0000
0100
0000
0000
0000
,
0010
0000
1000
0010
0001
0000
0110
0000
,
0000
0000
1000
0000
0000
0001
0000
0000
1000
0000
0000
0000
0100
0000
0000
0000
,
0010
0000
1001
1000
0100
0000
1000
0000
,
0010
0000
0100
0000
0000
0010
0000
0000
0100
0000
0000
0000
0001
0000
0010
0000
,
0100
0000
1000
0010
0100
0000
0001
0000
,
0100
0000
0010
0000
0000
0100
0000
0000
0010
0000
0000
0000
1001
0000
0000
0000
,
1000
0100
0100
1000
0001
0010
0011
0000
,
0010
0000
0001
0000
0000
1000
0000
0000
0100
0000
0100
0000
1000
0000
0010
0000
,
0100
0000
1000
0010
0001
0000
1010
0000
,
0101
0000
1000
0000
0000
0001
0000
0000
0010
0000
0000
0000
0100
0000
0010
0000
,
0100
0000
1000
0001
0100
0001
1000
0000
,
0100
0000
0100
0000
0000
0010
0000
0000
0010
0000
0001
0000
1000
0000
0100
0000
,
1000
0000
0010
0100
0001
0001
1001
0000
,
1000
0000
0010
0000
0000
0001
0000
0000
0110
0000
0000
0000
0001
0000
0001
0000
,
1001
0000
1000
1000
1100
0000
0010
0010
,
1000
0001
0000
0001
0010
0001
0100
0000
,
0110
0000
0001
0001
0101
0000
0100
0001
,
0010
0010
0000
0001
1000
0100
1010
0000
,
0110
0000
0000
0000
0010
0000
0010
0000
1001
0000
0000
0000
0100
0000
0000
0100
,
0010
0100
0000
0001
0000
0010
0001
1000
,
0100
0000
1000
1000
1010
0000
0001
0010
,
0001
0000
0100
0001
0100
0000
0001
0000
0000
0000
1000
0000
0100
0000
0100
0000
,
0010
0000
0000
0001
1001
0000
0000
0000
,
0000
0000
0010
0000
0000
0100
0000
0000
0110
0000
0000
0000
0000
0000
0000
0000
;

//--------------- dance-single - ----------------
#NOTES:
     dance-single:
     :
     Challenge:
     10:
     0,0,0,0,0:
0000
0000
0000
0000
,
0000
0000
0000
0000
,
0000
0000
0000
0000
,
0000
0000
0000
0000
,
1001
0000
0001
0010
0001
0000
1000
0000
0100
0000
0000
0000
0100
1000
0000
0000
,
0010
0000
1000
0001
0000
0001
0010
0000
0100
0000
0110
0000
0010
0001
0000
0000
,
0011
0000
0100
0001
0100
0000
0010
0000
1010
0000
0000
0000
0100
0010
0000
0000
,
1000
0010
1000
0000
0001
1000
0000
0000
0010
1000
0000
0000
1001
0000
0001
0000
,
1010
0000
0001
1000
0001
0010
0001
0000
0101
0000
0001
0000
1000
0001
0000
0000
,
0010
0000
0001
0100
0000
0010
0100
0000
0010
1000
0100
0000
1000
0001
0000
0000
,
0011
0000
0001
1000
0001
0001
0100
0000
0010
1000
0010
0000
1000
0100
1000
0001
,
0010
0000
0000
0000
0100
0000
0010
0000
0000
0000
0001
0000
1000
0000
0000
0000
1100
0000
0000
0000
0001
1000
0001
0000
0000
0000
1000
0000
0000
0000
0000
0000
,
0010
0010
1000
0000
0011
0000
0110
0000
1001
0000
0000
1000
0001
0000
0010
0000
,
0001
1000
0010
0000
0010
0100
0001
0000
0000
1000
0001
0000
1100
0000
0000
0000
,
0010
0001
1000
0000
0001
0000
0101
0000
1010
0000
0000
1000
0010
0000
1000
0001
,
0010
0000
0110
0000
0010
0000
0011
0000
1010
0000
1000
0001
1000
0000
0000
0000
,
0010
0010
1000
0001
0010
0000
1001
0000
1001
0000
0000
0100
1000
0000
0010
1000
,
0001
0000
0011
0000
0010
0000
1010
0000
0000
0100
1000
0000
0001
1000
0001
0000
,
1000
0010
0000
1000
0010
0000
1010
0000
1001
0000
0010
0001
0010
0001
0100
0000
,
0010
0000
1010
0000
0000
1000
0001
0000
0000
0010
0001
1000
0000
0000
0100
1000
,
0001
0000
0000
1000
0001
0000
1100
0000
0110
0000
0000
0000
0010
0000
0000
0000
,
0001
0000
1001
0000
0000
1010
0000
0000
0011
0000
0000
0100
0001
0000
0010
0000
,
0001
0000
1001
0000
0100
1000
0100
0000
1000
0000
0000
0010
1000
0000
0001
0000
,
0010
0000
0011
0000
0000
1100
0000
0000
0110
0000
0000
0000
0010
0001
1000
0000
,
0001
0000
1000
0000
0001
0000
0000
0000
0000
0000
1001
0000
0000
0000
0000
0000
0000
0000
0011
0000
0000
0000
0000
0000
0000
0000
0000
1010
0000
0000
0000
0000
0000
1000
0000
0000
0001
0000
0000
0010
0000
0000
0001
0000
0000
0000
0000
0000
,
0000
0000
1000
0000
0010
0000
1000
0000
0000
0000
0101
0000
0000
0000
0000
0000
1010
0000
0000
0000
0000
0000
0000
1000
0100
0000
0000
0000
0000
0000
0000
0000
,
0010
0001
0000
0000
1000
0000
0001
0000
1001
0000
0000
0000
1000
0000
0010
0000
,
1000
0001
1000
0000
0000
0000
0000
0000
0001
0000
0000
0000
0000
0000
1000
0000
0010
0000
0000
0000
0000
0000
1001
0000
0000
0000
0000
0000
0000
0000
0000
0000
,
1001
0000
0001
0010
0001
0000
1000
0000
0100
0000
0000
0000
0100
1000
0000
0000
,
0010
0000
1000
0001
0000
0001
0010
0000
0100
0000
0110
0000
0010
0001
0000
0000
,
0011
0000
0100
0001
0100
0000
0010
0000
1010
0000
0000
0000
0100
0010
0000
0000
,
1000
0010
1000
0000
0001
1000
0000
0000
0010
1000
0000
0000
1001
0000
0001
0000
,
1010
0000
0001
1000
0001
0010
0001
0000
0101
0000
0001
0000
1000
0001
0000
0000
,
0010
0000
0001
0100
0000
0010
0100
0000
0010
1000
0100
0000
1000
0001
0000
0000
,
0011
0000
0001
1000
0001
0001
0100
0000
0010
1000
0010
0000
1000
0100
1000
0001
,
0010
0000
0000
0000
0100
0000
0010
0000
0000
0000
0001
0000
1000
0000
0000
0000
1100
0000
0000
0000
0001
1000
0001
0000
0000
0000
1000
0000
0000
0000
0000
0000
,
0010
1000
0001
0000
0011
0000
0011
0000
1100
0000
1000
0010
1010
0000
1001
0000
,
1001
0000
0100
0001
0000
0010
0100
0010
0001
0000
1010
0000
0110
0000
0101
0000
,
1001
0000
1000
0010
1010
0000
0110
0000
0101
0000
0001
1000
1001
0000
0101
0000
,
1100
0000
0010
0100
0000
0000
0010
0001
1000
0000
0010
0000
1000
0010
0000
0000
,
0101
0000
0000
0000
0001
0000
1000
0000
1100
0000
0000
0000
0110
0000
0000
0000
0011
0000
0000
0000
0001
0000
0000
0000
1000
0010
0000
0000
0000
0000
1000
0000
,
0010
1000
0000
0000
0001
0000
0100
0000
0000
0000
0001
0000
0010
0000
0000
0000
0100
0000
0010
0000
0000
0000
0001
0000
0101
0000
0000
0000
1001
0000
0000
0000
,
1100
0000
1000
0010
1010
0000
1001
0000
0101
0000
0000
1000
0001
0000
0010
0000
,
0001
0000
0000
0000
1000
0001
1000
0001
1000
0000
0000
0000
0100
0000
0000
0000
0000
0000
0000
0000
1000
0000
1000
0000
0001
0000
0000
0000
0010
0000
0000
0000
,
0100
0000
0000
1000
1001
0000
0000
0000
,
0000
0000
0100
0000
0000
0010
0000
0000
0110
0000
0000
0000
0000
0000
0000
0000
;

//--------------- dance-solo - ----------------
#NOTES:
     dance-solo:
     :
     Easy:
     2:
     0,0,0,0,0:
000000
000000
000000
000000
,
000000
000000
000000
000000
,
000000
000000
000000
000000
,
000000
000000
000000
000000
,
100001
000000
000010
000000
,
010000
000000
100000
000001
,
100001
000000
000100
000000
,
001000
000000
000100
001000
,
000100
000000
000010
000000
,
010000
000000
000000
000000
,
000101
000000
100100
000000
,
001000
000100
001000
000000
,
100000
001000
100000
000000
,
000001
001000
000001
000000
,
001000
001000
000100
000000
,
010000
000010
000000
010010
,
100000
000000
000010
000000
,
001000
000001
010000
000000
,
010000
000000
000010
000000
,
000000
001000
100001
000000
,
010000
000000
000010
000000
,
000000
000100
000100
000000
,
000001
000000
100000
000000
,
000000
001000
001000
000000
,
101000
000000
000101
000000
,
010000
000010
000100
001100
,
001000
000000
000000
000000
,
001000
000000
100001
000000
,
010000
000010
010000
000000
,
000100
001000
000010
000000
,
100000
000100
100000
000000
,
010000
000010
000100
000000
,
001000
000000
001100
000000
,
000010
000000
000100
000010
,
010000
000100
100000
000000
,
000000
000001
100000
000000
,
000100
000001
000100
000001
,
010000
000000
000100
000000
,
000100
100000
000100
100000
,
000010
000000
001000
000000
,
001000
000001
000001
001000
,
000100
000000
000000
100000
,
001000
100000
100000
001000
,
010000
010010
000000
000000
,
000001
000000
001000
000000
,
000000
000000
100000
000000
;
