#TITLE:Let's Go to the Forest;
#SUBTITLE:(もりへいこうよ);
#ARTIST:Forest Music Band;
#TITLETRANSLIT:;
#SUBTITLETRANSLIT:(Mori e ikou yo);
#ARTISTTRANSLIT:;
#GENRE:Nursery;
#CREDIT:8Chasey 2026;
#MUSIC:Let's Go to the Forest (Mori he ikou yo).ogg;
#BANNER:;
#BACKGROUND:;
#CDTITLE:;
#SAMPLESTART:67.05;
#SAMPLELENGTH:15;
#SELECTABLE:YES;
#OFFSET:-1.07;
#BPMS:0.000=130.000;
#STOPS:;
#BGCHANGES:;
#FGCHANGES:;

//--------------- dance-single - 8Chasey ----------------
#NOTES:
     dance-single:
     8Chasey:
     Beginner:
     1:
     0,0,0,0,0:
0000
0000
0000
0000
,
0000
0000
0000
0000
,
0000
0000
0000
0000
,
0000
0000
0000
0000
,
0000
0000
0000
0000
,
0000
0000
0000
0000
,
0001
0000
0000
0001
,
0000
0000
0001
0000
,
0000
0000
0000
0000
,
1000
0000
0000
1000
,
0000
0000
1000
0000
,
0000
0000
0000
0000
,
0001
0000
0000
1000
,
0000
0000
0001
0000
,
0000
0000
0000
0000
,
1000
0000
0000
0001
,
0000
0000
1000
0000
,
0000
0000
0000
0000
,
0010
0000
0000
0010
,
0000
0000
0010
0000
,
0000
0000
0000
0000
,
0100
0000
0000
0100
,
0000
0000
0100
0000
,
0000
0000
0000
0000
,
0010
0000
0000
0100
,
0000
0000
0010
0000
,
0000
0000
0000
0000
,
0100
0000
0000
0010
,
0000
0000
0100
0000
,
0000
0000
0000
0000
,
0001
0000
0000
0001
,
0000
0000
0001
0001
,
0001
0001
0000
0000
,
1000
0000
0000
1000
,
0000
0000
1000
1000
,
1000
1000
0000
0000
,
0001
0000
0000
1000
,
0000
0000
0001
0000
,
0000
0001
0000
0000
,
1000
0000
0000
0001
,
0000
0000
1000
0000
,
0000
1000
0000
0000
,
0001
0000
0000
0001
,
0000
0000
0001
0000
,
0000
1001
0000
0000
,
0000
0000
0000
1000
,
0000
0000
1000
0000
,
0000
1000
0000
0000
,
1001
0000
0000
0000
;

//--------------- dance-single - 8Chasey ----------------
#NOTES:
     dance-single:
     8Chasey:
     Easy:
     3:
     0,0,0,0,0:
0000
0000
0000
0000
,
0000
0000
0000
0000
,
0000
0000
0000
0000
,
1000
0000
0000
0001
,
0000
0000
0100
0000
,
0000
0010
0000
0000
,
1000
0000
0000
0001
,
1000
0001
2000
3000
,
0000
1000
0000
0000
,
0001
0000
0000
1000
,
0001
1000
0002
0003
,
0000
0001
0000
0000
,
0010
0000
0010
0100
,
0000
0100
1000
0001
,
1000
0001
0000
0000
,
1000
0000
1000
0001
,
0000
0001
0200
0000
,
0300
0020
0000
0030
,
1000
0001
0000
0001
,
1000
0000
1000
0100
,
0000
0010
0001
0000
,
0100
0010
0000
0010
,
0100
0000
0100
0001
,
0000
1000
0010
0000
,
1000
0000
1000
0001
,
0000
0001
0100
0010
,
0100
0020
0000
0030
,
1000
0000
1000
0001
,
0000
0001
0020
0000
,
0030
0200
0000
0300
,
1000
1000
0000
0001
,
0001
0000
1000
0001
,
1000
0001
0000
0000
,
0001
0001
0000
1000
,
1000
0000
0001
1000
,
0001
1000
0000
0000
,
1001
0000
0000
0001
,
1000
0001
1000
0001
,
0000
1000
0001
0000
,
1001
0000
1000
0001
,
1000
0001
1000
0000
,
0001
1000
0000
0000
,
0010
0010
0010
0100
,
0100
0100
0010
0010
,
0100
0200
0000
0300
,
0000
0000
0000
0001
,
0001
0001
1000
1000
,
1000
0001
0000
1000
,
2002
0000
3003
0000
;

//--------------- dance-single - 8Chasey ----------------
#NOTES:
     dance-single:
     8Chasey:
     Medium:
     4:
     0,0,0,0,0:
0000
0000
0000
0000
,
0000
0000
0000
0000
,
0000
0000
0000
0000
,
1000
1000
1000
0001
,
0001
0001
0010
0010
,
0100
0000
0100
0000
1000
0001
1000
0000
,
0001
0000
0000
0100
0001
0000
1000
0000
,
1000
0001
0001
1001
,
0000
0000
0100
0000
0010
0100
0010
0000
,
0100
0000
0000
0100
0001
0000
0100
0000
,
0010
1000
1001
0001
,
0001
1000
1000
0010
,
0100
0010
0100
0001
,
1000
0001
0020
0000
,
1030
0200
0000
0310
,
0001
1000
1000
0010
,
0100
0010
0200
0010
,
0310
0220
0000
0330
,
1000
0100
0100
0010
,
0001
0010
0001
0100
,
0100
0010
1000
0010
,
0100
0100
0010
1000
,
0001
1000
0010
0010
,
0100
0001
1000
0001
,
0100
0100
0001
0010
,
0100
0010
0100
0100
,
1000
0020
0000
0130
,
0001
0001
1000
1000
,
0010
0100
0010
0100
,
0001
1001
0000
0000
,
1000
1000
0001
0100
,
0010
0100
0001
0001
,
1000
0000
0010
0100
0010
0000
0100
0000
,
0010
0100
0001
0010
,
0100
1000
0010
1000
,
0001
0101
0000
0000
,
1100
0000
0000
1000
0001
0000
1000
0000
,
0100
0010
0001
0100
,
0000
0010
0100
0010
,
0100
0000
0000
0010
0100
0000
0001
0000
,
0010
0100
1000
0010
,
0100
0001
1000
0100
,
0010
0010
0100
0100
,
1000
0001
2000
0000
,
3001
2002
0000
0000
,
0000
0000
3003
0000
1000
0100
1000
0000
,
0010
0000
0100
0000
0001
0000
0010
0100
,
0010
0000
0100
0010
0100
0000
1000
0000
,
2002
0000
0000
0000
,
0000
3003
0000
0000
;

//--------------- dance-single - 8Chasey ----------------
#NOTES:
     dance-single:
     8Chasey:
     Hard:
     7:
     0,0,0,0,0:
0000
0000
0000
0000
,
0000
0000
0000
0000
,
0000
0000
0000
0000
,
0001
0100
0010
1000
,
0100
0010
0100
0100
,
0010
0000
0200
0000
1000
1000
1300
0000
,
0010
0000
1000
0100
1000
0000
0001
0000
,
0100
0010
2010
0001
,
3001
0000
0102
0000
1000
1000
1003
0000
,
0100
0000
1000
0010
1000
0000
0001
0000
,
0001
0010
0012
1000
,
0103
0000
2100
0000
0001
0001
3001
0000
,
0011
0001
1000
1010
,
1000
0001
0020
0100
,
0130
0000
2002
0000
3003
0000
1000
0100
,
0010
0001
0010
0001
,
0100
0010
2000
0001
,
3001
0020
0000
0130
,
1000
0100
1000
0000
0001
0000
0100
0000
,
0010
0000
0110
0000
0001
0100
0001
0000
,
1000
0010
0100
0110
,
0100
0001
0100
0000
0001
0000
1000
0000
,
0100
0000
0110
0000
0100
1000
0100
0000
,
1000
0001
0100
0110
,
0010
1000
0010
0000
1000
0000
0001
0100
,
0001
0100
1100
1010
,
0101
0000
0022
0000
0033
0000
0001
0010
,
0100
0000
1000
0001
1000
0000
0001
0000
,
0100
0010
2000
0100
,
0010
0002
0000
3003
,
0001
0000
0101
0000
0001
0010
1000
0000
,
0010
0010
0001
0000
1000
0000
1001
0000
,
0001
0000
0000
0000
0100
0001
0100
0001
0100
0000
0010
0000
0010
0000
0000
0000
,
1000
0000
1100
0000
1000
0010
0001
0000
,
0010
0010
1000
0000
1001
0000
1100
0000
,
0011
0220
0330
1000
,
1001
0000
0001
0100
0001
0000
0010
0000
,
0100
0010
0100
0000
0210
0000
0001
0000
,
1300
0000
1020
0000
0100
0100
0130
0000
,
0001
0000
0010
0001
0010
0000
0100
0000
,
1000
0100
1000
0000
1020
0000
0001
0000
,
0130
0000
0000
0000
0001
0100
0001
0100
0001
0000
1000
0000
0001
0000
0000
0000
,
2000
0100
3010
0002
,
0100
0000
0013
0000
0100
0000
0010
0100
,
1000
2002
0000
0000
,
0000
0000
3003
0000
0001
0100
0110
0000
,
0010
1000
0100
0000
1000
0000
0100
0010
,
0001
0000
0000
0000
1000
0001
1000
0001
1000
0000
0000
0000
0010
0000
0000
0000
,
0220
0000
0000
0000
,
0000
0330
0000
0000
;

//--------------- dance-double - 8Chasey ----------------
#NOTES:
     dance-double:
     8Chasey:
     Easy:
     2:
     0,0,0,0,0:
00000000
00000000
00000000
00000000
,
00000000
00000000
00000000
00000000
,
00000000
00000000
00000000
00000000
,
00001000
00000000
00000000
00010000
,
00000000
00000000
00000010
00000000
,
00000000
00000100
00000000
00000000
,
00000001
00000000
00000000
00001000
,
00000000
00000000
00000001
00000001
,
00000000
00000000
00000000
00000000
,
00000100
00000000
00000000
00000010
,
00000000
00010000
00001000
00000000
,
00000000
00010000
00000000
00000000
,
00001000
00000000
00001000
00010000
,
00000000
00010000
01000000
00000000
,
01000000
00100000
00000000
00000000
,
00010000
00000000
00010000
10000000
,
00000000
10000000
00200000
00000000
,
00300000
02000000
00000000
03000000
,
00001000
00000000
00010000
00001000
,
00000000
00000000
00010000
00000000
,
00001000
00010000
00000000
00000000
,
00000100
00000000
00000010
00000100
,
00000000
00000000
00000010
00000000
,
00000100
00000010
00000000
00000000
,
00000001
00000000
00000001
00000100
,
00000000
00000100
00001000
00000000
,
00001000
00011000
00000000
00000000
,
00010000
00000000
00010000
01000000
,
00000000
01000000
10000000
00000000
,
10000000
10010000
00000000
00000000
,
00100000
00000000
00000000
00001000
,
00000000
00000000
00010000
00000000
,
00001000
00010000
00000000
00000000
,
00000100
00000000
00000000
00010000
,
00000000
00000000
00001000
00000000
,
00010000
00001000
00000000
00000000
,
00011000
00000000
00000000
01000000
,
00000000
00000000
00100000
00100000
,
00000000
00000000
00000000
10000000
,
00010000
00000000
00000000
01000000
,
00000000
00001000
00010000
00000000
,
00000000
00000100
00000000
00001000
,
00000010
00000000
00000010
00000100
,
00000000
00000100
00000010
00000100
,
00000010
00000200
00000000
00000300
,
00000000
00000000
00000000
00001000
,
00001000
00001000
00010000
00010000
,
00010000
00001000
00000000
00010000
,
00022000
00000000
00033000
00000000
;

//--------------- dance-double - 8Chasey ----------------
#NOTES:
     dance-double:
     8Chasey:
     Medium:
     4:
     0,0,0,0,0:
00000000
00000000
00000000
00000000
,
00000000
00000000
00000000
00000000
,
00000000
00000000
00000000
00000000
,
00020000
00030000
00010000
00002000
,
00003000
00001000
00100000
00100000
,
01000000
00000000
01000000
00000000
10000000
00010000
10000000
00000000
,
00010000
00000000
00000000
01000000
00010000
00000000
01000000
00000000
,
00001000
00010000
00000100
00000100
,
00000000
00000010
00000010
00000000
,
00000001
00000000
00000000
00000100
00000001
00000000
00000100
00000000
,
00001000
00010000
00100000
01000000
,
00100000
01000000
00000000
00010000
,
00010000
10000000
10000000
01000000
,
00100000
01000000
00200000
00300000
,
00100000
02000000
03000000
01000000
,
10000000
01000000
00010000
00001000
,
00010000
00001000
00000200
00000010
,
00000310
00000220
00000000
00000330
,
00000010
00001000
00001000
00000100
,
00010000
00001000
00100000
00010000
,
00010000
01000000
00001000
00010000
,
00000100
00000010
00000010
00001000
,
00010000
00100000
10000000
00010000
,
00010000
10000000
01000000
00100000
,
00001000
00001000
00010000
00010000
,
00000100
00000010
00000001
00001000
,
00000010
00000200
00000000
00000310
,
00001000
00001000
00000001
00000001
,
00000100
00001000
00010000
00001000
,
01000000
01100000
00000000
00000000
,
00100000
10000000
01000000
00100000
,
00010000
01000000
00001000
00010000
,
00000100
00000000
00000010
00000100
00000010
00000000
00000100
00000000
,
00001000
00000010
00000100
00000001
,
00000010
00000100
00010000
00001000
,
01000000
01100000
00000000
00000000
,
10010000
00000000
00000000
00010000
10000000
00000000
01000000
00000000
,
10000000
00100000
01000000
01000000
,
00000000
00001000
00010000
00001000
,
00010000
00000000
00000000
00000100
00001000
00000000
00000100
00000000
,
00000010
00000001
00001000
00000100
,
00010000
00001000
01000000
00010000
,
00100000
00100000
01000000
01000000
,
10000000
00010000
20000000
00000000
,
30010000
20020000
00000000
00000000
,
00000000
00000000
30030000
00000000
10000000
01000000
10000000
00000000
,
01000000
00000000
00100000
00000000
00001000
00000000
00010000
00001000
,
00010000
00000000
00000100
00000010
00000100
00000000
00001000
00000000
,
00002002
00000000
00000000
00000000
,
00000000
00003003
00000000
00000000
;

//--------------- dance-double - 8Chasey ----------------
#NOTES:
     dance-double:
     8Chasey:
     Hard:
     6:
     0,0,0,0,0:
00000000
00000000
00000000
00000000
,
00000000
00000000
00000000
00000000
,
00000000
00000000
00000000
00000000
,
00100000
00001000
00010000
00000010
,
00010000
00001000
00100000
00100000
,
01000000
00000000
00200000
00000000
00010000
00010000
00310000
00000000
,
10000000
00000000
01000000
10000000
01000000
00000000
00010000
00000000
,
00001000
00010000
00001020
00000100
,
00000130
00000000
00002001
00000000
00000100
00000100
00003100
00000000
,
00010000
00000000
00001000
00010000
00001000
00000000
00100000
00000000
,
01000000
10000000
20100000
00010000
,
30010000
00000000
00102000
00000000
00010000
00010000
00013000
00000000
,
00010100
00000100
00001000
00001001
,
00000001
00000100
00002000
00010000
,
00013000
00000000
00022000
00000000
00033000
00000000
00001000
00100000
,
01000000
10000000
00100000
01000000
,
00010000
00100000
00002000
00010000
,
00013000
00000020
00000000
00000130
,
00000002
00001000
00001003
00000100
,
00010000
00000000
00001000
00000000
00100000
00010000
00100000
00000000
,
00010000
01000000
00001000
00010000
,
00000100
00000000
00001000
00000100
00001000
00000000
00000001
00000000
,
00000100
00000000
00001000
00000000
00010000
00001000
00010000
00000000
,
00001000
00100000
01000000
11000000
,
10000000
01000000
10000000
00000000
00100000
00000000
01000000
00010000
,
01000000
00000000
00001000
00000000
00010000
00000100
00010000
00000000
,
00000010
00000000
00002020
00000000
00003030
00000000
00001000
00000100
,
00000010
00000100
00010000
00001000
,
00100000
00010000
20000000
01000000
,
00100000
00020000
00000000
30030000
,
01000000
01010000
00010000
00100000
,
01000000
00100000
01000000
00000000
10000000
00000000
00010000
00000000
,
00100000
00000000
00001000
00001000
00010000
00001000
00010000
00000000
,
00000100
00001100
00001000
00000010
,
00000100
00000010
00000100
00000000
00000101
00000000
00001010
00000000
,
00010100
00202000
00303000
00100000
,
01100000
00000000
01000000
10000000
01000000
00000000
00100000
00000000
,
00001000
00010000
00001000
00000000
00012000
00000000
00000100
00000000
,
00013000
00000000
00001020
00000000
00000100
00000100
00000130
00000000
,
00000010
00000000
00000100
00000001
00000100
00000000
00000010
00000000
,
00010000
00001000
00010000
00000000
00021000
00000000
00100000
00000000
,
00031000
00000000
00100000
00100000
00010000
00100000
01000000
00000000
,
20000000
00100000
31000000
00200000
,
00010000
00000000
00301000
00000000
00010000
00000000
00000100
00001000
,
00000100
00000220
00000000
00000000
,
00000000
00000000
00000330
00000000
00000100
00010000
00011000
00000000
,
00001000
00100000
00001000
00000000
01000000
00000000
00010000
10000000
,
00010000
00000000
10000000
01000000
00100000
00000000
00010000
00000000
,
20020000
00000000
00000000
00000000
,
00000000
30030000
00000000
00000000
;
