#TITLE:Let's All Make a Song;
#SUBTITLE:;
#ARTIST:Brett Ambler and Friends;
#TITLETRANSLIT:;
#SUBTITLETRANSLIT:;
#ARTISTTRANSLIT:;
#GENRE:;
#CREDIT:8Chasey 2025;
#MUSIC:Let's All Make a Song.ogg;
#BANNER:Let's All Make A Song-bn.png;
#BACKGROUND:Let's All Make A Song-bg.png;
#CDTITLE:;
#SAMPLESTART:49.66;
#SAMPLELENGTH:12;
#SELECTABLE:YES;
#OFFSET:0.000;
#BPMS:0.000=120.850
,64.000=120.300
,112.000=120.100
,160.000=119.600
,176.000=120.000
,192.000=119.500
,248.000=119.200
;
#STOPS:;
#DISPLAYBPM:120.000;
#BGCHANGES:0.000=Lets All Make A Song.avi=1.000=0=0=0=StretchNoLoop==CrossFade==,
267.500=Let's All Make A Song-bg.png=1.000=0=0=0=====,
99999=-nosongbg-=1.000=0=0=0 // don't automatically add -songbackground-
;
#FGCHANGES:;

//--------------- dance-single - 8Chasey ----------------
#NOTES:
     dance-single:
     8Chasey:
     Beginner:
     1:
     0,0,0,0,0:
0000
0000
0000
0000
,
0000
0000
0000
0000
,
0000
0000
0000
0000
,
0000
0000
0000
0000
,
0000
0000
0000
0000
,
0001
0000
1000
0000
,
0001
0000
0000
0000
,
1000
0000
0000
0000
,
0010
0000
0000
0000
,
1000
0000
0001
0000
,
1000
0000
0000
0000
,
0001
0000
0000
0000
,
0010
0000
0010
0000
,
0100
0000
0100
0000
,
0010
0000
0000
0000
,
0000
0000
0000
0000
,
0001
0000
0001
0000
,
0001
0001
0001
0000
,
1000
0000
1000
0000
,
1000
1000
1000
0000
,
0010
0000
0010
0000
,
0020
0030
0000
0000
,
0100
0000
0100
0000
,
0200
0300
0000
0000
,
0100
0000
0100
0000
,
0010
0000
0010
0000
,
0100
0000
0000
0000
,
0000
0000
0000
0000
,
0001
0001
0001
0000
,
0002
0003
0000
0000
,
1000
1000
1000
0000
,
2000
3000
0000
0000
,
0010
0000
0020
0030
,
0000
0000
0010
0000
,
0100
0000
0200
0300
,
0000
0000
0100
0000
,
0001
0000
0001
0000
,
1000
0000
1000
0000
,
0001
0000
0000
0000
,
0000
0000
0000
0000
,
1000
0001
1000
0001
,
1000
0001
1000
0000
,
0001
1000
0001
1000
,
0001
1000
0001
0000
,
0100
0000
0100
0000
,
0200
0000
0300
0000
,
0010
0000
0010
0000
,
0020
0000
0030
0000
,
1000
0000
1000
0000
,
0001
0000
0001
0000
,
1000
0000
0000
0000
,
0000
0000
0000
0000
,
0000
0000
0000
0000
,
0000
0000
0000
0000
,
1000
0000
0001
0000
,
1000
0000
0000
0000
,
0001
0000
0000
0000
,
0100
0000
0000
0000
,
0001
0000
1000
0000
,
0001
0000
0000
0000
,
1000
0000
0000
0000
,
0010
0000
0010
0000
,
0100
0000
0100
0000
,
0010
0000
0000
0000
;

//--------------- dance-single - 8Chasey ----------------
#NOTES:
     dance-single:
     8Chasey:
     Easy:
     3:
     0,0,0,0,0:
0000
0000
0000
0000
,
0000
0000
0000
0000
,
0000
0000
0000
0000
,
0000
0000
0000
0000
,
0000
0000
0000
0000
,
0001
1000
0001
0000
,
2200
0000
3300
0000
,
1000
0000
0001
0000
,
0020
0030
0200
0300
,
1000
0001
1000
0000
,
0202
0000
0303
0000
,
0001
0000
1000
0000
,
0010
0100
0010
0000
,
0100
0010
0100
0010
,
0200
0000
0310
0000
,
1000
0001
1000
0000
,
0010
0100
0010
0000
,
1000
0100
0010
0001
,
0100
0010
0100
0000
,
0001
0010
0100
1000
,
0001
0001
0001
0000
,
2020
0000
3030
0000
,
1000
1000
1000
0000
,
0022
0000
0033
0000
,
0100
0010
0100
0000
,
0010
0100
0010
0100
,
0020
0000
0130
0000
,
0001
1000
0001
0000
,
0001
0001
0002
0003
,
1000
1000
2000
3000
,
0010
0100
0010
0000
,
1001
0000
0000
1001
0000
0000
0000
0000
,
1000
0001
0200
0000
,
0300
0001
1000
0000
,
0001
1000
0020
0000
,
0030
1000
0001
0000
,
1000
0001
1000
0000
,
0001
1000
0001
1000
,
0002
0000
1003
0000
,
0010
0100
0010
0000
,
1000
1000
0001
0001
,
1000
0001
1000
0001
,
0100
0100
0010
0010
,
0100
0010
0100
0010
,
2000
3000
0002
0003
,
2002
0000
3003
0000
,
0020
0030
0200
0300
,
0220
0000
0330
0000
,
0001
1000
0001
0000
,
1000
0001
1000
0001
,
2000
0000
3001
0000
,
0001
0010
0001
0000
,
1000
0010
1000
0000
,
0010
0100
0010
0000
,
1000
0001
1000
0000
,
0022
0000
0033
0000
,
0001
0000
1000
0000
,
0020
0000
0230
0300
,
0001
1000
0001
0000
,
2020
0000
3030
0000
,
1000
0001
1000
0000
,
0220
0000
0330
0000
,
0002
0003
2000
3000
,
0200
0000
0000
0300
;

//--------------- dance-single - 8Chasey ----------------
#NOTES:
     dance-single:
     8Chasey:
     Medium:
     5:
     0,0,0,0,0:
0000
0000
0000
0000
,
0000
0000
0000
0000
,
0000
0000
0000
0000
,
0000
0000
0000
0000
,
0000
0000
0000
0000
,
0001
1000
0001
0000
2000
0000
3000
0000
,
0200
0320
0230
0300
,
1000
0001
1001
0000
,
0200
0000
0320
0000
,
1030
0001
1000
0000
0002
0000
0003
0000
,
0020
0230
0320
0030
,
0001
1000
1001
0000
,
0010
0100
0110
0000
,
0001
0010
0100
1000
,
0020
0100
0100
0130
,
0001
1000
0001
1000
,
2002
3003
0002
0003
,
0010
0000
0001
0000
0100
0001
0100
0000
,
0010
0110
0200
0300
,
0010
0000
1000
0000
0100
1000
0100
0000
,
1000
0000
0001
1000
0002
0000
0003
0000
,
0020
0000
0000
0000
0130
0100
0010
0000
,
0001
0000
1000
0001
2000
0000
3000
0000
,
2002
0000
3003
0000
,
0010
0100
0010
0100
0020
0000
0030
0000
,
1000
0100
0010
0001
,
0100
0010
0100
0010
0200
0000
0300
0000
,
1000
0001
1000
0001
,
1001
0100
0020
0030
,
1000
0001
1000
0010
0200
0000
0300
0000
,
1001
0110
2002
3003
,
0001
1000
0010
0200
0000
0000
0310
0000
,
0100
0000
0001
0000
1000
0010
1000
0010
,
2000
0100
3100
1000
,
0100
0000
1000
0000
0001
0010
0001
0010
,
0002
0100
0103
0001
,
0100
0010
0100
0010
0200
0000
0300
0000
,
0001
0010
0100
1000
,
0010
0100
0010
0100
0020
0000
0030
0000
,
0100
0010
0100
0010
,
1000
0100
1000
0100
0010
0001
0010
0001
,
1000
0100
0010
0001
1000
0001
1000
0000
,
0001
0010
0001
0000
1000
0100
1000
0000
,
0001
1000
0001
1000
0020
0030
0200
0300
,
0002
0003
2000
3000
,
2002
0000
3003
0000
,
0100
0010
0100
0000
0010
0100
0010
0000
,
0220
0000
0330
0000
,
1000
0100
1000
0100
2000
0000
3000
0000
,
0010
0100
0001
1000
,
0001
0100
0001
0100
0002
0000
0003
0000
,
1000
0010
1000
0000
0100
0000
1000
0000
,
0001
0010
0001
0000
0100
0000
0001
0000
,
1000
0001
1000
0000
0001
1000
0001
0000
,
1000
0001
1000
0000
0002
0000
0003
0000
,
0100
0010
0100
0000
0020
0000
0030
0000
,
1000
0001
1001
0000
,
2000
3002
0203
0300
,
0001
1000
0001
0000
2000
0000
3000
0000
,
0010
0100
0010
0000
0200
0000
0300
0000
,
0001
1000
1001
0000
,
0110
0100
0010
0000
,
1000
0001
0100
0010
,
0200
0000
0000
0300
;

//--------------- dance-single - 8Chasey ----------------
#NOTES:
     dance-single:
     8Chasey:
     Hard:
     7:
     0,0,0,0,0:
0000
0000
0000
0000
,
0000
0000
0000
0000
,
0000
0000
0000
0000
,
0000
0000
0000
0000
,
0000
0000
0000
0000
,
0001
1000
0001
1000
0001
0010
0000
0000
,
1100
0011
1100
0000
,
0100
0010
0100
0010
0001
1000
0000
0000
,
0210
0320
0230
0300
,
1000
0001
1000
0001
1000
0010
0000
0000
,
0101
1010
0101
0000
,
0010
0100
0010
1000
0001
1000
0000
0000
,
0100
1000
0001
0100
0020
0000
0030
0000
,
1010
0000
0100
0001
0010
0000
0100
0000
,
1000
0100
1000
0001
0010
0001
0100
0000
,
0110
0010
0010
0010
0200
0010
0310
0100
,
0101
0000
0001
1000
1100
0000
1000
0000
,
0001
0001
0010
0010
0100
0100
1000
1000
,
0010
0000
0110
0100
0020
0000
1030
0000
,
0100
0100
0010
0010
0001
0001
1000
1000
,
0010
0100
0001
0000
1100
0000
1000
0000
,
0012
0000
0100
0000
1003
0010
0100
0000
,
0010
0100
0010
0100
0020
0000
0130
0000
,
2002
0000
3003
0000
,
1000
0001
0010
0100
0020
0000
0130
0000
,
1000
0010
1000
0000
0001
0100
0001
0000
,
0010
0100
1000
0001
0020
0000
0130
0010
,
0000
0001
1000
0001
1000
0001
1000
0001
,
1001
0000
1000
0100
0020
0000
0130
0000
,
0010
0001
0010
0001
0200
0000
0310
0000
,
1010
0000
0000
0000
0101
0000
0000
0000
0100
0020
0000
0000
0130
0000
0000
0000
,
1001
1000
0001
0010
0020
0000
0130
0000
,
1000
0100
0001
0000
0100
0020
0100
0000
,
0130
1001
0220
0330
,
0100
0001
1000
0000
0210
0010
0010
0010
,
0310
1100
0202
0303
,
1000
0010
1000
0001
0200
0000
0300
0000
,
0010
0001
0010
0000
0100
1000
0100
0000
,
0010
0001
1000
0010
0200
0000
0310
0100
,
0000
0001
1000
0001
1000
0001
1000
0001
,
0100
0001
0100
0000
0001
0000
0010
0000
0100
1000
0100
0000
1000
0000
0010
0000
,
0100
0010
0100
0000
0001
0000
1000
0000
0010
0100
0010
0000
0200
0000
0000
0000
,
0301
0010
0001
1000
0010
1000
0100
0010
,
0100
1000
0001
0100
0010
1000
0100
0010
,
0120
0031
2001
3010
,
0201
0010
1000
0310
,
2000
0000
3010
1000
0002
0000
0013
0001
,
0200
0000
0010
0310
0100
0000
1010
0000
,
0100
0001
0100
0010
2000
0000
3100
0000
,
1000
0010
1000
0000
0001
0100
0001
0000
,
1000
0001
0100
0010
0200
0000
0310
0010
,
0000
1000
0100
1000
0100
1000
0100
1000
,
0000
0001
0100
0001
0100
0001
0100
0001
,
0000
0100
0010
0100
0010
0100
0010
0100
,
0110
0010
1000
0100
0010
0001
0100
0000
,
0101
1000
1010
0010
0200
0000
0310
0000
,
1010
0010
0100
0001
0010
0100
0010
0000
,
2100
3010
0102
1003
,
1010
0010
0100
0001
0010
0100
0010
0000
,
0001
0010
0001
0000
0010
0100
0010
0000
0100
1000
0100
0000
1000
0001
1000
0000
,
0010
0100
0001
0001
1000
0100
1000
0000
,
0010
0100
0010
0100
2002
0000
3003
0000
,
0011
0001
1000
0000
1010
0000
0100
0000
,
0020
0000
0000
0030
;

//--------------- dance-single - 8Chasey ----------------
#NOTES:
     dance-single:
     8Chasey:
     Challenge:
     10:
     0,0,0,0,0:
0000
0000
0000
0000
,
0000
0000
0000
0000
,
0000
0000
0000
0000
,
0000
0000
0000
0000
,
0000
0000
0000
0000
,
0001
0001
1000
0100
1000
1000
1001
0000
,
0010
1000
0010
1000
0001
0100
0001
0100
0010
0100
0010
0100
0020
0000
0000
0000
,
0130
0100
0001
1000
0010
0010
0100
0000
,
0012
0000
2003
3100
2100
0000
3010
0000
,
1000
1000
0001
0010
0001
0001
1001
0000
,
0100
0001
0100
0001
1000
0010
1000
0010
1000
0100
0010
0001
0200
0000
0000
0000
,
0301
0001
0010
0100
1000
1000
1010
0000
,
0011
0001
0100
0010
0200
0000
0310
0000
,
2010
0000
3100
0010
0002
0000
0103
0000
,
1010
0010
0100
0002
0100
0100
0200
0303
,
0110
0010
0100
0001
0200
1300
0100
0010
,
2020
3000
0031
0010
0200
0000
0301
1000
,
1010
0010
0110
0100
0101
0001
1001
1001
,
2000
0000
3000
0000
0021
0000
0001
0000
0230
0000
0000
0000
0310
0000
0100
1000
,
0100
0110
0010
0011
0001
1001
1000
1010
,
0010
0100
0101
0001
2000
0000
3010
0000
,
0210
0001
0010
1000
0310
0100
0001
0000
,
1000
0010
0000
0000
0100
0001
0000
0000
0020
0000
0100
0000
0130
0000
0010
0000
,
0012
0000
1000
0200
0003
0000
0310
0100
,
0001
0002
1003
2000
3020
0000
0130
0000
,
0022
0033
0202
0303
2020
3030
2200
3300
,
0100
0010
0001
1000
0020
0000
0130
0010
,
0000
0101
1001
1100
1001
0101
1001
0110
,
0200
0000
0301
0000
1000
0010
1000
0000
0020
0000
0000
0000
0130
0000
0000
0000
,
0101
0001
1000
0100
0200
0000
0310
0000
,
0022
0000
0033
0000
2200
0000
3300
0000
1000
0020
0000
0000
1000
0000
0000
0130
,
0001
0101
1100
0120
0001
0000
1030
0010
,
0001
0000
0000
0000
0000
0000
1001
0000
0000
0000
0000
0000
1000
0010
1000
0010
1000
0010
1000
0010
1000
0010
1000
0010
,
2000
0100
3100
0000
0022
0000
0033
0000
,
0001
0000
1000
0000
1001
0000
0000
0000
0010
0100
1000
0100
1000
0001
0100
0010
,
0100
0001
1001
0000
0220
0000
0330
0000
,
0100
0020
1030
0200
0320
0000
0031
0000
,
2200
3300
2020
3030
0202
0303
0022
0033
,
0010
0001
1000
0010
0020
0000
1000
1030
,
0000
1010
1001
0011
1001
1010
1001
0110
,
0100
0001
0100
0001
1000
0001
1000
0001
0100
0010
0100
0010
1000
0010
1000
0010
,
0100
0001
1000
0001
0100
0010
1000
0010
0100
0001
1000
0010
0200
0000
0000
0300
,
0001
0001
0010
0001
1000
1000
0100
1000
0010
0010
0100
0001
0100
0100
0010
1000
,
0001
0001
0100
0010
1000
1000
0100
0010
0100
0100
0010
0001
0010
0010
0100
0000
,
0022
0000
0000
0033
2200
0000
0000
3300
,
2002
0000
0000
0000
0000
0000
0000
3003
,
0200
0301
0020
1030
,
2002
0000
3003
1001
,
0100
0001
0100
0010
2000
0000
3100
0000
,
0220
0330
2002
3003
0220
0330
2002
3003
,
1001
1000
0100
0010
0002
0000
0103
0010
,
0000
1010
1100
1010
1100
1010
1100
1001
,
0000
0011
0101
0011
0101
0011
0101
1001
,
0000
1100
1010
0110
0101
0011
1001
0110
,
1001
1000
0100
0001
0200
0010
0310
0000
,
0100
1000
0100
1000
0010
0100
0010
0100
0001
0010
0001
0010
0200
0000
0300
0000
,
0010
0011
0001
1000
0010
1010
1000
0000
,
0120
0000
0032
0003
2200
0300
3010
0000
,
0100
0001
0011
1000
0100
1000
1100
0000
,
1000
0010
1000
0001
0010
0001
1000
0100
1000
0001
0100
0001
0010
0000
0000
0000
,
0100
0100
1100
1000
0001
0100
0101
0000
,
1010
0100
0001
0010
0022
0033
1100
0000
,
1000
0010
0100
0000
0001
0100
0001
0000
0010
0001
1000
0000
0100
0000
0010
0000
,
2002
0000
0000
3003
;
