#TITLE:Last Night On Earth;
#SUBTITLE:;
#ARTIST:Green Day;
#TITLETRANSLIT:;
#SUBTITLETRANSLIT:;
#ARTISTTRANSLIT:;
#GENRE:Rock Ballad;
#CREDIT:8Chasey 2023;
#MUSIC:Last Night On Earth.ogg;
#BANNER:Last Night On Earth.png;
#BACKGROUND:Last Night On Earth-bg.png;
#CDTITLE:cdtitle.png;
#SAMPLESTART:92.025;
#SAMPLELENGTH:16.000;
#SELECTABLE:YES;
#OFFSET:-0.025;
#BPMS:0.000=60.000
,220.000=56.000
,222.000=53.000
;
#STOPS:;
#BGCHANGES:;
#FGCHANGES:;

//--------------- dance-single - 8Chasey - 2025 chart ----------------
#NOTES:
     dance-single:
     8Chasey - 2025 chart:
     Beginner:
     1:
     0,0,0,0,0:
0000
0000
0000
0000
,
0000
0000
0000
0000
,
0000
0000
0000
0000
,
0000
0000
0000
0000
,
0001
0000
0000
0000
,
0001
0000
0000
0000
,
1000
0000
0000
0000
,
1000
0000
0000
0000
,
0001
0000
0000
0000
,
0001
0000
0000
0000
,
1000
0000
0000
0000
,
1000
0000
0000
0000
,
0010
0000
0010
0000
,
0010
0000
0000
0000
,
0100
0000
0100
0000
,
0100
0000
0000
0000
,
0001
0000
0000
0000
,
1000
0000
0000
0000
,
0001
0000
0000
0000
,
0100
0000
0100
0000
,
0100
0000
0000
0000
,
0010
0000
0010
0000
,
0010
0000
0000
0000
,
1000
0000
0000
0000
,
1000
0000
0000
0000
,
0001
0000
0000
0000
,
0001
0000
0000
0000
,
1000
0000
0000
0000
,
1000
0000
0000
0000
,
0001
0000
0000
0000
,
0001
0000
0000
0000
,
0100
0000
0100
0000
,
0100
0000
0000
0000
,
0010
0000
0010
0000
,
0010
0000
0000
0000
,
1000
0000
0000
0000
,
0001
0000
0000
0000
,
1000
0000
0000
0000
,
0100
0000
0100
0000
,
0100
0000
0000
0000
,
0010
0000
0010
0000
,
0010
0000
0000
0000
,
1000
0000
1000
0000
,
1000
0000
0000
0000
,
0001
0000
0001
0000
,
0001
0000
0000
0000
,
1000
0000
1000
0000
,
1000
0000
0000
0000
,
0001
0000
0001
0000
,
0001
0000
0000
0000
,
1000
0000
0000
0000
,
0001
0000
0000
0000
,
1000
0000
0000
0000
,
0001
0000
0000
0000
,
0000
0000
0000
0000
,
1000
0000
0000
0000
,
0001
0000
0000
0000
;

//--------------- dance-single - 8Chasey ----------------
#NOTES:
     dance-single:
     8Chasey:
     Easy:
     1:
     0.080559,0.108617,0.034176,0.192242,0,132,124,8,45,0,0,0.080559,0.108617,0.034176,0.192242,0,132,124,8,45,0,0:
0000
0000
0000
0000
,
0000
0000
0000
0000
,
0000
0000
0000
0000
,
0000
0000
0000
0000
,
1000
0001
0100
0000
,
0010
0000
0020
0030
,
1000
0000
0001
0000
,
0100
0100
0010
0000
,
1000
0100
0001
0010
,
0001
0000
1000
0000
,
0002
0000
0013
0000
,
2000
0000
3010
0000
,
0200
0000
0310
0000
,
0001
0001
0001
0000
,
0020
0000
0130
0000
,
1000
1000
1000
0000
,
0001
1000
1001
0000
,
0002
2003
3002
2003
,
3010
0000
1001
0000
,
0100
0100
0001
0001
,
0010
0010
1000
1000
,
0002
1003
2000
3001
,
0020
0000
0130
0000
,
1001
0000
0010
0000
,
1000
0001
0010
0000
,
0020
0000
0130
0000
,
0110
0000
0000
0000
,
1000
0100
0001
0100
,
1000
0000
0020
0000
,
0130
0000
0001
1000
,
1001
0000
0000
0000
,
0002
0000
0013
0000
,
1000
0100
1000
0000
,
2000
0000
3010
0000
,
0001
0100
0001
0000
,
0200
0000
0310
0000
,
2000
3002
2003
3002
,
1003
0000
1001
0000
,
0020
0000
0230
0000
,
0320
0000
0230
0000
,
0302
0000
2003
0000
,
3002
0000
0003
0000
,
0020
0000
0230
0000
,
0320
0000
0230
0000
,
2300
0000
3002
0000
,
2003
0000
3000
0000
,
0001
0000
0010
0100
,
2000
0000
3001
0000
,
1000
0000
0010
0100
,
0002
0000
0003
0000
,
1001
0000
0010
0000
,
0020
0230
0320
0230
,
0310
0000
0110
0000
,
0020
0000
0030
0000
,
0200
0000
0300
0000
,
0002
0000
0003
0000
,
2000
0000
3000
0000
;

//--------------- dance-single - 8Chasey ----------------
#NOTES:
     dance-single:
     8Chasey:
     Medium:
     3:
     0.148301,0.168959,0.029904,0.170882,0,243,236,7,40,0,0,0.148301,0.168959,0.029904,0.170882,0,243,236,7,40,0,0:
0000
0000
0000
0000
,
0000
0000
0000
0000
,
0000
0000
0000
0000
,
0000
0000
0000
0000
,
1000
0100
0100
0001
0020
0000
0031
0000
,
1000
1000
0100
1000
0002
0000
0103
0000
,
0020
1030
0002
0103
,
1000
0100
0010
0000
0001
0100
0010
0000
,
1000
1000
0001
1000
0100
0000
0010
0000
,
0001
0100
1000
0100
0002
0000
1003
0000
,
0010
0010
0100
0000
1000
0100
0001
1000
,
0002
1003
2000
3001
,
0001
0010
0001
0000
1000
0010
1000
0000
,
0001
0000
0001
0010
1000
0000
1000
0000
,
0100
0001
1000
0000
0100
1000
0001
0000
,
0010
0010
0100
0000
0010
0000
0100
0000
,
1000
0010
0100
0000
0010
0000
0100
0000
,
0002
0023
0230
2300
,
3001
0000
1001
0000
,
0001
0001
0001
0000
0001
0001
0001
0000
,
1000
1000
1000
0000
1000
1000
1000
0000
,
0010
0010
0100
0000
0200
0000
0310
0000
,
1000
0001
0010
0010
,
1000
0000
1000
0100
0001
0000
0100
0000
,
0010
0100
0001
0001
,
2000
3100
0002
0103
,
0010
0000
0010
0100
0010
0000
0010
0000
,
1000
0000
0001
0100
1000
0000
0001
0000
,
0010
0001
1000
0100
,
0001
0001
1000
1000
,
0010
0100
0010
0100
0010
0000
0001
0000
,
2000
3100
0002
0103
,
0010
1000
0001
1000
0100
0000
0000
0000
,
2000
3001
0002
1003
,
0010
0001
1000
0001
0100
0000
0000
0000
,
0001
0010
1000
0010
,
0200
0301
0020
1030
,
0001
1000
1001
0000
,
0020
0000
0030
0100
0002
0000
0003
1000
,
0200
0000
0300
1000
0002
0000
0003
0100
,
0010
0100
0001
0001
,
2000
3100
0101
0000
,
0020
0000
0030
0100
0002
0000
0003
0010
,
0200
0000
0300
1000
2000
0000
3001
0000
,
0001
0100
1000
0100
,
0020
0031
1100
0000
,
0001
0001
0010
0000
1000
1000
0010
0000
,
0100
0000
0010
0000
0100
0000
0010
0010
,
1000
0100
0010
0001
,
0001
0100
1000
0100
0001
0000
1001
0000
,
0010
0010
1000
0001
0100
0000
0100
0000
,
0200
0310
0002
1003
,
0010
0100
1001
0000
,
0002
0003
2000
3000
,
0020
0030
0200
0300
,
0002
0003
2000
3000
,
2002
0000
3003
0000
;

//--------------- dance-single - 8Chasey ----------------
#NOTES:
     dance-single:
     8Chasey:
     Hard:
     5:
     0.222757,0.24137,0.072625,0.217874,0.029904,365,348,17,51,0,0,0.222757,0.24137,0.072625,0.217874,0.029904,365,348,17,51,0,0:
0000
0000
0000
0000
,
0000
0000
0000
0000
,
0000
0000
0000
0000
,
0000
0000
0000
0000
,
0001
0001
0010
0001
0010
0010
0100
1000
,
0001
0001
0100
0010
2000
0000
3100
0000
,
0001
0010
1000
0010
0001
0100
0001
1000
,
0200
0000
1300
0010
0200
0000
0301
0000
,
1000
1000
0100
1000
0001
0100
0010
0100
,
0001
0010
0100
1000
0002
0000
1003
0000
,
0100
0010
0100
1000
0001
0100
0001
0000
,
2100
3001
0102
1003
,
0010
0000
0100
0000
0001
0000
0001
1000
0001
0000
0100
0000
0100
0000
0010
0000
,
2000
0100
3100
0010
0002
0100
0103
0000
,
1010
0100
0010
0000
0011
0100
1000
0000
,
0200
0010
0310
0001
0200
0010
0310
1000
,
0100
0000
0000
0000
0010
0000
0100
0010
0100
0000
0100
0000
0100
0000
1000
0000
,
0002
0000
0103
0010
2000
0000
3100
0010
,
0200
0310
2002
3003
,
0001
0100
0001
0000
0001
0000
0001
0000
1000
0100
1000
0000
1000
0000
1000
0000
,
0010
0100
0010
0000
0010
0000
0010
0000
0100
0000
0100
0000
0100
0000
0100
0000
,
0001
0100
1000
0100
0001
0010
1000
0010
,
0001
1000
1000
0001
0001
1000
1001
0000
,
0010
1000
0001
0100
0010
1000
0100
0010
,
0002
0000
0103
1000
0200
0000
1300
0000
,
0010
0100
0001
0010
0100
0100
0010
0001
,
2000
0000
3010
0100
0020
0000
0130
0010
,
1000
0100
1000
0000
0001
0100
0001
0000
,
1000
1000
0001
0000
0100
0001
0010
0100
,
1000
0001
1000
1000
0200
0000
0310
0100
,
2000
0000
3001
0100
0002
0000
0013
0000
,
1100
0010
0100
0001
0101
0010
0100
1000
,
0002
0000
0103
0010
2000
0000
3100
1100
,
0001
0010
0100
0010
0001
1000
1000
0010
,
0200
0000
0310
1000
0002
0000
0103
0101
,
1000
0000
0001
1000
0010
0010
0010
0000
,
0200
0310
0020
0130
,
0001
0100
1000
0100
2002
0000
3003
0000
,
0020
0000
1030
0001
0200
0000
0301
0010
,
0200
0000
1300
0001
2000
0000
3010
0100
,
0001
0000
1000
0100
0100
1000
0010
0100
,
0002
0000
0103
0010
0100
0010
0200
0000
,
0310
1000
1000
1000
0001
1000
1000
1000
,
0100
0010
0010
0010
0001
0010
0010
0010
,
0100
1000
0100
0000
0010
0001
0010
0000
,
0100
1000
0001
0000
0101
0000
1100
0000
,
0010
1000
0001
0001
0010
0001
1000
1000
,
0200
0000
0310
0100
1000
0001
1000
0000
,
0010
0010
0100
0001
0010
0010
0100
1000
,
0002
0000
1003
0100
0020
0000
0130
0000
,
1100
0001
0100
0000
0101
1000
0100
0000
,
0020
0130
2000
3001
,
0010
0000
0010
0000
0100
0010
0100
0000
0220
0000
0000
0000
0330
0000
0000
0000
,
0002
0000
0000
0013
0000
0001
0010
0100
2000
0000
0000
3010
0100
0000
0100
0000
,
0200
0000
0000
0310
0000
0100
0001
0010
0002
0000
0000
1003
0100
0000
1000
0000
,
0002
0000
0103
0010
2000
0000
3100
0010
,
2002
0000
3003
0000
;

//--------------- dance-double - 8Chasey - 2025 chart ----------------
#NOTES:
     dance-double:
     8Chasey - 2025 chart:
     Easy:
     1:
     0,0,0,0,0:
00000000
00000000
00000000
00000000
,
00000000
00000000
00000000
00000000
,
00000000
00000000
00000000
00000000
,
00000000
00000000
00000000
00000000
,
00001000
00100000
00001000
00000000
,
01000000
01000000
00100000
00000000
,
10000000
00000000
00010000
00000000
,
01000000
00000000
00100000
00000000
,
10000000
01000000
00010000
00000000
,
00001000
00010000
00000100
00000000
,
00001000
00000000
00000001
00000000
,
00000100
00000000
00000010
00000000
,
00002000
00000000
00003002
00000000
,
00000103
00000100
00000010
00000010
,
00020000
00000000
00032000
00000000
,
00103000
01000000
00100000
01000000
,
20000000
00000000
30020000
00000000
,
02030000
03200000
02300000
03200000
,
10300000
00010000
10010000
00000000
,
01000000
01000000
00010000
00010000
,
00001000
00001000
00000100
00000100
,
00000002
00000013
00002000
00003100
,
00010000
00001000
00200000
01300000
,
01100000
00000000
10000000
00000000
,
00010000
00000000
01000000
00000000
,
00002000
00000000
00013000
00000000
,
00000020
00000000
00000130
00000000
,
00001000
00000100
00000001
00000100
,
00010000
00000000
00002000
00000000
,
01003000
00000000
00010000
10000000
,
10010000
00000000
00000000
00000000
,
00200000
00000000
02300000
00000000
,
13000000
01000000
10000000
00000000
,
02000000
00000000
03200000
00000000
,
00301000
00010000
00001000
00000000
,
00000200
00000000
00000320
00000000
,
00002030
00003002
00002003
00003002
,
00000103
00000010
00001001
00000000
,
00002000
00000000
00003200
00000000
,
00000320
00000000
00000032
00000000
,
00000203
00000000
00002300
00000000
,
00023000
00000000
00030000
00000000
,
00200000
00000000
02300000
00000000
,
03020000
00000000
20030000
00000000
,
32000000
00000000
03020000
00000000
,
00032000
00000000
00003000
00000000
,
00100000
00000000
00010000
00000000
,
00200000
00000000
00300000
00000000
,
01000000
00000000
10000000
00000000
,
02000000
00000000
03000000
00000000
,
10000000
00010000
10000000
00000000
,
00200000
02300000
03200000
02300000
,
03001000
00010000
00011000
00000000
,
00020000
00000000
00030000
00000000
,
00002000
00000000
00003000
00000000
,
02000000
00000000
03000000
00000000
,
00200000
00000000
00300000
00000000
;

//--------------- dance-double - 8Chasey - 2025 chart ----------------
#NOTES:
     dance-double:
     8Chasey - 2025 chart:
     Medium:
     3:
     0,0,0,0,0:
00000000
00000000
00000000
00000000
,
00000000
00000000
00000000
00000000
,
00000000
00000000
00000000
00000000
,
00000000
00000000
00000000
00000000
,
00010000
00001000
00010000
00000000
00000200
00000000
00000310
00000000
,
00000001
00000100
00000001
00000000
00002000
00000000
00003100
00000000
,
00010000
00001000
00100000
00000000
00001000
00010000
00000100
00000000
,
00000010
00000001
00000100
00000000
00001000
00010000
00001000
00000000
,
00100000
00010000
00100000
00000000
02000000
00000000
13000000
00000000
,
00100000
10000000
00100000
00000000
02000000
00000000
03010000
00000000
,
00100000
00001000
00010000
00000000
00001000
00010000
00000100
00000000
,
00001000
00000001
00000100
00000000
00000010
00001000
00000100
00000000
,
00020000
00001000
00000100
00031000
,
00100000
00001000
00100000
00000000
00010000
01000000
00010000
00000000
,
20000000
01000000
00100000
30010000
,
00100000
00001000
00100000
00000000
00001000
00010000
00000100
00000000
,
00002000
00000100
00000001
00003010
,
00002000
00003200
00000320
00000032
,
00001003
00000001
00001001
00000000
,
00001000
00001000
00001000
00000000
00000100
00000100
00000100
00000000
,
00010000
00010000
00010000
00000000
00100000
00100000
00100000
00000000
,
10000000
10000000
10000000
00000000
00010000
00010000
00010000
00000000
,
01000000
00100000
01000000
00100000
01000000
00100000
01000000
00000000
,
00020000
00130000
00002000
00013000
,
00000100
00001000
00000010
00000000
00000200
00000000
00000301
00000000
,
00002000
00003100
00020000
00031000
,
00100000
00000000
00010000
10000000
00010000
00000000
01000000
00000000
,
10000000
00000000
01000000
00001000
00010000
00000000
00000100
00000000
,
00001000
00000010
00000200
00000301
,
00001000
00001000
00000010
00000010
,
00010000
00001000
00010000
00000000
00001000
00000000
00100000
00000000
,
00020000
01000000
10000000
00130000
,
01000000
10000000
01000000
00000000
00100000
00010000
00100000
00000000
,
00002000
00100000
00010000
01003000
,
00010000
00100000
00001000
00000000
00010000
00000000
00000100
00000000
,
00002000
00000100
00000010
00003001
,
00000020
00000230
00020300
00032000
,
00103000
01000000
01100000
00000000
,
20000000
00000000
30000000
10000000
02000000
00000000
03000000
01000000
,
00200000
00000000
00300000
00100000
00020000
00000000
00030000
01000000
,
00002000
00000000
00003000
00010000
00000200
00000000
00000300
00000010
,
00000002
00001003
00000100
00001000
,
00000020
00000000
00000030
00000010
00000200
00000000
00000300
00000100
,
00002000
00000000
00003000
00001000
00020000
00000000
00030000
00001000
,
00200000
00000000
00300000
00010000
02000000
00000000
03000000
00100000
,
20000000
31000000
00100000
10010000
,
00010000
00100000
00001000
00010000
,
00000100
00001000
00000100
00000000
,
00001000
00000010
00000100
00000001
,
00001000
00000100
00010000
00000000
,
00001000
01000000
00001000
00100000
,
02000000
23000000
30020000
00230000
,
00301000
00010000
00011000
00000000
,
00002000
00003000
00200000
00300000
,
00020000
00030000
02000000
03000000
,
00002000
00003000
00020000
00030000
,
00022000
00000000
00033000
00000000
;

//--------------- dance-double - 8Chasey - 2025 chart ----------------
#NOTES:
     dance-double:
     8Chasey - 2025 chart:
     Hard:
     6:
     0,0,0,0,0:
00000000
00000000
00000000
00000000
,
00000000
00000000
00000000
00000000
,
00000000
00000000
00000000
00000000
,
00000000
00000000
00000000
00000000
,
00000100
00000000
00010000
00000000
00001000
00000000
00010000
00001000
00000000
00100000
00001000
00000000
00100000
00000000
01000000
00000000
,
20000000
00000000
30100000
10000000
00020000
00000000
01030000
00000000
,
00001000
00000000
00001000
00000000
00010000
00000000
00000100
00000000
00001000
00000010
00000000
00001000
00000000
00000001
00000000
00000100
,
00000020
00000000
00010030
00001000
00200000
00000000
01300000
00000000
,
10000000
00000000
00100000
00000000
10000000
00000000
00010000
00100000
00000000
00010000
00100000
00000000
00001000
00000000
00010000
00000000
,
00000200
00000000
00000310
00000001
00000200
00000000
00001300
00000000
,
00010000
00000000
00001000
00000000
00100000
00000000
00100000
00000000
00010000
10000000
00000000
00100000
00000000
01000000
00000000
00010000
,
00200000
00000000
01300000
00010000
00002000
00000000
00013000
00000000
,
00001100
00000000
00000010
00000000
00000001
00000000
00000001
00001000
00000001
00000000
00000100
00000000
00001000
00000000
00010000
00001000
,
00020000
00001000
00031000
00100000
02000000
10000000
13000000
00100000
,
01010000
00000000
00010000
00000000
00100000
00000000
00001000
00100000
00001000
00000000
00010000
00000000
00000100
00001000
00000100
00000000
,
00000010
00000001
00000100
00001000
00020000
00001000
00000100
00031000
,
00101000
00000000
00100000
00000000
00010000
10000000
00010000
00000000
10000000
01000000
00000000
10000000
01000000
00000000
00100000
00000000
,
00002000
00000000
00013000
00000100
00000020
00000000
00000031
00000100
,
00000002
00000000
00000103
00000010
00000220
00000000
00000330
00000000
,
00001000
00000100
00001000
00000000
00001000
00000000
00001000
00000000
00000100
00010000
00000100
00000000
00000100
00000000
00000100
00000000
,
00010000
00001000
00010000
00000000
00010000
00000000
00010000
00000000
00100000
00000000
00100000
00000000
00100000
00000000
00100000
00000000
,
10000000
10000000
10000000
10000000
01000000
01000000
01000000
01000000
,
00010000
00001000
00001000
00010000
00010000
00001000
00010000
00011000
,
00100000
00000000
00010000
00000000
01000000
00000000
00100000
10000000
00000000
00100000
10000000
00000000
01000000
00000000
00010000
00000000
,
00002000
00000000
00103000
00001000
00020000
00000000
00030100
00000000
,
00001000
00000000
00000010
00000000
00001000
00000000
00000100
00000000
00000010
00000001
00000000
00000010
00000000
00000100
00000000
00001000
,
00000020
00000000
00000000
00000000
00000130
00000000
00001000
00000000
00020000
00000000
00000000
00000000
00031000
00010000
00001000
00000000
,
00100000
00000000
00010000
00000000
10000000
00000000
01000000
10000000
01000000
00000000
10000000
00000000
00100000
00000000
01000000
00000000
,
00020000
00000000
10030000
01000000
00020000
00000000
00031000
00100000
,
00010000
00000000
00010000
00000000
01000000
00000000
00001000
00000000
00010000
00000100
00000000
00001000
00000000
00000001
00000000
00000010
,
00000200
00000000
00000000
00000000
00010300
00000000
00001000
00000000
00200000
00000000
00000000
00000000
01300000
00100000
01000000
00000000
,
11000000
10000000
00010000
01000000
01010000
00010000
00100000
00001000
,
00020000
00000000
00001000
00000000
00030100
00000000
00000010
00000000
00000002
00000000
00000100
00000000
00001003
00000010
00001000
00000000
,
00010100
00010000
00001000
01000000
01001000
00100000
01000000
10000000
,
00200000
00000000
01000000
00000000
10300000
00000000
01000000
00000000
00020000
00000000
00001000
00000000
00030100
00001000
00000100
00000000
,
00001100
00001000
00000010
00000100
00000101
00000001
00001000
00000100
,
00020000
00230000
20300000
32000000
,
03010000
00001000
00000100
00000010
00000220
00000000
00000330
00000000
,
00002000
00000000
00003100
00010000
00002000
00000000
00103000
01000000
,
00020000
00000000
00031000
00100000
00020000
00000000
10030000
01000000
,
00100000
00000000
00010000
00000000
01000000
00010000
01000000
00000000
00100000
00000000
10000000
00000000
01000000
10000000
01000000
00000000
,
00020000
00000000
00031000
00010000
00000100
00001000
00000200
00000000
,
00000320
00000000
00000031
00000100
00000020
00000000
00001030
00000100
,
00020000
00000000
00031000
00100000
00020000
00000000
01030000
00100000
,
10000000
00000000
01000000
00000000
10000000
00100000
10000000
00000000
00010000
00000000
01000000
00000000
00010000
00100000
00010000
00000000
,
02000000
00000000
00000000
00000000
03001000
00000000
00010000
00000000
00010100
00000000
00001000
00000000
00000001
00001000
00000001
00000000
,
00000010
00000000
00000001
00000000
00001000
00000001
00000000
00001000
00000100
00000000
00010000
00000000
00001000
00000000
00100000
00000000
,
00020000
00000000
01000000
00000000
10030000
00000000
00100000
00000000
20000000
00000000
01000000
00000000
30010000
00100000
00010000
00000000
,
01000000
00100000
00100000
10000000
01000000
00100000
00100000
00001000
,
00020000
00000000
00000100
00000000
00030100
00000000
00001000
00000000
00000002
00000000
00000010
00000000
00000013
00000100
00000010
00000000
,
00000110
00000100
00001000
00000001
00001001
00000100
00001000
00010000
,
00002000
00000000
00103000
00010000
02000000
00000000
03100000
10000000
,
01000000
00000000
00010000
00000000
00001000
00010000
00001000
00000000
00022000
00000000
00000000
00000000
00033000
00000000
00000000
00000000
,
00020000
00000000
00000000
00030100
00000000
00001000
00000100
00000010
00000200
00000000
00000000
00001300
00000001
00000000
00000100
00000000
,
00000020
00000000
00000000
00001030
00000100
00010000
00001000
00000000
00200000
00000000
00000000
00310000
10000000
00000000
01000000
00000000
,
00200000
00000000
00310000
01000000
00002000
00000000
00013000
00000100
,
00000020
00000000
00000000
00000030
;
