#TITLE:LUCKY? STAFF;
#SUBTITLE:;
#ARTIST:Mutsuhiko Izumi;
#TITLETRANSLIT:;
#SUBTITLETRANSLIT:;
#ARTISTTRANSLIT:;
#GENRE:Punk;
#CREDIT:8Chasey 2025;
#MUSIC:LUCKY STAFF.ogg;
#BANNER:;
#BACKGROUND:;
#CDTITLE:;
#SAMPLESTART:26.300;
#SAMPLELENGTH:12.000;
#SELECTABLE:YES;
#OFFSET:-0.986;
#BPMS:0.000=237.000;
#STOPS:;
#BGCHANGES:;
#FGCHANGES:;

//--------------- dance-single - 8Chasey ----------------
#NOTES:
     dance-single:
     8Chasey:
     Beginner:
     3:
     0,0,0,0,0:
0000
0000
0000
0000
,
0001
0000
0000
0000
,
1000
0000
0000
0000
,
0001
0000
1000
0000
,
0001
0001
0001
0000
,
1000
0000
0000
0000
,
0001
0000
0000
0000
,
1000
0000
0001
0000
,
1000
1000
1000
0000
,
0010
0000
0000
0000
,
0100
0000
0000
0000
,
0010
0000
0100
0000
,
0010
0010
0010
0000
,
0100
0000
0000
0000
,
0010
0000
0000
0000
,
0100
0000
0010
0000
,
0100
0100
0100
0000
,
1001
0000
0000
0000
,
0001
0000
0000
0000
,
1000
0000
0001
0000
,
1000
0000
1000
0000
,
1001
0000
0000
0000
,
1000
0000
0000
0000
,
0001
0000
1000
0000
,
0001
0000
0001
0000
,
1000
0000
0000
0000
,
1000
0000
0000
0000
,
0001
0000
1000
0000
,
0001
0001
0001
0000
,
0001
0000
0000
0000
,
0001
0000
0000
0000
,
1000
0000
0001
0000
,
1000
1000
1000
0000
,
0110
0000
0000
0000
,
0010
0000
0000
0000
,
0100
0000
0010
0000
,
0100
0000
0100
0000
,
0110
0000
0000
0000
,
0100
0000
0000
0000
,
0010
0000
0100
0000
,
0010
0000
0010
0000
,
1000
0000
1000
0000
,
0001
0000
1000
0000
,
0001
0000
0001
0000
,
1000
0000
0001
0000
,
1000
1000
1000
0000
,
0001
0001
0001
0000
,
0100
0100
0100
0000
,
0010
0010
0010
0000
,
1000
0000
0001
0000
,
1000
1000
1000
0000
,
0001
0000
1000
0000
,
0001
0001
0001
0000
,
1000
0000
1000
0000
,
0001
0000
0001
0000
,
0100
0000
0010
0000
,
0100
0000
0010
0000
,
0110
0000
0000
0000
,
1001
0000
0000
0000
,
1000
0000
0001
0000
,
1000
0000
1000
0000
,
0001
0000
1000
0000
,
0001
0001
0001
0000
,
0001
0000
1000
0000
,
0001
0000
0001
0000
,
1000
0000
0001
0000
,
1000
1000
1000
1000
,
1000
1000
1000
1000
,
0000
0000
0001
0000
,
1000
0000
0001
0001
,
0001
0000
1000
0000
,
0001
0000
1000
1000
,
1000
0000
0010
0000
,
0100
0000
0010
0010
,
0010
0000
0100
0000
,
0010
0000
0100
0100
,
0100
0000
0000
0000
,
0000
0000
0000
0000
,
0110
0000
1001
0000
,
0010
0010
0010
0000
,
1001
0000
0000
0000
;

//--------------- dance-single - 8Chasey ----------------
#NOTES:
     dance-single:
     8Chasey:
     Easy:
     6:
     0,0,0,0,0:
0000
0000
0000
0000
,
0001
0000
0100
0000
,
0010
0000
1000
0000
,
0001
0000
0100
0001
,
0000
1000
0001
0000
,
1000
0000
0100
0000
,
0010
0000
0001
0000
,
1000
0000
0100
1000
,
0000
0001
1000
0000
,
0010
0000
0100
0000
,
0001
0000
1000
0000
,
0100
0000
0010
0100
,
0000
1000
0001
0000
,
0100
0000
0010
0000
,
1000
0000
0001
0000
,
0010
0000
0100
0010
,
0100
0000
0110
0000
,
0001
0000
0100
0000
,
0001
0100
0001
0000
,
1000
0001
1000
0000
,
0001
0000
1001
0000
,
1000
0000
0100
0000
,
1000
0100
1000
0000
,
0001
1000
0001
0000
,
1000
0000
1001
0000
,
0001
0000
0010
0000
,
0100
0000
1000
0000
,
0001
0000
0100
0010
,
0000
0100
0001
0100
,
0001
0000
1000
0000
,
0100
0000
1000
0000
,
0010
0000
1000
0100
,
0000
0010
0100
0010
,
0110
0000
0100
0000
,
1000
0010
1000
0000
,
0100
0000
0010
0001
,
0010
0000
0110
0000
,
1001
0000
0001
0100
,
1000
0000
0100
0000
,
0010
0000
1000
0100
,
0001
0000
1100
0000
,
0010
0001
0010
0001
,
0010
0001
0010
0000
,
0100
0000
1000
0000
,
0001
0000
1000
0000
,
0010
1000
0010
1000
,
0010
1000
0010
0000
,
1000
0000
0001
0000
,
0100
0000
0001
0000
,
0010
0100
0010
0100
,
0010
0100
0010
0000
,
0100
0010
0100
0010
,
0100
0010
0100
0000
,
1000
0010
1000
0000
,
0001
0100
0001
0000
,
1000
0000
0001
0000
,
0100
0000
0010
0000
,
1000
0000
1000
0000
,
0001
0000
0001
0000
,
1001
0000
1000
0100
,
0010
0000
0001
0100
,
0010
0000
1000
0001
,
1000
0000
1001
0000
,
0110
0000
0010
1000
,
0100
0000
0010
0001
,
0100
0000
0010
0100
,
0010
0000
0010
0000
,
0100
0000
0100
0000
,
0001
0010
0001
0000
,
0001
0000
1000
0001
,
1001
0000
1000
0010
,
1000
0000
0001
1000
,
1001
0000
0001
0100
,
0001
0000
0100
0010
,
0110
0000
0010
1000
,
0010
0000
1000
0100
,
0110
0000
0000
0000
,
0000
0000
0000
0000
,
0010
0010
0100
0100
,
1000
0001
1000
0001
,
1001
0000
0000
0000
;

//--------------- dance-single - 8Chasey ----------------
#NOTES:
     dance-single:
     8Chasey:
     Medium:
     8:
     0,0,0,0,0:
0000
0000
0000
0000
,
0001
0000
0000
1000
0000
0000
0010
0000
,
1000
0000
0000
0001
0000
0000
0100
0000
,
0010
0000
0000
0100
0000
0000
0010
0000
,
0100
0001
0000
0001
0000
0000
0000
0000
,
1000
0000
0000
0010
0000
0000
1000
0000
,
0001
0000
0000
0100
0000
0000
0001
0000
,
0100
0000
0000
0010
0000
0000
0100
0000
,
0010
1000
0001
0000
,
0010
0000
0000
0001
0000
0000
0001
0000
,
0100
0000
0000
0010
0000
0000
1000
0000
,
0010
0000
0000
1000
0000
0000
1000
0000
,
0100
1000
0000
1000
0000
0000
0000
0000
,
0010
0000
0000
1000
0000
0000
1000
0000
,
0100
0000
0000
0010
0000
0000
0001
0000
,
0010
0000
0000
0001
0000
0000
0001
0000
,
1001
0000
1000
0001
,
0100
0001
0100
0001
,
1000
1000
0001
1001
,
1000
0010
0100
0001
,
1000
0000
0100
0110
,
0100
1000
0100
1000
,
0001
0001
1000
1001
,
0001
0100
1000
0100
,
0010
0010
0100
0100
,
0001
0000
0000
0010
0000
0000
0110
0000
,
0100
0000
0000
1000
0000
0000
0001
0000
,
1000
0000
0000
0010
0000
0000
0110
0000
,
0000
0110
1001
1001
,
1000
0000
0000
0100
0000
0000
0110
0000
,
0010
0000
0000
0001
0000
0000
1000
0000
,
0001
0000
0000
0100
0000
0000
0110
0000
,
0000
1001
0110
1001
,
1000
0100
0001
0100
,
1000
1000
0001
0101
,
0001
0100
1000
0100
,
0010
0000
0100
0110
,
1000
0010
0001
0010
,
0100
0001
0010
0011
,
0001
0100
1000
0100
,
0010
0000
0100
0000
0010
0100
0010
0000
,
1010
0000
0000
1000
0000
0000
0101
0000
,
0000
0001
0000
0000
1001
0000
0000
0000
,
1000
0100
0010
0001
,
1000
0000
0001
0000
1000
0000
0000
0001
,
0000
0000
0100
0000
0100
0000
0000
1000
,
0000
0000
0100
0000
0100
0000
0000
0010
,
0000
0000
0100
0000
0100
0000
0000
0110
,
0000
0010
0100
0001
,
0010
0010
0001
0001
,
1000
1000
0100
0100
,
0010
0100
0010
0100
,
1000
1001
0000
0001
,
0101
0000
1010
0000
,
1100
0011
0000
0010
,
0001
0100
1000
0100
,
0001
1000
0100
0010
,
0001
0001
1000
1000
,
0001
1000
1001
0110
,
0010
0000
0000
1000
0000
0000
0100
0000
,
0010
0000
0000
0001
0000
0000
0100
0000
,
0001
0000
0000
1000
0000
0001
1000
0000
,
0001
0101
1100
1000
,
0100
0000
0000
1000
0000
0000
0010
0000
,
0100
0000
0000
0001
0000
0000
0010
0000
,
0100
0000
0000
0010
0000
0100
0010
0000
,
0100
0100
1000
1000
,
0001
0001
1001
1001
,
0001
0100
0001
0000
,
1000
0010
1000
1001
,
0001
0010
0001
0000
,
1000
0100
1000
1010
,
0010
0100
0010
0000
,
0100
0001
0100
0101
,
0001
1000
0100
0010
,
0001
1000
0010
0100
,
1001
0000
0000
0000
,
0000
0000
0000
0000
,
0001
0010
0100
1000
,
0001
0100
0001
0000
1000
0010
1000
0000
,
1001
0000
0000
0000
;

//--------------- dance-single - 8Chasey ----------------
#NOTES:
     dance-single:
     8Chasey:
     Hard:
     9:
     0,0,0,0,0:
0000
0000
0000
0000
,
0001
0000
0000
1000
0000
0100
1000
0000
,
0010
0000
0000
1000
0000
0001
0100
0000
,
0010
0000
0000
0100
0000
0010
1000
0000
,
0100
0010
0000
0100
0000
0000
0000
0000
,
1000
0000
0000
0001
0000
1000
0010
0000
,
0100
0000
0000
0001
0000
0100
0001
0000
,
1000
0000
0000
0100
0000
0010
0100
0000
,
1000
0001
1001
0000
,
0010
0000
0000
0100
0000
0001
0100
0000
,
0010
0000
0000
1000
0000
0100
1000
0000
,
0100
0000
0000
1000
0000
0001
1000
0000
,
0010
0100
0000
0010
0000
0000
0000
0000
,
0100
0000
0000
0001
0000
1000
0001
0000
,
0010
0000
0000
0001
0000
0010
0100
0000
,
1000
0000
0000
0100
0000
1000
0001
0000
,
0010
0000
0001
0000
0100
0001
0100
0000
,
0010
1000
0010
1000
,
0001
0000
1000
0001
1000
0000
0001
0000
,
0010
0000
0001
1000
0001
0000
1000
0000
,
0100
1000
0000
0001
1000
0000
1001
0000
,
0001
0100
0001
0100
,
0010
0000
1000
0100
1000
0000
0010
0000
,
0100
0000
0001
0100
0001
0000
1000
0000
,
0100
1000
0000
0010
0100
0000
0110
0000
,
0100
0000
1000
0001
0000
0000
0010
0001
,
0010
0000
0001
1000
0000
0000
0100
1000
,
0100
0000
1000
0010
0000
0000
0100
0010
,
0100
0001
0101
1100
,
1000
0000
0010
1000
0000
0000
0001
0010
,
0001
0000
0010
0001
0000
0000
0100
0010
,
0100
0000
0010
1000
0000
0000
0100
1000
,
0100
0010
0011
1010
,
1000
0100
1000
0001
,
0010
0000
0001
0100
0001
0000
0100
0000
,
0010
0000
1000
0010
1000
0000
0100
0000
,
0010
0100
0000
1000
0001
0000
1001
0000
,
1000
0010
1000
0100
,
0010
0001
0000
0010
0100
0000
1000
0000
,
0010
0000
1000
0100
1000
0000
0001
0000
,
0100
0010
0000
1000
0100
0000
0110
0000
,
0010
0001
0010
0100
,
1000
0001
0100
0010
,
0100
0001
0100
0000
0010
1000
0010
0000
,
1000
0100
1000
0000
0001
0000
0100
0000
,
0010
0000
1000
0100
1000
0000
0001
0010
,
0000
0001
0100
0000
0010
0000
0100
0010
,
0100
0000
0010
1000
0010
0000
0100
0000
,
0001
0000
0010
0000
0100
0010
0100
0000
,
1000
0100
1000
0000
0100
0000
0010
0000
,
0001
0010
0001
0000
0100
0000
0010
0000
,
0100
0001
0100
0000
0001
0000
1000
0000
,
0100
0000
1000
0010
0100
0000
0010
0000
,
0100
0001
1000
0010
,
0100
0010
0100
0000
0001
0000
0000
0000
,
0010
0000
0001
0010
0001
0000
1000
0000
,
0100
0010
0100
0000
1000
0000
0000
0000
,
0001
0101
1000
1100
,
0100
0110
0010
1001
,
0001
0000
0100
0001
0000
0000
1000
0001
,
1000
0000
0100
1000
0000
0000
0010
0100
,
0010
0000
1000
0010
0000
0000
0100
0001
,
0100
0010
1010
1100
,
1000
0000
0100
0010
0000
0000
0001
0000
,
0100
0000
0001
0010
0000
0000
0001
0000
,
1000
0000
0100
1000
0000
0000
0010
0100
,
0010
1000
1100
0011
,
0010
0001
0101
1010
,
1000
0000
0100
0000
1000
0000
0001
0010
,
0000
0001
0100
0000
0010
0000
0100
0000
,
0110
0000
0010
0000
1000
0000
0100
1000
,
0000
0001
0100
0000
0010
0000
1000
0000
,
1001
0000
0001
0000
0010
0000
0001
1000
,
0000
0100
1000
0000
0010
0000
0100
0000
,
0101
0000
0001
0000
1000
0100
1000
0100
,
0000
1000
0001
0100
,
0220
0000
0000
0000
,
0000
0000
0330
0000
,
0001
0100
0001
0000
1000
0010
1000
0000
,
0100
1000
0010
0100
0001
0010
0100
0000
,
1001
0000
0000
0000
;

//--------------- dance-single - 8Chasey ----------------
#NOTES:
     dance-single:
     8Chasey:
     Challenge:
     12:
     0,0,0,0,0:
0000
0000
0000
0000
,
0001
0010
0001
1000
0000
0010
1000
0010
,
1000
0100
1000
0001
0000
0100
0001
0100
,
0010
1000
0100
0010
0000
0110
0000
0100
,
1000
0001
0000
2002
0000
0000
3003
0000
,
1000
0010
1000
0001
0000
0010
0001
0100
,
0001
0010
0001
1000
0000
0100
1000
0010
,
0100
0010
1000
0001
0000
1001
0000
1000
,
0100
0011
2200
3300
,
0100
1000
0001
0010
0000
0010
0001
0100
,
0010
1000
0010
1000
0000
0000
0100
1000
,
0010
0100
0001
0010
0000
0110
0000
0100
,
1000
0001
0000
2002
0000
0000
3003
0000
,
0100
0001
0100
0010
0000
1010
0000
1000
,
0100
1000
0100
0010
0000
0011
0000
0010
,
0001
1000
0010
0100
0000
0001
0100
0001
,
1000
0000
0010
0000
1000
0000
0010
0000
0100
0001
0100
0001
1000
0100
1000
0100
,
0010
0000
0001
0100
0010
1000
0100
0000
,
1000
0000
0000
0000
0100
0000
0000
0000
0000
1000
0000
0000
0001
0000
0000
0000
0000
0000
1001
0000
0000
0000
0000
0000
,
0001
0010
0001
1000
0010
1000
0100
0010
,
0100
1000
0000
0202
0000
0000
0303
0000
,
0001
0000
0010
0001
1000
0010
1000
0000
,
0100
0000
0000
0000
1000
0000
0000
0000
0000
1000
0000
0000
0001
0000
0000
0000
0000
0000
0101
0000
0000
0000
0000
0000
,
0100
0010
0100
0001
1000
0010
1000
0100
,
0010
0000
0001
0000
1000
0000
0010
0000
1000
0100
1000
0000
0001
0000
0000
0000
,
0100
0001
0100
0010
0000
0100
0110
0010
,
1000
0010
1000
0100
0000
0010
0110
0100
,
1000
0001
0100
0010
0000
1000
1001
0001
,
0100
0000
0101
0001
1001
1000
1100
0000
,
0100
0010
0100
1000
0000
0001
1001
1000
,
0010
1000
1000
0010
0000
1000
1001
0001
,
0100
0010
1000
0010
0000
0100
0110
0010
,
1000
0000
1100
1000
1001
0001
0101
0000
,
0100
0010
1000
0000
0010
0100
0001
0000
,
0100
0000
0000
0000
0001
0000
0000
0000
0000
0001
0000
0000
0010
0000
0000
0000
0000
0000
0011
0000
0000
0000
0000
0000
,
0010
0001
0010
0001
1000
0100
1000
0010
,
0100
0001
0000
2020
0000
0000
3030
0000
,
1000
0000
0100
1000
0010
1000
0001
0000
,
0010
0000
0000
0000
0001
0000
0000
0000
0000
1000
0000
0000
0010
0000
0000
0000
0000
0000
1010
0000
0000
0000
0000
0000
,
1000
0100
1000
0100
0001
0100
0010
0001
,
0010
0000
0001
0000
0100
0000
0000
0000
0010
1000
0010
0000
1000
0000
0000
0000
,
0100
1000
1000
0001
0010
0010
0001
0100
,
0100
0010
1000
0100
0010
0100
0020
0000
,
0031
0100
0001
0001
1000
0010
1000
1000
,
0100
1000
0001
0100
0010
1000
1000
0020
,
0000
1030
0010
1000
0100
1000
0001
0020
,
0000
0031
0100
0001
1000
0100
0010
0200
,
0000
1300
0100
1000
0001
0010
0001
0200
,
0000
0000
0310
0000
1000
0000
1000
0000
0001
0100
0001
0100
0001
0000
0000
0000
,
1000
0010
1000
0000
0010
0000
0100
0000
0001
0100
0001
0000
0010
0000
0001
0000
,
0010
0100
0010
0000
0100
0000
1000
0000
0001
1000
0001
0000
1000
0001
1000
0000
,
0010
1000
0010
0000
0100
0000
0001
0000
0010
0001
0010
0000
0001
0000
1000
0000
,
0100
0010
0100
0000
0020
0000
0000
0000
0031
0000
0010
0000
0001
0000
1000
0000
,
1001
0000
1000
0000
0010
0000
0100
0000
0001
0000
0010
0000
,
0100
0000
1100
0000
1000
0100
0001
0000
,
0100
0010
0100
0010
0001
1000
0001
1000
,
0010
1000
0010
0100
0001
0100
0010
0010
,
1010
0101
0011
1100
,
0101
0000
1010
0000
0110
0110
1001
0000
,
0001
1000
0100
0001
0000
0100
0110
0010
,
0001
1000
1000
0010
0000
0100
0110
0010
,
1000
0001
0100
1000
0000
0100
0110
0010
,
1000
0000
1010
1000
1001
0001
0011
0000
,
0010
0001
0010
0100
0000
0010
0110
0100
,
1000
0001
0100
0010
0000
0010
0110
0100
,
0001
1000
1000
0100
0000
0010
0110
0100
,
1000
1000
0001
0001
0100
0100
0010
0010
,
1000
0010
1000
0001
0010
0001
0100
0000
,
1001
0000
1000
0020
1000
1030
0001
0100
,
0001
0010
0001
1000
1001
0000
0110
0000
,
1001
0000
1000
0200
0000
0010
0310
0001
,
1000
0010
0110
0000
0101
0000
1100
0000
,
1001
0000
1000
0010
0200
0001
0301
0010
,
0001
1000
1100
0000
0011
0010
0110
0000
,
1001
0001
0100
0001
1000
0010
1000
0100
,
0000
1000
1000
0000
0110
0000
0011
0000
,
2001
0000
0000
0000
,
3002
0000
0000
0000
,
0103
0100
0001
0001
1000
0010
1000
0010
,
1000
0000
1000
0000
0100
0000
1000
0000
0010
1000
0010
0100
0010
1000
0001
0000
,
1001
0000
0000
0000
;
