#TITLE:Korevi;
#SUBTITLE:;
#ARTIST:Sinetile's Odyssey;
#TITLETRANSLIT:;
#SUBTITLETRANSLIT:;
#ARTISTTRANSLIT:;
#GENRE:;
#CREDIT:8Chasey 2025;
#MUSIC:Korevi.ogg;
#BANNER:Korevi-bn.png;
#BACKGROUND:Korevi-bg.png;
#CDTITLE:;
#SAMPLESTART:66.980;
#SAMPLELENGTH:12.000;
#SELECTABLE:YES;
#OFFSET:-9.990;
#BPMS:0.000=120.000;
#STOPS:;
#BGCHANGES:;
#FGCHANGES:;

//--------------- dance-single - 8Chasey ----------------
#NOTES:
     dance-single:
     8Chasey:
     Beginner:
     1:
     0,0,0,0,0:
0000
0000
0000
0000
,
0000
0000
0000
0000
,
0000
0000
0000
0000
,
0000
0000
0000
0000
,
0001
0000
0000
0000
,
0001
0000
0000
0000
,
1000
0000
0000
0000
,
1000
0000
0000
0000
,
0010
0000
0000
0000
,
0010
0000
0000
0000
,
0100
0000
0000
0000
,
0100
0000
0000
0000
,
0001
0000
0001
0000
,
0001
0000
0000
0000
,
1000
0000
1000
0000
,
1000
0000
0000
0000
,
0001
0000
1000
0000
,
0001
0000
0000
0000
,
1000
0000
0001
0000
,
1000
0000
0000
0000
,
0000
0001
0001
0000
,
0001
0000
0000
0000
,
1000
0000
0000
0000
,
0001
0000
0000
0000
,
0000
1000
1000
0000
,
1000
0000
0000
0000
,
0001
0000
0000
0000
,
1000
0000
0000
0000
,
0000
0000
0010
0010
,
0000
0000
0100
0000
,
0100
0000
0010
0000
,
0010
0000
0000
0000
,
0000
0100
0100
0000
,
0010
0000
0010
0000
,
0100
0000
0100
0000
,
0010
0010
0010
0000
,
0000
0000
0100
0100
,
0000
0000
0000
0001
,
0000
0001
0000
1000
,
1000
1000
1000
0000
,
0001
0000
0000
0000
,
1000
0000
0000
0000
,
0010
0000
0010
0000
,
0010
0010
0010
0000
,
1000
0000
0000
0000
,
0001
0000
0000
0000
,
1000
0000
0001
0000
,
1000
0000
0000
0000
,
0010
0000
0000
0000
,
0100
0000
0000
0000
,
0010
0000
0100
0000
,
0010
0000
0000
0000
,
1000
0000
1000
0000
,
0001
0000
0001
0000
,
0100
0000
0100
0000
,
0010
0000
0010
0000
,
0100
0000
0000
0000
,
0100
0000
0000
0000
,
0100
0000
0000
0000
,
0100
0000
0000
0000
,
0001
0000
0000
0000
,
1000
0000
0000
0000
,
0001
0000
1000
0000
,
0001
0000
0000
0000
,
0100
0000
0000
0000
,
0010
0000
0000
0000
,
0100
0000
0010
0000
,
0100
0000
0000
0000
,
0000
0001
0000
0001
,
0000
0001
0000
0001
,
0000
0001
0000
0001
,
0000
0100
0000
0010
,
0000
1000
0000
1000
,
0000
1000
0000
1000
,
0000
1000
0000
1000
,
0000
0000
0000
0000
,
0001
0000
0000
0000
,
0000
0000
0000
0000
,
1000
0000
0000
0000
,
0000
0000
0000
0000
,
0010
0000
0000
0000
,
0000
0000
0000
0000
,
0100
0000
0000
0000
;

//--------------- dance-single - 8Chasey ----------------
#NOTES:
     dance-single:
     8Chasey:
     Easy:
     2:
     0,0,0,0,0:
0000
0000
0000
0000
,
0000
0000
0000
0000
,
0000
0000
0000
0000
,
0000
0000
0000
0000
,
0002
0000
0003
0000
,
1000
0000
0001
0000
,
2000
0000
3000
0000
,
0001
0000
1000
0000
,
0020
0000
0030
0000
,
0100
0000
0010
0000
,
0200
0000
0300
0000
,
0010
0000
0100
0000
,
0001
1000
0001
0000
,
0020
0000
0030
0100
,
0100
0000
0010
0000
,
0200
0000
0300
0000
,
1000
0001
1000
0000
,
0200
0000
0300
0010
,
0010
0000
0100
0000
,
0020
0000
0030
0000
,
0001
1000
0001
0000
,
1000
0000
0100
0000
,
0010
0100
0010
0000
,
0200
0000
0300
0000
,
1000
0001
1000
0000
,
0001
0000
0010
0000
,
0100
0010
0100
0000
,
0020
0000
0030
0000
,
0110
0000
0100
0020
,
0030
0001
1000
0000
,
0001
0000
0001
0000
,
1000
0000
1000
0000
,
0000
0100
0020
0030
,
0001
1000
0000
1000
,
0001
0000
1000
0000
,
0010
0000
0000
0010
0000
0000
0000
0000
,
0200
0300
0001
0002
,
0000
0003
0000
1000
,
0000
0001
1000
0000
,
0100
0100
0020
0030
,
0200
0000
0300
0000
,
1000
1000
0000
0010
,
0100
0100
0010
0010
,
1000
0001
1001
0000
,
0002
0000
1003
0000
,
0001
0001
0000
1000
,
1000
0000
0010
0000
,
0200
0000
0300
0000
,
0010
0100
0010
0000
,
0100
0010
0100
0000
,
0001
0000
1000
0000
,
2002
0000
3003
0000
,
0001
1000
0001
0000
,
1000
0001
1000
0000
,
0010
0100
0010
0000
,
0100
0010
0100
0000
,
0020
0000
0030
0000
,
0200
0000
0300
0000
,
0001
0000
1000
0000
,
1000
0000
0001
0000
,
2000
0000
3001
0000
,
1000
1000
0000
0001
,
0001
0000
0100
0000
,
0020
0000
0030
0000
,
0100
0010
0100
0000
,
0010
0100
0010
0000
,
1000
0000
0001
0000
,
2002
0000
3003
0000
,
0001
0000
0010
0000
,
0002
0000
0003
0000
,
1000
0001
1000
0000
,
0001
0000
0000
0000
,
1000
0000
0010
0000
,
2000
0000
3000
0000
,
0001
1000
0001
0000
,
1000
0000
0000
0000
,
0002
0000
0003
0000
,
0002
0000
0003
0000
,
2000
0000
3000
0000
,
2000
0000
3000
0000
,
0020
0000
0000
0000
,
0030
0000
0000
0000
,
0200
0000
0000
0000
,
0300
0000
0000
0000
;

//--------------- dance-single - 8Chasey ----------------
#NOTES:
     dance-single:
     8Chasey:
     Medium:
     5:
     0,0,0,0,0:
0000
0000
0000
0000
,
0000
0000
0000
0000
,
0000
0000
0000
0000
,
0000
0000
0000
0000
,
0002
0000
0103
0010
,
2000
0000
3010
0100
,
0020
0000
0130
0010
,
0200
0000
0000
0000
0310
0100
0010
0000
,
1000
0000
0100
1000
0100
0000
1000
0000
,
0010
0000
0100
0000
0001
0100
0001
0000
,
0010
0000
0001
1000
0001
0000
0100
0000
,
0010
0000
1000
0000
0010
0100
0010
0000
,
0100
0001
0100
0000
0002
0000
1003
0000
,
0020
0000
0000
0000
1000
0000
1030
1000
,
0100
0000
1000
0001
2000
0000
3001
0000
,
0020
0000
0001
0031
,
0100
0001
0100
0000
0020
0000
1030
0000
,
0200
1000
0000
1300
,
0001
1000
0001
1000
0001
0000
0010
0000
,
0100
0010
0100
0000
0010
0000
1001
0000
,
0001
0100
0200
0301
,
0010
0000
0001
1000
0001
0000
1000
0000
,
0010
0000
1000
0100
1000
0000
0010
0000
,
2000
0001
0100
3001
,
0010
0011
0002
1003
,
0100
0000
1000
0010
1000
0000
0010
0000
,
0100
0000
0001
0010
0001
0000
0010
0000
,
0200
0000
0010
0000
0310
0000
0001
0010
,
0002
0000
1003
1001
,
0001
0000
0100
0010
0100
0000
0010
0000
,
2000
0000
0100
0000
3100
0000
1000
0010
,
2000
0000
0000
0000
3001
0000
1000
0001
,
1000
0001
0011
0010
,
0100
0010
0100
0000
1100
0000
1000
0000
,
0010
1000
0010
0000
0100
0000
0010
0000
,
0100
0000
0000
0100
0000
0000
0200
0000
0000
0000
0000
0000
0310
0000
0000
0000
,
1001
0000
0000
0000
0001
0010
0001
0000
,
2000
3001
0010
0110
,
0100
0000
1000
0001
1000
0000
0001
0000
,
0010
0100
0010
0000
0200
0000
0310
0000
,
0002
0010
0100
0103
,
0010
0100
0010
0000
1000
0000
0100
1000
,
0100
0000
1000
0000
0001
0000
0100
0001
,
0100
0010
0110
0000
,
2001
0000
0001
0000
3001
0000
0010
0001
,
0020
0000
0100
0000
0130
0000
1000
0100
,
1000
0000
0010
1000
0010
0000
0100
0000
,
0002
0100
0103
0010
,
1000
0010
1000
0000
0100
1000
0100
0000
,
0020
0000
0032
0000
0103
0000
0010
0100
,
0010
0000
1000
0000
0001
1000
0001
0000
,
2000
0001
0001
3001
,
1001
0000
0001
0000
1000
0100
1000
0000
,
0010
0000
1000
0000
0001
0100
0001
0000
,
0011
0000
0010
0000
0100
1000
1100
0000
,
1010
0000
0010
0000
0100
0001
0101
0000
,
0200
0000
0010
0000
0310
0000
1000
0010
,
1000
0000
0001
0010
0001
0000
0100
0000
,
0020
0000
0100
0000
0130
0000
0001
0100
,
0001
0000
1000
0100
1000
0000
0001
0000
,
0100
0000
0110
0000
0010
1000
0010
0000
,
0200
0000
0010
0000
0310
0000
1000
0001
,
1000
0001
0100
0001
,
2000
0100
3100
1000
,
0001
0010
0001
0000
0100
0001
0100
0000
,
0020
0000
2030
0000
3100
0000
0010
0100
,
0010
0000
0001
0000
1000
0001
1000
0000
,
0002
1000
1000
1003
,
0001
0000
0100
0001
0100
0000
0010
0000
,
1000
0100
1000
0001
,
1000
0000
0100
1000
0100
0000
0010
0000
,
0001
0100
0001
1000
,
0010
0000
0100
0010
0100
0000
0002
0000
,
0010
0000
0013
0000
0001
1000
0001
0000
,
0100
0000
0010
0100
0010
0000
2000
0000
,
0001
3001
0010
0100
,
0020
0001
0000
0031
,
0100
0002
0000
0103
,
0020
1000
0000
1030
,
0100
2000
0000
3100
,
0020
0000
0000
0030
,
0200
0000
0000
0300
,
2000
0000
0000
3000
,
0002
0000
0000
0003
;

//--------------- dance-single - 8Chasey ----------------
#NOTES:
     dance-single:
     8Chasey:
     Hard:
     8:
     0,0,0,0,0:
0000
0000
0000
0000
,
0000
0000
0000
0000
,
0000
0000
0000
0000
,
0000
0000
0000
0000
,
0002
0000
0000
0000
0100
0000
0000
0200
0000
0000
0000
0000
0303
0000
0001
0000
,
2000
0000
0000
0000
0100
0000
0000
0200
0000
0000
0000
0000
3300
0000
1000
0000
,
0200
0000
0000
0000
0010
0000
0000
0000
0000
0000
0310
0000
0000
0100
0000
0000
,
0010
0002
1000
0000
1003
0000
0100
1000
,
0100
0000
0010
0010
0002
0000
1003
0000
,
1010
0000
1000
1000
0001
0010
0100
0100
,
0010
0000
0100
0100
2000
0000
3001
0000
,
0011
0000
0001
0001
0010
0001
1000
0100
,
0010
0000
0001
0000
0100
0000
0000
0100
0002
0000
0000
0000
1003
0000
0000
0000
,
0100
1000
0100
0100
1000
0001
0100
0000
,
0010
0000
1000
0000
0100
0000
0000
0100
2000
0000
0000
0000
3001
0000
0000
0000
,
0010
0001
0100
0100
0010
1000
0100
0100
,
0010
0000
0001
0000
0100
0000
0000
0001
0000
0000
1000
0000
0100
0000
1000
0000
,
0010
0000
1000
0000
0100
0000
0000
1000
0000
0000
0001
0000
0100
0000
0001
0000
,
0010
0000
0100
0000
0010
0000
0000
0100
0000
0000
1000
0000
0010
0000
0100
0000
,
0001
1000
1000
0001
0001
0100
0020
0000
,
0130
0000
0001
0100
0002
0000
0013
0100
,
1000
0000
0100
2000
0000
0010
3010
1000
,
0100
0000
0010
0001
0010
0000
0001
0020
,
0100
0000
0001
0000
0130
1000
1001
0000
,
0100
0001
0020
0000
0230
1000
1300
0001
,
0100
0001
1000
0200
0000
1000
1300
0010
,
2000
0000
3001
0010
0002
0100
0103
0020
,
1000
0000
0000
0000
0100
0000
0000
0000
1030
0000
0100
1000
0000
0100
1000
0000
,
2002
0000
3003
0000
0001
0010
0110
0000
,
0200
0000
0000
0000
1000
0000
1300
0000
0010
0000
1000
0010
0000
0100
0010
0000
,
0200
0000
0000
0000
0301
0000
0010
0000
0001
0000
0000
0001
1000
0000
0100
0000
,
1000
0000
1000
0000
0002
0000
0000
0000
0100
0000
0000
0100
0000
0000
0103
0000
,
0010
0000
0100
0001
1000
0000
1001
0000
,
0001
1000
0002
0000
0013
0100
0010
0001
,
2000
0000
3100
1000
0001
0100
1000
0100
,
0020
0000
0000
0100
0000
0000
0130
0000
0001
0000
1000
0000
1100
0000
0000
0000
,
0022
0000
0033
0001
0100
0010
2000
0000
,
3010
0000
0100
0000
0001
0000
0100
0000
0010
0100
0010
0000
0200
0000
0000
0000
,
0301
0010
0001
1000
0100
0000
0010
0010
,
0100
0100
1000
0001
2000
0000
3001
0100
,
0002
0000
0010
0000
1003
0100
1000
0000
,
0010
0100
0020
0000
1000
0000
0130
0001
,
0101
0000
0001
0001
0010
0000
0100
1000
,
1100
1000
0001
0100
0020
0000
0130
0000
,
0001
0100
0001
0002
0010
0010
1000
1000
,
1003
0100
2000
0000
3010
0100
0001
0010
,
0120
0000
0130
1000
0002
0000
0103
0001
,
0020
0000
0100
0100
0130
1000
0100
1000
,
0001
0100
0000
0000
0100
0010
0000
0000
0010
1000
0000
0000
1000
0001
0000
0000
,
0010
0001
0000
0000
0100
0010
0000
0000
1000
0100
0000
0000
0010
0000
0100
0000
,
0010
0000
0001
0100
0002
1000
0000
2000
,
0000
0000
0000
0000
3003
0000
0000
0000
1000
0001
1000
0000
0010
0000
0100
0000
,
0001
0100
0001
0001
0010
0001
1000
0010
,
1000
0100
1000
1000
0010
1000
0001
0010
,
0100
0000
0000
0100
0010
0000
0001
0000
0100
0000
0001
0000
1000
0000
0000
0000
,
0100
1000
0010
0100
0001
0100
0010
0100
,
0002
0000
0010
0010
0023
0000
0100
0100
,
0230
0000
1000
1000
2300
0000
3001
0000
,
1001
0000
0001
0010
0200
0000
0310
0001
,
0010
0000
0001
0100
0001
1000
0100
0010
,
0200
0000
1300
0001
0001
1000
0010
0100
,
0002
0010
0010
0000
1003
0010
1000
0100
,
0020
0000
0100
0130
1000
0010
1000
0002
,
0100
0000
0000
0000
1003
0000
0010
0000
1000
0000
0100
1000
0100
0000
1000
0000
,
0001
0010
0000
0000
0010
0100
0000
0000
0100
1000
0000
0000
1000
0001
0000
0000
,
0100
0010
0000
0000
0010
0100
0000
0000
1001
0000
0000
0000
1000
0000
0000
0000
,
0002
0000
1003
0100
2000
0000
3010
0100
,
0020
0000
0100
0000
0000
0100
0000
0000
0130
0000
0001
0000
0010
0000
0100
0000
,
2000
0000
0100
0100
0010
0000
3100
0010
,
0002
0000
0100
0100
0013
0001
0001
0100
,
0002
0000
0010
0010
0100
0000
0013
0100
,
2000
0000
0010
0010
3100
1000
1000
0010
,
0200
0000
0010
0010
0301
0000
0010
0001
,
0020
0000
0100
0130
1000
0010
1000
0100
,
0020
0000
0100
0130
0010
0001
0100
0000
,
0020
0000
1000
1030
0100
1000
0001
0010
,
0002
0000
0100
0000
0000
0103
0000
0001
,
2000
0000
0010
0000
0000
3010
0000
1000
,
0100
0000
0010
0000
0200
0000
0000
0000
0000
0000
0310
0000
0000
0010
0000
0000
,
0010
0000
0000
0000
0001
0000
0000
1000
0000
0000
0001
0000
1000
0000
0000
0000
,
0200
0000
1000
0000
0000
1300
0000
0100
,
0020
0000
0001
0000
0000
0031
0000
0100
,
0020
0000
0200
0000
0330
0000
0010
0100
,
0002
2000
3003
2002
,
0000
0000
0000
3003
;
