#TITLE:KITCHEN WITHOUT GUN;
#SUBTITLE:;
#ARTIST:YouSeeKenny;
#TITLETRANSLIT:;
#SUBTITLETRANSLIT:;
#ARTISTTRANSLIT:;
#GENRE:;
#CREDIT:;
#MUSIC:Kitchen Without Gun.ogg;
#BANNER:;
#BACKGROUND:;
#CDTITLE:;
#SAMPLESTART:21.48;
#SAMPLELENGTH:12;
#SELECTABLE:YES;
#OFFSET:-0.180;
#BPMS:0.000=160.000;
#STOPS:32.000=0.750
,34.000=0.750
,36.000=0.750
,37.500=0.188
,38.000=0.189
,38.500=0.188
,39.000=0.189
,40.000=0.750
,41.500=0.375
,42.000=0.375
,43.500=0.375
,44.000=0.375
,45.500=0.375
,46.000=0.375
,180.000=1.500
;
#BGCHANGES:;
#FGCHANGES:;

//--------------- dance-single - ----------------
#NOTES:
     dance-single:
     :
     Beginner:
     3:
     0,0,0,0,0:
0000
0000
0000
0000
,
0000
0000
0000
0000
,
0000
0000
0000
0000
,
0000
0000
0000
0000
,
1000
1000
1000
0000
,
0001
0001
0001
0000
,
0100
0100
0100
0100
,
0100
0000
0110
0000
,
0001
0000
1000
0000
,
0010
0000
0000
0000
,
0100
0000
1001
0000
,
0110
0000
1001
0000
,
0010
0010
0010
0000
,
0110
0110
0110
0000
,
0001
0000
0001
0000
,
1000
1000
1000
0000
,
0010
0000
0100
0000
,
0001
0001
0001
0000
,
1001
0000
0110
0000
,
1000
0000
0001
0000
,
0110
0000
0110
0000
,
0110
0000
0100
0100
,
0100
0000
0001
0000
,
0010
0000
0110
0000
,
0100
0000
1000
0000
,
0010
0000
0110
0000
,
0001
0001
0001
0000
,
1000
1000
1000
0000
,
1001
0000
0110
0000
,
1001
0000
0000
0000
,
0001
0000
0000
0001
,
0001
0000
1001
0000
,
1000
0000
0000
1000
,
1000
0000
0110
0000
,
0010
0000
1000
0000
,
0010
0000
0001
0000
,
0010
0010
0010
0000
,
0110
0110
0110
0000
,
1000
1000
1000
0000
,
0001
0001
0001
0000
,
1001
1001
1001
0000
,
0100
0000
0010
0000
,
1000
0000
0001
0000
,
0100
0000
0010
0000
,
1000
0000
0001
0000
,
1001
0000
1001
0000
,
1000
0000
0010
0000
,
0001
0001
0001
0000
,
0001
0000
0100
0000
,
1000
1000
1000
0000
,
0010
0000
0000
0000
,
0110
0000
1001
0000
,
0110
0000
0010
0010
,
0010
0000
1000
0000
,
0100
0000
1001
0000
,
0010
0000
0001
0000
,
0100
0000
1001
0000
,
1000
1000
1000
0000
,
0001
0001
0001
0000
,
1001
0000
0110
0000
,
1001
0000
0000
0000
,
1000
0000
0100
0000
,
1000
0000
1001
0000
,
0001
0000
0100
0000
,
0001
0000
1001
0000
,
0010
0010
0010
0000
,
0110
0000
0110
0000
,
0110
0000
0000
0000
;

//--------------- dance-single - ----------------
#NOTES:
     dance-single:
     :
     Easy:
     6:
     0,0,0,0,0:
0000
0000
0000
0000
,
0000
0000
0000
0000
,
0000
0000
0000
0000
,
0000
0000
0000
0000
,
1000
0000
0001
0100
0001
0000
1000
0100
,
1000
0010
1010
0011
,
1001
0000
1000
0100
,
0001
0010
0110
1001
,
1000
0100
0000
0001
0000
0100
0000
1000
,
0000
0010
0000
0010
0010
0010
0010
0000
,
1000
0010
0000
0010
0001
1000
0000
0001
,
1000
0001
0000
1000
0001
0100
0000
0100
,
0000
0000
0000
0000
0000
0000
0000
1001
,
0000
1001
0000
1001
0000
1001
0000
0000
,
1000
0000
0000
0010
0000
1000
0000
1010
,
0000
1000
0001
0100
,
0001
0000
0000
0010
0000
0001
0000
0011
,
0000
1000
1001
0001
,
1001
0000
0000
0100
0000
0001
0000
1000
,
0000
0010
0100
0000
0110
0000
0000
1010
,
0000
0000
0000
0011
0000
0000
0000
1001
,
0000
0000
0110
0000
0100
0100
0100
0000
,
0001
0000
0000
0011
0000
1001
0000
1010
,
0000
1000
0100
1100
,
0010
0000
0000
1010
0000
1001
0000
0011
,
0000
0100
0010
0000
0100
0000
0000
0000
,
1010
0000
1000
0000
,
0011
0000
0000
0000
0001
0000
0000
1100
,
0000
0000
0000
0101
0000
0000
0000
1001
,
0000
0000
0000
0000
,
0100
0100
1000
0000
,
1000
0010
0001
0100
,
0001
0000
0001
0000
0001
1000
0000
0000
,
0100
0010
0100
0000
,
1100
0000
1000
0001
,
0001
0100
0101
0011
,
1000
0000
0000
0000
0010
1000
0000
0001
,
0100
0010
0110
0000
,
1000
0000
1000
0000
0010
0000
0100
0001
,
1000
0000
0010
0000
1000
0000
0001
0010
,
0001
0000
0100
0000
0001
0000
1000
0010
,
1000
0001
0100
0100
,
1010
0000
1010
0011
,
0101
0000
0000
0000
0001
0001
1000
0000
,
0010
0010
1000
0001
,
1001
0000
0000
1010
0000
1001
0000
0101
,
0000
0001
1000
0000
0100
0000
0100
0000
,
1001
0000
0000
0011
0000
1001
0000
1100
,
0000
0000
1000
0100
0001
0000
0000
0000
,
0010
0001
1000
1010
,
0011
0000
0100
0000
0100
0000
0000
0011
,
0000
0001
0000
1010
0000
1000
0000
1001
,
0000
0000
0110
0000
0010
0010
0010
0000
,
1000
0100
0001
0010
,
0001
1000
0100
0000
0100
0000
0100
0000
,
1000
1010
0001
0101
,
0001
1000
1001
0000
,
1000
0000
0000
0010
0000
1000
0000
0001
,
0000
0100
0000
0100
0000
0000
0000
0101
,
0000
0001
0000
1100
0000
1000
0000
0110
,
0000
1000
0010
0001
,
1000
0000
0100
0010
,
0001
0000
0100
0010
,
1000
0100
1000
0001
,
0100
0000
0001
0000
0110
0000
0000
1100
,
0000
0101
0100
0010
,
1000
0000
0000
0100
0000
0000
1000
0000
0001
0000
0000
0100
0000
0000
0001
0000
,
0010
0000
0000
0000
;

//--------------- dance-single - ----------------
#NOTES:
     dance-single:
     :
     Medium:
     8:
     0,0,0,0,0:
0000
0000
0000
0000
,
0000
0000
0000
0000
,
0000
0000
0000
0000
,
0000
0000
0000
0000
,
1000
0000
0001
0010
1001
1000
1100
0000
,
1000
0000
0010
0000
0001
0010
1000
0010
,
0100
1000
0001
0000
0101
0001
1000
0000
,
0010
1000
0100
0001
1000
0010
0001
0100
,
0010
1000
0100
1000
0000
0001
0000
0011
,
0000
1000
0000
1010
0001
0010
1000
0100
,
0010
0001
0100
0001
1001
1000
0000
0010
,
1100
0001
0000
0010
0101
1000
0000
0001
,
0000
0000
1000
0000
0001
0000
0000
0010
0001
0000
1000
0000
0010
0000
0101
0000
,
0000
1100
0000
0101
0000
1100
0000
0000
,
0010
1000
0100
1001
0000
0101
0000
0001
,
1000
0010
0100
1000
0001
0000
0100
0000
,
0011
0000
0100
1001
0000
1010
0000
0011
,
0000
1000
0010
0001
0010
1000
0100
0000
,
1100
0000
0010
0101
0000
1001
0000
1000
,
0100
0001
1000
0010
0100
1000
0001
0100
,
0000
1010
0000
0100
0000
0011
0000
1001
,
0000
0001
1000
0010
0100
0100
0001
0000
,
1001
0000
1000
0100
0000
0010
0001
1000
,
0010
0000
1010
1000
0001
0010
0011
0000
,
1000
0000
0001
0011
0000
1000
0010
0100
,
1000
0100
0001
1000
0100
0000
1100
0000
,
0110
0000
0010
0001
1000
1010
0000
0011
,
0000
1000
0100
0001
1000
0010
0001
0100
,
0000
0010
0000
1100
0000
0010
0000
0101
,
0000
0000
1000
0000
0001
0010
0001
1000
,
0100
1000
0001
0101
,
1010
0000
1000
0000
0010
0100
0001
1000
,
0100
0000
0110
0000
0011
0000
1000
1010
,
0000
0100
0001
1000
0010
0000
0000
0000
,
1000
1000
0010
0000
0001
0010
0011
0000
,
0001
0101
1010
1000
,
1000
0100
0001
1000
0010
0001
0100
0010
,
0000
1010
1000
0000
0011
0001
0000
0000
,
1000
0010
0001
0010
,
1100
0110
0011
1001
,
1000
0010
0100
0001
1000
0100
0001
0000
,
0010
0001
1000
0010
,
1010
0000
1000
0100
0001
0000
0010
0001
,
0000
1000
0010
0000
0101
0000
0110
0000
,
1010
0000
1000
0010
0001
0010
0100
0001
,
1001
0000
1100
0101
0000
1000
0001
0000
,
0010
0001
0010
1000
0010
0100
1000
0000
,
1000
0000
0010
0100
0000
0001
0000
0101
,
0000
0001
1000
0000
0010
0010
0010
0000
,
1100
0000
0001
0100
0000
0101
0000
0110
,
0000
0010
1000
0010
0100
0001
0100
0010
,
0000
1010
0000
0100
0000
0101
0000
1001
,
0000
1000
0100
0001
0010
0010
0010
0000
,
1000
1010
0001
0101
,
0001
1000
0100
0010
1000
0010
0001
0000
,
1100
0000
0010
0001
1000
0001
0000
0101
,
0000
0001
1000
0100
,
1100
0110
0011
1001
,
1000
0010
0001
0000
0100
0001
0010
1000
,
0000
0110
0000
0001
0000
0110
0000
1000
,
0000
0001
0100
1000
,
0010
1000
0100
1000
0000
0001
1000
0001
,
0010
0001
0100
0001
0000
1000
0001
1000
,
0000
1010
0000
1000
0000
0011
0000
0001
,
0000
1100
0000
0101
0000
1000
0010
0001
,
0010
0100
0001
1000
0100
0010
0001
1000
,
0010
0000
0000
0010
1000
0000
0010
0000
0011
0000
0000
0001
1000
0000
0100
0000
,
0010
0000
0000
0000
;

//--------------- dance-single - ----------------
#NOTES:
     dance-single:
     :
     Hard:
     10:
     0,0,0,0,0:
0000
0000
0000
0000
,
0000
0000
0000
0000
,
0000
0000
0000
0000
,
0000
0000
0000
0000
,
1100
0000
1000
0000
0010
0000
0100
0001
0000
0000
0011
0000
0100
0000
0001
1000
,
0000
0000
0010
0000
1000
0000
0100
0010
0000
0001
1000
0010
0100
0000
0100
0000
,
0101
0000
0001
0000
0010
0000
1000
0010
0000
0000
0001
0000
1000
0000
1010
0000
,
1001
0000
0000
0000
0101
0000
0100
0000
0010
1000
0000
0000
1001
0000
0000
0000
,
0110
1000
1000
1000
0000
0100
0010
0110
,
0000
0001
0001
0101
1100
1010
0011
0110
,
1000
0001
0001
0001
1100
0010
0000
0110
,
0101
1010
0000
0001
1000
0010
0000
1001
,
0000
1000
0100
0001
0010
1000
0000
0101
,
0001
0000
1100
0000
1000
0000
0110
0000
0110
0000
1001
0000
0000
0000
1000
0100
,
0010
0000
0001
0000
1010
0000
1100
0000
1000
0000
0101
0000
0000
0000
0001
0010
,
0100
0000
1000
0000
1001
0000
0010
0100
0010
0000
0100
0000
0001
0000
0001
0000
,
0110
0000
0010
0100
1000
0000
1100
0000
1000
0000
1001
0000
0001
0000
0100
0001
,
0010
0000
1000
0010
0001
0000
0100
0000
0010
1000
0001
0100
0010
0000
0110
0000
,
1100
0000
1000
0000
0011
0000
0011
0000
0000
0000
0100
0001
1000
0000
0010
0000
,
1001
0000
1000
0000
0010
0000
0001
0000
1000
0000
0100
0000
0010
0001
1000
0000
,
0000
0000
1100
0000
0010
1000
0001
0000
0000
0000
0101
0000
0100
0000
0010
0000
,
0000
0000
1000
0000
1100
0000
0010
0001
0100
0000
0101
0000
0110
0000
0000
0000
,
1010
1000
0001
0011
0100
0001
0100
1000
,
0100
0100
0100
0001
0010
0010
0110
0000
,
1000
0010
1010
0001
0000
0100
0001
1000
,
0100
0000
0010
0001
0010
0000
1000
0000
0010
0000
0110
0000
1100
0000
0000
0000
,
1000
0000
0010
0000
1010
0000
1001
0000
0000
0000
0100
0001
1000
0000
0001
0000
,
0000
0000
0011
0000
0010
0000
0001
0000
1000
0000
0100
0000
0100
1000
0001
0000
,
0000
0000
0011
0000
0100
0001
1000
0000
0000
0000
1010
0000
0010
0000
1001
0000
,
0000
0000
1000
0010
1000
0000
0001
0010
0001
0000
1000
0000
0110
0000
0000
0000
,
1010
0000
0011
0000
0010
0100
0010
0001
,
1000
0000
0010
0000
0100
0000
1000
0000
0100
0001
0100
0001
0100
0000
0001
0000
,
1000
0000
0010
0000
0110
0000
0000
0000
1000
0000
1100
0000
0000
0000
0010
0001
,
0010
0000
0100
0000
1001
0000
0000
1000
0001
0000
0001
0100
0010
0000
1000
0100
,
1000
0000
0000
0000
0110
0000
0000
0010
0001
0000
0100
0001
1000
0000
0100
0000
,
0010
0000
0000
0000
0011
0000
0001
1000
0010
0000
0100
0000
1000
0000
0100
0000
,
0001
0000
0001
0000
1000
0010
1000
0000
0001
0000
0010
0000
1000
0000
0110
0000
,
0000
0000
0100
1000
0001
0000
0010
0000
0110
0000
0100
0000
1000
0000
0010
0100
,
0001
0000
0010
0000
0100
0000
1000
0001
0000
0000
0101
0000
0010
0000
1000
0010
,
0000
0000
0110
0000
0001
0000
0010
0100
1000
0000
0001
0000
1010
0000
0000
0000
,
0100
0000
0101
0000
0001
0000
1000
0010
0000
0100
1000
0000
0100
0000
0001
0010
,
0000
0100
1000
0000
0100
0010
0001
0000
1000
0000
0010
0000
0100
0010
1000
0100
,
0010
0000
0001
0000
0011
0000
0001
0010
0000
0100
0010
0000
0001
0000
1000
0010
,
0000
0100
0010
0000
0100
0000
0001
1000
0000
0100
0010
0000
0001
1000
0010
0001
,
0010
1000
1100
1000
1001
0001
0011
0010
,
1001
0000
0000
0000
1010
0000
0110
0000
0100
0001
1000
0000
0100
0000
1100
0000
,
0000
0000
1000
0010
1000
0000
0001
0000
0011
0000
0001
0000
0101
0000
0100
0001
,
0010
0000
0001
0010
1000
0000
0010
0000
0100
0000
1100
0000
1000
0000
0010
0100
,
0001
0000
0001
0000
1000
0000
1000
0000
0100
1000
0010
0100
0001
1000
0100
0000
,
0110
0000
0010
0000
0011
0000
1010
0000
1000
0010
0100
0000
0001
0000
0101
0000
,
0000
0000
1100
0000
1000
0001
1000
0000
0100
0000
0100
0000
0010
0000
1100
0000
,
0000
0000
1000
0010
0100
0000
0101
0000
0000
0000
0001
0010
0100
0000
1001
0000
,
0000
0000
1010
0000
0011
0000
0010
0100
1000
0001
0100
0000
0110
0000
0000
0000
,
1010
0000
1000
0000
0101
0000
0011
0000
0100
0000
1100
0000
0000
0000
1000
0010
,
0100
0000
0001
0000
1000
0000
0100
1000
0001
0000
0010
0000
0011
0000
1000
0000
,
0100
1000
0010
0000
1000
0001
0010
0000
0001
0100
0010
1000
0010
0000
0110
0000
,
0000
1100
0110
0011
1001
0110
1001
1000
,
0001
0000
0000
0001
0010
0000
0001
1000
0010
0000
0100
0000
1000
0100
0001
0000
,
1000
0000
1100
0000
1000
0000
0001
0000
0101
0000
0110
0000
1001
0000
1000
0010
,
0000
0000
0110
0000
0100
0000
0001
0010
0000
0000
0110
0000
1100
0000
0101
0000
,
0000
0000
1000
0100
0001
0000
1000
0010
0001
0000
0000
0100
0010
0000
0100
0000
,
0101
0001
1000
0010
0110
1000
0100
1000
,
1010
0000
0100
0000
0100
0000
0001
1000
0010
0000
0100
0001
0010
0001
1000
0000
,
0100
1010
1000
1001
0001
0011
0001
1100
,
0000
0000
1000
0010
0001
0000
0010
1000
0001
0000
1100
0000
1000
0000
0101
0000
,
0000
0000
0010
1000
0001
0010
0100
0000
0000
0000
0010
0000
0001
0000
1000
0000
,
1010
0000
0100
0001
0100
0000
0001
0000
1000
0001
0010
0001
1000
0010
0100
0000
,
0110
0000
0000
0000
;
